osu file format v14

[General]
AudioFilename: audio.mp3
AudioLeadIn: 0
PreviewTime: 54030
Countdown: 0
SampleSet: Soft
StackLeniency: 0.4
Mode: 0
LetterboxInBreaks: 0
WidescreenStoryboard: 0

[Editor]
Bookmarks: 41546,99280
DistanceSpacing: 0.7
BeatDivisor: 3
GridSize: 32
TimelineZoom: 3.499999

[Metadata]
Title:FLuegeL(Arp:EggyO)
TitleUnicode:FLügeL《Λrp:ΣggyØ》
Artist:Kaneko Chiharu
ArtistUnicode:かねこちはる
Creator:Chalwa
Version:EXHAUST
Source:SOUND VOLTEX III GRAVITY WARS
Tags:konami original ac sdvx the 5th kac original song contest winner
BeatmapID:1281751
BeatmapSetID:605543

[Difficulty]
HPDrainRate:6
CircleSize:4
OverallDifficulty:7
ApproachRate:9.2
SliderMultiplier:1.80000000596046
SliderTickRate:1

[Events]
//Background and Video events
0,0,"KIEDYWYNIKITESTÓWPLS.png",0,0
//Break Periods
2,73030,79460
//Storyboard Layer 0 (Background)
//Storyboard Layer 1 (Fail)
//Storyboard Layer 2 (Pass)
//Storyboard Layer 3 (Foreground)
//Storyboard Sound Samples

[TimingPoints]
2046,500,4,2,0,100,1,0
13046,-100,4,2,0,60,0,0
14046,250,6,2,0,70,1,0
14046,-100,6,2,0,70,0,0
25546,-100,6,2,0,72,0,0
25608,-100,6,2,0,74,0,0
25671,-100,6,2,0,76,0,0
25733,-100,6,2,0,78,0,0
25796,-100,6,2,0,80,0,0
25858,-100,6,2,0,82,0,0
25921,-100,6,2,0,84,0,0
25983,-100,6,2,0,86,0,0
26046,-83.3333333333333,6,2,0,90,0,1
30046,-83.3333333333333,6,2,0,90,0,1
30546,-83.3333333333333,6,2,0,90,0,1
32046,-100,6,2,0,90,0,0
38046,250,4,2,0,90,1,0
38046,-166.666666666667,4,2,0,90,0,0
50046,-100,4,2,0,90,0,0
54030,250,4,2,0,90,1,1
54030,-83.3333333333333,4,2,0,90,0,1
66030,-100,4,2,0,90,0,0
70030,-100,4,2,0,90,0,1
72030,-142.857142857143,4,2,0,70,0,0
87030,-100,4,2,0,70,0,0
89030,-125,4,2,0,70,0,0
90030,-100,4,2,0,80,0,1
98030,-100,4,2,0,80,0,0

[Colours]
Combo1 : 31,0,62
Combo2 : 255,79,167
Combo3 : 255,255,121
Combo4 : 253,167,130

[HitObjects]
256,192,10046,12,0,13046,0:0:0:0:
370,88,14046,6,0,P|375:150|277:213,1,180.000000596046,4|8,0:0|0:0,0:0:0:0:
143,168,14421,1,0,0:0:0:0:
189,266,14546,2,0,L|209:354,1,90.0000002980232,2|0,0:0|0:0,0:0:0:0:
143,168,14796,1,8,0:0:0:0:
190,266,14921,2,0,P|129:275|95:264,1,90.0000002980232,8|0,0:0|0:0,0:0:0:0:
98,80,15171,2,0,P|159:71|193:82,1,90.0000002980232,0|2,0:0|0:0,0:0:0:0:
185,78,15546,6,0,L|297:89,1,90.0000002980232,4|0,0:0|0:0,0:0:0:0:
360,178,15796,2,0,L|248:189,1,90.0000002980232,8|0,0:0|0:0,0:0:0:0:
169,245,16046,2,0,P|195:287|322:296,1,180.000000596046,2|8,0:0|0:0,0:0:0:0:
184,164,16421,2,0,P|132:171|98:204,1,90.0000002980232,8|0,0:0|0:0,0:0:0:0:
270,186,16671,2,0,P|289:137|278:91,1,90.0000002980232,0|2,0:0|0:0,0:0:0:0:
283,101,17046,6,0,L|462:74,1,180.000000596046,4|8,0:0|0:0,0:0:0:0:
401,215,17421,1,0,0:0:0:0:
283,101,17546,2,0,L|197:38,1,90.0000002980232,2|0,0:0|0:0,0:0:0:0:
68,58,17796,1,10,0:0:0:0:
181,126,17921,1,0,0:0:0:0:
47,45,18046,2,0,B|18:77|18:77|18:136,1,90.0000002980232,8|2,0:0|0:0,0:0:0:0:
201,138,18296,2,0,B|230:106|230:106|230:47,1,90.0000002980232,8|0,0:0|0:0,0:0:0:0:
18,124,18546,6,0,P|13:200|82:281,1,180.000000596046,4|8,0:0|0:0,0:0:0:0:
240,309,18921,2,0,P|245:233|176:152,1,180.000000596046,0|0,0:0|0:0,0:0:0:0:
167,334,19296,2,0,P|201:375|241:387,1,90.000000298023,8|0,0:0|0:0,0:0:0:0:
351,282,19546,2,0,L|327:186,1,90.000000298023,4|0,0:0|0:0,0:0:0:0:
204,67,19796,2,0,L|182:154,1,90.000000298023,8|0,0:0|0:0,0:0:0:0:
240,309,20046,5,4,0:0:0:0:
259,166,20171,1,0,0:0:0:0:
181,248,20296,2,0,P|161:310|171:343,1,90.000000298023,2|0,0:0|0:0,0:0:0:0:
329,194,20546,2,0,P|333:149|314:109,1,90.000000298023,0|0,0:0|0:0,0:0:0:0:
181,248,20796,2,0,L|92:257,1,90.000000298023,2|0,0:0|0:0,0:0:0:0:
329,194,21046,2,0,L|418:203,1,90.000000298023,0|0,0:0|0:0,0:0:0:0:
293,57,21296,2,0,L|204:66,1,90.000000298023,2|0,0:0|0:0,0:0:0:0:
124,184,21546,6,0,P|148:229|186:249,2,90.000000298023,0|0|2,0:0|0:0|0:0,0:0:0:0:
67,74,21921,2,0,P|43:29|5:9,2,90.000000298023,0|0|0,0:0|0:0|0:0,0:0:0:0:
31,198,22296,1,2,0:0:0:0:
166,78,22421,1,0,0:0:0:0:
16,228,22546,6,0,L|2:297,2,60.000000198682,0|0|0,0:0|0:0|0:0,0:0:0:0:
112,242,22796,2,0,L|126:173,2,60.000000198682,2|0|0,0:0|0:0|0:0,0:0:0:0:
201,263,23046,5,4,0:0:0:0:
201,263,23171,1,0,0:0:0:0:
316,238,23296,2,0,P|322:285|300:325,1,90.000000298023,2|0,0:0|0:0,0:0:0:0:
245,142,23546,2,0,P|239:95|261:55,1,90.000000298023,2|0,0:0|0:0,0:0:0:0:
332,152,23796,2,0,P|379:146|419:168,1,90.000000298023,2|0,0:0|0:0,0:0:0:0:
230,227,24046,2,0,P|183:233|143:211,1,90.000000298023
54,132,24296,2,0,L|35:228,1,90.000000298023,2|0,0:0|0:0,0:0:0:0:
179,98,24546,6,0,P|142:45|75:26,2,120.000000397364,4|0|0,0:0|0:0|0:0,0:0:0:0:
292,101,25046,2,0,P|329:48|396:29,2,120.000000397364,4|0|0,0:0|0:0|0:0,0:0:0:0:
225,196,25546,6,0,P|230:224|223:249,3,45.0000001490115,0|0|0|0,0:0|0:0|0:0|0:0,0:0:0:0:
224,257,25796,2,0,P|219:285|226:310,3,45.0000001490115,0|0|0|0,0:0|0:0|0:0|0:0,0:0:0:0:
232,323,26046,6,0,B|381:366|381:366|326:317,1,215.999994123458,4|2,0:0|0:0,0:0:0:0:
149,254,26421,1,0,0:0:0:0:
149,254,26546,2,0,L|121:362,1,107.999997061729,8|0,0:0|0:0,0:0:0:0:
225,196,26796,1,2,0:0:0:0:
98,158,26921,2,0,P|58:202|51:259,1,107.999997061729,8|0,0:0|0:0,0:0:0:0:
190,111,27171,2,0,P|141:73|0:122,1,215.999994123458,2|0,0:0|0:0,0:0:0:0:
225,196,27546,6,0,B|266:152|266:152|281:95,1,107.999997061729,0|0,0:0|0:0,0:0:0:0:
391,17,27796,2,0,B|408:74|408:74|450:115,1,107.999997061729,2|0,0:0|0:0,0:0:0:0:
428,228,28046,2,0,P|386:249|314:248,1,107.999997061729,8|0,0:0|0:0,0:0:0:0:
125,220,28296,1,0,0:0:0:0:
125,220,28421,2,0,L|119:328,1,107.999997061729,8|0,0:0|0:0,0:0:0:0:
225,196,28671,2,0,B|232:34|232:34|252:94,1,215.999994123458,2|0,0:0|0:0,0:0:0:0:
306,235,29046,6,0,P|262:279|210:285,1,107.999997061729
324,125,29296,2,0,P|381:146|407:186,1,107.999997061729,2|0,0:0|0:0,0:0:0:0:
184,166,29546,2,0,P|173:105|195:62,1,107.999997061729,8|0,0:0|0:0,0:0:0:0:
309,235,29796,1,8,0:0:0:0:
184,166,29921,1,0,0:0:0:0:
402,180,30046,2,0,L|291:247,1,107.999997061729,8|0,0:0|0:0,0:0:0:0:
91,221,30296,2,0,L|202:154,1,107.999997061729,8|0,0:0|0:0,0:0:0:0:
309,235,30546,6,0,L|105:369,1,215.999994123458,8|0,0:0|0:0,0:0:0:0:
278,149,30921,2,0,P|368:147|414:269,1,215.999994123458,8|0,0:0|0:0,0:0:0:0:
183,165,31296,2,0,L|102:58,1,107.999997061729,8|0,0:0|0:0,0:0:0:0:
96,209,31546,2,0,P|127:249|190:263,1,107.999997061729,2|0,0:0|0:0,0:0:0:0:
362,204,31796,2,0,P|331:164|268:150,1,107.999997061729,2|0,0:0|0:0,0:0:0:0:
140,347,32046,6,0,P|213:355|271:264,1,180.000000596046,4|8,0:0|0:0,0:0:0:0:
277,148,32546,1,2,0:0:0:0:
88,132,32796,2,0,B|109:222|109:222|188:273,1,180.000000596046,8|0,0:0|0:0,0:0:0:0:
267,58,33296,6,0,L|279:166,1,90.000000298023,8|0,0:0|0:0,0:0:0:0:
416,252,33546,2,0,L|404:144,1,90.000000298023,2|0,0:0|0:0,0:0:0:0:
276,147,33796,2,0,B|224:150|224:150|187:170,1,90.000000298023,8|0,0:0|0:0,0:0:0:0:
406,162,34046,2,0,B|458:159|458:159|495:139,1,90.000000298023,2|0,0:0|0:0,0:0:0:0:
250,235,34296,1,8,0:0:0:0:
433,84,34421,1,0,0:0:0:0:
243,60,34546,1,0,0:0:0:0:
169,269,34671,2,0,P|208:312|325:275,1,180.000000596046,4|0,0:0|0:0,0:0:0:0:
114,168,35046,6,0,L|79:262,1,90.000000298023,8|0,0:0|0:0,0:0:0:0:
274,144,35296,2,0,L|239:50,1,90.000000298023,8|0,0:0|0:0,0:0:0:0:
199,195,35546,1,8,0:0:0:0:
199,195,35671,1,0,0:0:0:0:
354,209,35796,1,8,0:0:0:0:
354,209,35921,1,0,0:0:0:0:
173,106,36046,2,0,P|126:139|111:185,1,90.000000298023,8|0,0:0|0:0,0:0:0:0:
433,188,36296,2,0,P|411:149|373:126,1,90.000000298023,8|0,0:0|0:0,0:0:0:0:
239,294,36546,6,0,L|102:300,2,120.000000397364,0|0|0,0:0|0:0|0:0,0:0:0:0:
282,366,37046,2,0,L|419:372,2,120.000000397364,0|0|0,0:0|0:0|0:0,0:0:0:0:
239,294,37546,2,0,P|233:247|240:222,2,60.000000198682,0|0|0,0:0|0:0|0:0,0:0:0:0:
278,307,37796,2,0,P|284:354|277:379,2,60.000000198682,0|0|0,0:0|0:0|0:0,0:0:0:0:
317,315,38046,6,0,P|302:257|365:335,1,323.999991185188,4|0,0:0|0:0,0:0:0:0:
230,234,39046,1,8,0:0:0:0:
241,200,39129,1,8,0:0:0:0:
264,172,39212,1,8,0:0:0:0:
294,153,39296,1,8,0:0:0:0:
427,153,39546,2,0,P|470:184|491:233,1,107.999997061729,0|0,0:0|0:0,0:0:0:0:
230,234,40046,6,0,B|131:286|131:286|91:257|91:257|66:263|30:251,1,215.999994123458,2|8,0:0|0:0,0:0:0:0:
20,239,40629,1,8,0:0:0:0:
12,211,40712,1,8,0:0:0:0:
4,182,40796,1,0,0:0:0:0:
99,58,41046,6,0,P|117:53|134:61,7,26.9999992654323,0|0|0|0|0|0|0|0,0:0|0:0|0:0|0:0|0:0|0:0|0:0|0:0,0:0:0:0:
152,61,41546,2,0,P|165:62|177:57,7,26.9999992654323,0|0|0|0|0|0|0|0,0:0|0:0|0:0|0:0|0:0|0:0|0:0|0:0,0:0:0:0:
206,47,42046,6,0,B|190:154|190:154|247:110|289:129|289:124|292:124|292:129|363:142|405:99,1,323.999991185188,4|0,0:0|0:0,0:0:0:0:
206,47,43046,1,8,0:0:0:0:
200,82,43129,1,8,0:0:0:0:
194,118,43212,1,8,0:0:0:0:
189,153,43296,1,8,0:0:0:0:
411,214,43546,2,0,L|393:98,1,107.999997061729,0|0,0:0|0:0,0:0:0:0:
189,153,44046,2,0,P|186:240|297:320,1,215.999994123458,2|8,0:0|0:0,0:0:0:0:
307,322,44629,1,8,0:0:0:0:
335,320,44712,1,8,0:0:0:0:
362,311,44796,1,8,0:0:0:0:
449,192,45046,6,0,L|444:157,7,26.9999992654323,0|0|0|0|0|0|0|0,0:0|0:0|0:0|0:0|0:0|0:0|0:0|0:0,0:0:0:0:
435,134,45546,2,0,L|440:99,7,26.9999992654323,0|0|0|0|0|0|0|0,0:0|0:0|0:0|0:0|0:0|0:0|0:0|0:0,0:0:0:0:
447,70,46046,6,0,B|336:91|243:30|243:30|290:72|291:146,1,323.999991185188,4|0,0:0|0:0,0:0:0:0:
291,288,47046,1,8,0:0:0:0:
319,309,47129,1,8,0:0:0:0:
354,318,47212,1,8,0:0:0:0:
389,311,47296,1,8,0:0:0:0:
289,127,47546,2,0,P|238:98|172:114,1,107.999997061729
358,227,48046,2,0,P|411:177|367:45,1,215.999994123458,2|8,0:0|0:0,0:0:0:0:
347,39,48629,1,8,0:0:0:0:
315,33,48712,1,8,0:0:0:0:
282,37,48796,1,8,0:0:0:0:
168,126,49046,6,0,P|159:151|159:170,7,26.9999992654323,0|0|0|0|0|0|0|0,0:0|0:0|0:0|0:0|0:0|0:0|0:0|0:0,0:0:0:0:
166,180,49546,2,0,P|175:205|175:224,7,26.9999992654323,0|0|0|0|0|0|0|0,0:0|0:0|0:0|0:0|0:0|0:0|0:0|0:0,0:0:0:0:
170,242,50046,6,0,P|243:205|343:249,1,180.000000596046,4|0,0:0|0:0,0:0:0:0:
62,344,50421,2,0,L|90:163,1,180.000000596046,4|0,0:0|0:0,0:0:0:0:
252,290,50796,2,0,L|269:400,1,90.000000298023,8|0,0:0|0:0,0:0:0:0:
89,166,51046,6,0,B|177:121|177:121|266:121,1,180.000000596046,4|0,0:0|0:0,0:0:0:0:
91,255,51421,2,0,P|35:239|20:109,1,180.000000596046,4|0,0:0|0:0,0:0:0:0:
195,202,51796,1,8,0:0:0:0:
138,333,51921,1,0,0:0:0:0:
169,119,52046,6,0,P|220:117|254:137,2,90.000000298023,8|0|8,0:0|0:0|0:0,0:0:0:0:
90,254,52421,2,0,P|39:256|5:236,2,90.000000298023,0|8|0,0:0|0:0|0:0,0:0:0:0:
279,214,52796,1,8,0:0:0:0:
169,119,52921,1,0,0:0:0:0:
319,294,53046,5,8,0:0:0:0:
337,281,53108,1,0,0:0:0:0:
352,264,53171,1,0,0:0:0:0:
363,244,53233,1,0,0:0:0:0:
369,223,53296,2,0,P|378:201|397:180,4,45.0000001490115,8|0|0|0|8,0:0|0:0|0:0|0:0|0:0,0:0:0:0:
369,223,54030,6,0,B|212:189|212:189|274:189,1,215.999994123458,4|8,0:0|0:0,0:0:0:0:
452,181,54405,1,0,0:0:0:0:
410,309,54530,1,2,0:0:0:0:
365,138,54655,2,0,P|408:91|455:77,1,107.999997061729,0|2,0:0|0:0,0:0:0:0:
369,223,54905,2,0,P|304:202|317:66,1,215.999994123458,8|0,0:0|0:0,0:0:0:0:
452,181,55280,2,0,L|488:284,1,107.999997061729,8|0,0:0|0:0,0:0:0:0:
333,324,55530,2,0,L|368:222,1,107.999997061729,2|0,0:0|0:0,0:0:0:0:
191,190,55780,2,0,L|227:293,1,107.999997061729,8|0,0:0|0:0,0:0:0:0:
260,126,56030,6,0,P|196:98|96:188,1,215.999994123458,2|8,0:0|0:0,0:0:0:0:
135,339,56405,2,0,P|197:322|230:284,1,107.999997061729,0|2,0:0|0:0,0:0:0:0:
332,184,56655,2,0,P|396:156|496:246,2,215.999994123458,0|8|0,0:0|0:0|0:0,0:0:0:0:
257,293,57280,1,8,0:0:0:0:
403,245,57405,1,0,0:0:0:0:
245,149,57530,2,0,L|136:122,1,107.999997061729,2|0,0:0|0:0,0:0:0:0:
257,293,57780,2,0,L|366:320,1,107.999997061729,8|0,0:0|0:0,0:0:0:0:
245,149,58030,6,0,P|186:206|280:291,1,215.999994123458,4|8,0:0|0:0,0:0:0:0:
423,309,58405,1,0,0:0:0:0:
344,200,58530,1,2,0:0:0:0:
326,357,58655,2,0,L|439:300,1,107.999997061729,0|8,0:0|0:0,0:0:0:0:
427,122,58905,2,0,P|365:88|242:154,1,215.999994123458,2|0,0:0|0:0,0:0:0:0:
431,229,59280,2,0,L|426:118,1,107.999997061729,8|0,0:0|0:0,0:0:0:0:
244,148,59530,2,0,L|239:255,1,107.999997061729,2|0,0:0|0:0,0:0:0:0:
148,109,59780,1,8,0:0:0:0:
319,77,59905,1,0,0:0:0:0:
262,352,60030,6,0,P|180:337|151:210,2,215.999994123458,4|8|2,0:0|0:0|0:0,0:0:0:0:
370,256,60655,1,0,0:0:0:0:
419,368,60780,1,8,0:0:0:0:
248,248,60905,1,0,0:0:0:0:
439,189,61030,6,0,P|462:251|450:306,1,107.999997061729,4|0,0:0|0:0,0:0:0:0:
284,139,61280,2,0,P|261:77|273:22,1,107.999997061729,0|0,0:0|0:0,0:0:0:0:
424,191,61530,6,0,P|447:253|435:308,1,107.999997061729,4|0,0:0|0:0,0:0:0:0:
269,141,61780,2,0,P|246:79|258:24,1,107.999997061729,0|0,0:0|0:0,0:0:0:0:
401,195,62030,6,0,B|231:164|231:164|268:139,1,215.999994123458,4|8,0:0|0:0,0:0:0:0:
483,155,62405,1,0,0:0:0:0:
400,284,62530,1,2,0:0:0:0:
318,74,62655,2,0,L|433:96,1,107.999997061729,0|0,0:0|0:0,0:0:0:0:
400,284,62905,2,0,L|166:245,1,215.999994123458,8|0,0:0|0:0,0:0:0:0:
119,126,63280,2,0,P|111:66|145:19,1,107.999997061729,8|0,0:0|0:0,0:0:0:0:
186,248,63530,2,0,P|194:308|160:355,1,107.999997061729,2|0,0:0|0:0,0:0:0:0:
195,163,63780,2,0,L|315:181,1,107.999997061729,8|0,0:0|0:0,0:0:0:0:
185,248,64030,6,0,P|104:235|129:120,1,215.999994123458,2|8,0:0|0:0,0:0:0:0:
288,232,64405,1,0,0:0:0:0:
188,338,64530,1,2,0:0:0:0:
195,163,64655,2,0,P|276:119|390:180,2,215.999994123458,0|8|0,0:0|0:0|0:0,0:0:0:0:
89,285,65280,2,0,P|31:273|3:230,1,107.999997061729,8|0,0:0|0:0,0:0:0:0:
110,113,65530,2,0,P|168:125|196:168,1,107.999997061729,2|0,0:0|0:0,0:0:0:0:
234,328,65780,1,8,0:0:0:0:
316,184,65905,1,0,0:0:0:0:
165,239,66030,6,0,P|187:298|240:329,2,120.000000397364,2|0|0,0:0|0:0|0:0,0:0:0:0:
110,113,66530,2,0,P|88:54|35:23,2,120.000000397364,2|0|0,0:0|0:0|0:0,0:0:0:0:
67,264,67030,5,2,0:0:0:0:
246,160,67196,1,0,0:0:0:0:
25,110,67363,1,0,0:0:0:0:
204,270,67530,5,2,0:0:0:0:
293,64,67696,1,0,0:0:0:0:
110,113,67863,1,0,0:0:0:0:
369,116,68030,6,0,L|437:126,2,60.000000198682,2|0|0,0:0|0:0|0:0,0:0:0:0:
358,193,68280,2,0,L|426:203,2,60.000000198682,2|0|0,0:0|0:0|0:0,0:0:0:0:
346,266,68530,2,0,L|414:276,2,60.000000198682,2|0|0,0:0|0:0|0:0,0:0:0:0:
335,343,68780,2,0,L|403:353,2,60.000000198682,2|0|0,0:0|0:0|0:0,0:0:0:0:
239,299,69030,6,0,P|220:313|206:353,1,60.000000198682,2|0,0:0|0:0,0:0:0:0:
179,248,69196,1,0,0:0:0:0:
179,248,69280,2,0,P|160:262|146:302,1,60.000000198682,2|0,0:0|0:0,0:0:0:0:
118,192,69446,1,0,0:0:0:0:
118,192,69530,2,0,P|99:206|85:246,1,60.000000198682,2|0,0:0|0:0,0:0:0:0:
20,187,69696,1,0,0:0:0:0:
20,187,69780,2,0,P|30:159|52:140,1,60.000000198682,2|0,0:0|0:0,0:0:0:0:
290,73,70030,5,4,0:0:0:0:
374,264,70155,1,0,0:0:0:0:
374,264,70405,5,4,0:0:0:0:
197,202,70530,1,0,0:0:0:0:
197,202,70780,5,4,0:0:0:0:
393,131,70905,1,0,0:0:0:0:
393,131,71155,5,4,0:0:0:0:
346,353,71280,1,0,0:0:0:0:
346,353,71530,5,8,0:0:0:0:
325,343,71592,1,0,0:0:0:0:
303,339,71655,1,0,0:0:0:0:
281,339,71717,1,0,0:0:0:0:
258,342,71780,2,0,P|232:345|201:334,4,45.0000001490115,8|0|0|0|8,0:0|0:0|0:0|0:0|0:0,0:0:0:0:
322,276,80030,6,0,P|375:220|272:235,1,251.999993144035,2|0,0:0|0:0,0:0:0:0:
181,324,80717,1,0,0:0:0:0:
112,205,80905,1,0,0:0:0:0:
112,205,80967,1,0,0:0:0:0:
112,205,81030,2,0,P|111:131|10:75,2,188.999994858026,0|0|0,0:0|0:0|0:0,0:0:0:0:
181,323,82030,6,0,B|312:191|312:191|308:283,1,251.999993144035,2|0,0:0|0:0,0:0:0:0:
400,330,82717,1,0,0:0:0:0:
399,166,82905,1,0,0:0:0:0:
399,166,83030,2,0,P|340:111|240:135,2,188.999994858026,0|0|0,0:0|0:0|0:0,0:0:0:0:
264,214,84030,6,0,P|206:209|226:54,1,251.999993144035,2|2,0:0|0:0,0:0:0:0:
324,29,84780,1,0,0:0:0:0:
298,139,85030,1,2,0:0:0:0:
215,59,85280,1,0,0:0:0:0:
324,29,85530,2,0,L|419:21,2,94.4999974290131,2|0|0,0:0|0:0|0:0,0:0:0:0:
215,59,86030,6,0,P|152:142|255:227,1,251.999993144035,2|0,0:0|0:0,0:0:0:0:
403,200,86780,1,0,0:0:0:0:
403,200,86863,1,0,0:0:0:0:
403,200,86946,1,0,0:0:0:0:
403,200,87030,6,0,P|417:259|328:357,1,180.000000596046,2|0,0:0|0:0,0:0:0:0:
215,338,87405,1,0,0:0:0:0:
244,206,87530,2,0,L|320:258,1,90.000000298023,0|0,0:0|0:0,0:0:0:0:
215,338,87780,2,0,L|139:286,1,90.000000298023,0|0,0:0|0:0,0:0:0:0:
116,152,88030,1,2,0:0:0:0:
170,23,88155,1,0,0:0:0:0:
299,77,88280,1,2,0:0:0:0:
244,206,88405,1,0,0:0:0:0:
116,152,88530,6,0,L|53:118,2,60.000000198682,2|0|0,0:0|0:0|0:0,0:0:0:0:
111,233,88780,2,0,L|174:267,2,60.000000198682,2|0|0,0:0|0:0|0:0,0:0:0:0:
79,300,89030,6,0,B|148:335|148:335|211:335|211:335|246:340|246:340|339:313|353:227|282:188|235:238|243:304|306:346|306:346|333:365|333:365|359:351,1,504.000001668929,2|0,0:0|0:0,0:0:0:0:
403,248,90030,6,0,P|377:185|354:161,1,90.000000298023,4|0,0:0|0:0,0:0:0:0:
241,121,90280,1,2,0:0:0:0:
332,84,90405,2,0,L|386:-9,1,90.000000298023,8|0,0:0|0:0,0:0:0:0:
241,121,90655,2,0,L|187:214,1,90.000000298023,8|0,0:0|0:0,0:0:0:0:
332,84,90905,2,0,P|270:31|166:55,1,180.000000596046,8|8,0:0|0:0,0:0:0:0:
117,168,91280,5,2,0:0:0:0:
241,121,91405,1,0,0:0:0:0:
192,230,91530,2,0,P|141:263|99:261,1,90.000000298023,2|0,0:0|0:0,0:0:0:0:
169,75,91780,2,0,P|220:42|262:44,1,90.000000298023,2|0,0:0|0:0,0:0:0:0:
192,230,92030,6,0,L|209:332,2,90.000000298023,4|0|0,0:0|0:0|0:0,0:0:0:0:
117,168,92405,2,0,P|40:182|10:286,1,180.000000596046,8|8,0:0|0:0,0:0:0:0:
204,149,92905,2,0,P|230:75|155:-2,1,180.000000596046,8|8,0:0|0:0,0:0:0:0:
117,168,93280,6,0,P|137:212|172:238,1,90.000000298023,8|0,0:0|0:0,0:0:0:0:
374,241,93530,2,0,P|354:197|319:171,1,90.000000298023,8|0,0:0|0:0,0:0:0:0:
230,75,93780,1,8,0:0:0:0:
169,236,93905,1,0,0:0:0:0:
317,82,94030,6,0,P|304:30|278:1,1,90.000000298023,4|0,0:0|0:0,0:0:0:0:
231,165,94280,1,0,0:0:0:0:
231,165,94405,2,0,L|333:173,1,90.000000298023,8|0,0:0|0:0,0:0:0:0:
230,75,94655,2,0,L|140:82,1,90.000000298023,8|0,0:0|0:0,0:0:0:0:
231,165,94905,2,0,L|440:183,1,180.000000596046,8|8,0:0|0:0,0:0:0:0:
230,75,95280,6,0,P|181:93|153:131,1,90.000000298023,2|0,0:0|0:0,0:0:0:0:
126,276,95530,1,8,0:0:0:0:
231,165,95655,1,0,0:0:0:0:
70,205,95780,2,0,L|134:287,1,90.000000298023,8|0,0:0|0:0,0:0:0:0:
286,226,96030,6,0,P|309:201|311:162,5,60.000000198682,2|0|0|2|0|0,0:0|0:0|0:0|0:0|0:0|0:0,0:0:0:0:
316,133,96530,2,0,P|322:104|343:83,5,60.000000198682,2|0|0|2|0|0,0:0|0:0|0:0|0:0|0:0|0:0,0:0:0:0:
381,63,97030,5,8,0:0:0:0:
392,61,97113,1,0,0:0:0:0:
404,60,97196,1,0,0:0:0:0:
416,59,97279,1,8,0:0:0:0:
428,58,97363,1,0,0:0:0:0:
440,57,97446,1,0,0:0:0:0:
476,79,97530,5,8,0:0:0:0:
472,90,97613,1,0,0:0:0:0:
471,102,97696,1,0,0:0:0:0:
471,114,97779,1,8,0:0:0:0:
472,126,97863,1,0,0:0:0:0:
476,137,97946,1,0,0:0:0:0:
489,177,98030,6,0,P|489:276|410:313,2,180.000000596046,4|0|0,0:0|0:0|0:0,0:0:0:0:
379,122,98717,1,0,0:0:0:0:
417,224,98905,1,0,0:0:0:0:
379,122,99030,6,0,L|286:137,1,90.000000298023,2|0,0:0|0:0,0:0:0:0:
154,260,99280,2,0,L|247:245,1,90.000000298023,2|0,0:0|0:0,0:0:0:0:
384,102,99530,6,0,L|291:117,1,90.000000298023,2|0,0:0|0:0,0:0:0:0:
141,286,99780,2,0,L|234:271,1,90.000000298023,2|0,0:0|0:0,0:0:0:0:
419,225,100030,6,0,P|454:156|378:102,2,180.000000596046,8|0|0,0:0|0:0|0:0,0:0:0:0:
285,267,100717,1,0,0:0:0:0:
307,145,100905,1,0,0:0:0:0:
285,267,101030,6,0,L|192:252,1,90.000000298023,2|0,0:0|0:0,0:0:0:0:
60,129,101280,2,0,L|153:144,1,90.000000298023,2|0,0:0|0:0,0:0:0:0:
290,287,101530,6,0,L|197:272,1,90.000000298023,2|0,0:0|0:0,0:0:0:0:
47,103,101780,2,0,L|140:118,1,90.000000298023,2|0,0:0|0:0,0:0:0:0:
307,145,102030,6,0,P|379:192|378:295,1,180.000000596046,8|8,0:0|0:0,0:0:0:0:
217,177,102405,1,0,0:0:0:0:
217,177,102530,2,0,L|223:81,1,90.000000298023,8|0,0:0|0:0,0:0:0:0:
297,240,102780,2,0,L|291:336,1,90.000000298023,8|0,0:0|0:0,0:0:0:0:
217,177,103030,2,0,B|168:183|168:183|119:173,1,90.000000298023,8|0,0:0|0:0,0:0:0:0:
297,240,103280,2,0,B|346:234|346:234|395:244,1,90.000000298023,8|0,0:0|0:0,0:0:0:0:
128,174,103530,2,0,P|111:223|127:271,1,90.000000298023,8|0,0:0|0:0,0:0:0:0:
385,242,103780,2,0,P|402:193|386:145,1,90.000000298023,8|0,0:0|0:0,0:0:0:0:
295,48,104030,6,0,L|248:59,3,45.0000001490115,8|0|0|0,0:0|0:0|0:0|0:0,0:0:0:0:
220,48,104280,2,0,L|173:37,3,45.0000001490115,8|0|0|0,0:0|0:0|0:0|0:0,0:0:0:0:
147,51,104530,1,8,0:0:0:0:
134,69,104592,1,0,0:0:0:0:
128,91,104655,1,0,0:0:0:0:
129,113,104717,1,0,0:0:0:0:
137,134,104780,2,0,P|147:169|141:196,3,45.0000001490115,8|0|0|0,0:0|0:0|0:0|0:0,0:0:0:0:
150,209,105030,6,0,L|197:198,3,45.0000001490115,8|0|8|0,0:0|0:0|0:0|0:0,0:0:0:0:
225,209,105280,2,0,L|272:220,3,45.0000001490115,8|0|8|0,0:0|0:0|0:0|0:0,0:0:0:0:
299,211,105530,2,0,L|346:222,1,45.0000001490115,8|0,0:0|0:0,0:0:0:0:
422,157,105655,2,0,L|375:146,1,45.0000001490115,8|0,0:0|0:0,0:0:0:0:
301,203,105780,2,0,L|348:214,1,45.0000001490115,8|0,0:0|0:0,0:0:0:0:
424,149,105905,2,0,L|377:138,1,45.0000001490115,8|0,0:0|0:0,0:0:0:0:
300,124,106030,5,12,0:0:0:0:
