osu file format v14

[General]
AudioFilename: audio.mp3
AudioLeadIn: 0
PreviewTime: 128569
Countdown: 0
SampleSet: Soft
StackLeniency: 0.5
Mode: 0
LetterboxInBreaks: 0
WidescreenStoryboard: 1

[Editor]
Bookmarks: 1971,3304,4637,5971,7304,9221,12545,20438,22568,23076,25714,28351,30659,30962,31636,32218,32827,33427,44855,47141,51712,53998,56284,73427,74569,81427,83712,88284,92855,100855,101998,106569,108855,109998,110569,111141,117998,118569,120284,127141,128569,129427,143141,146855,147712,159141,161427,165998,168284,169998,170569,181118,186393
DistanceSpacing: 1
BeatDivisor: 4
GridSize: 16
TimelineZoom: 2.3

[Metadata]
Title:- FALLEN -
TitleUnicode:- ΓΛLLΞИ -
Artist:Kaneko Chiharu
ArtistUnicode:かねこちはる
Creator:s0m3guy
Version:iljaaz's Insane
Source:
Tags:Legendary LΞGΞNDARY -Episode.1- かねこちはる Bad Fennec Records epes2001 773
BeatmapID:1879832
BeatmapSetID:889575

[Difficulty]
HPDrainRate:5
CircleSize:3.5
OverallDifficulty:8
ApproachRate:9
SliderMultiplier:2
SliderTickRate:1

[Events]
//Background and Video events
0,0,"bg.jpg",0,0
//Break Periods
2,31162,32827
2,47341,51112
2,52055,53398
2,111341,119684
//Storyboard Layer 0 (Background)
//Storyboard Layer 1 (Fail)
//Storyboard Layer 2 (Pass)
//Storyboard Layer 3 (Foreground)
//Storyboard Sound Samples

[TimingPoints]
638,333.333333333333,4,2,1,5,1,0
12545,327.868852459016,4,2,1,40,1,0
16479,334.261838440111,4,2,1,40,1,0
17816,327.868852459016,4,2,1,40,1,0
21750,342.857142857143,4,2,1,40,1,0
22264,304.568527918782,4,2,1,40,1,0
22568,338.983050847458,4,2,1,60,1,0
23077,329.67032967033,4,2,1,60,1,0
30661,301.507537688442,4,2,1,60,1,0
30962,337.078651685393,4,2,1,70,1,0
31636,582.52427184466,4,2,1,30,1,0
32218,609.137055837563,4,2,1,40,1,0
32827,600,4,2,1,50,1,0
33427,285.714285714286,4,2,1,80,1,0
33427,-100,4,2,1,80,0,1
47141,-100,4,2,1,80,0,0
120284,-142.857142857143,4,2,1,80,0,0
127141,-83.3333333333333,4,2,1,80,0,0
129427,-83.3333333333333,4,2,1,80,0,1
161712,-100,4,2,1,80,0,0
170569,329.67032967033,4,2,1,60,1,0
170569,-526.315789473684,4,2,1,60,0,0

[Colours]
Combo1 : 210,201,193
Combo2 : 245,204,141
Combo3 : 220,170,90

[HitObjects]
4,374,23076,5,6,3:2:0:0:
65,290,23241,1,2,3:2:0:0:
65,290,23571,1,2,3:2:0:0:
65,290,23901,1,2,3:2:0:0:
65,290,24230,1,2,3:2:0:0:
65,290,24560,1,2,3:2:0:0:
65,290,24890,5,2,3:2:0:0:
107,384,25055,2,0,L|219:384,1,100,2|2,3:2|0:3,0:0:0:0:
256,330,25302,1,2,0:3:0:0:
256,330,25384,1,2,0:3:0:0:
508,374,25714,5,6,3:2:0:0:
447,290,25879,1,2,3:2:0:0:
447,290,26208,1,2,3:2:0:0:
447,290,26539,1,2,3:2:0:0:
447,290,26868,1,2,3:2:0:0:
447,290,27198,1,2,3:2:0:0:
447,290,27528,5,2,3:2:0:0:
405,384,27693,2,0,L|293:384,1,100,2|2,3:2|0:3,0:0:0:0:
256,330,27940,1,2,0:3:0:0:
256,330,28022,1,2,0:3:0:0:
256,0,28351,5,4,3:2:0:0:
256,112,28516,2,0,L|256:224,1,100,0|0,3:2|3:0,0:0:0:0:
256,330,28846,1,8,3:2:0:0:
256,330,29175,5,0,3:2:0:0:
175,277,29340,2,0,L|63:277,1,100,0|8,3:0|3:2,0:0:0:0:
256,330,29835,1,0,3:2:0:0:
256,330,30164,5,8,3:2:0:0:
337,277,30329,2,0,L|449:277,1,100,0|0,3:2|0:0,0:0:0:0:
437,277,30661,1,0,0:0:0:0:
256,0,30962,1,2,0:2:0:0:
0,0,33427,6,0,L|126:22,1,100,6|0,0:2|0:0,0:0:0:0:
133,119,33712,2,0,L|6:96,1,100,8|2,0:2|3:2,0:0:0:0:
204,38,33998,2,0,L|330:60,1,100,2|2,0:3|3:2,0:0:0:0:
337,157,34284,2,0,L|210:134,1,100,8|2,0:2|3:2,0:0:0:0:
408,76,34569,2,0,L|534:98,1,100,2|0,0:0|3:2,0:0:0:0:
445,274,34855,6,0,L|435:143,1,100,10|0,0:2|3:2,0:0:0:0:
344,256,35141,2,0,L|334:125,1,100,2|0,0:0|3:0,0:0:0:0:
246,239,35427,2,0,L|236:108,1,100,10|0,0:2|0:0,0:0:0:0:
180,305,35712,6,0,P|220:332|270:330,1,100,2|0,0:0|0:0,0:0:0:0:
156,214,35998,2,0,P|115:186|65:188,1,100,8|2,0:2|3:2,0:0:0:0:
90,281,36284,1,2,0:2:0:0:
180,305,36427,1,2,3:2:0:0:
270,330,36569,1,8,0:2:0:0:
360,355,36712,6,0,L|399:132,1,200,2|0,3:2|3:0,0:0:0:0:
282,16,37141,6,0,L|299:114,1,100,10|0,0:2|3:0,0:0:0:0:
394,158,37427,2,0,L|376:59,1,100,2|0,0:0|3:0,0:0:0:0:
317,222,37712,2,0,L|334:320,1,100,10|0,0:2|0:0,0:0:0:0:
299,114,37998,6,0,L|94:77,1,200,6|8,0:2|0:2,0:0:0:0:
0,188,38427,2,0,L|102:169,1,100,2|2,3:2|0:3,0:0:0:0:
38,277,38712,1,2,3:2:0:0:
164,254,38855,2,0,L|65:271,1,100,8|2,0:2|3:2,0:0:0:0:
130,352,39141,2,0,L|229:335,1,100,2|2,0:2|3:2,0:0:0:0:
380,264,39427,6,0,P|333:246|284:253,1,100,10|0,0:2|3:0,0:0:0:0:
229,335,39712,2,0,P|275:352|324:345,1,100,2|0,0:0|3:0,0:0:0:0:
451,319,39998,2,0,P|468:272|461:223,1,100,10|0,0:2|0:0,0:0:0:0:
383,169,40284,6,0,P|373:102|466:131,1,200,2|8,0:0|0:2,0:0:0:0:
461,223,40712,1,2,3:2:0:0:
383,169,40855,2,0,L|257:162,1,100,2|2,0:3|3:2,0:0:0:0:
228,246,41141,2,0,L|327:251,1,100,8|2,0:2|3:2,0:0:0:0:
182,156,41427,2,0,L|56:149,1,100,2|2,0:2|3:2,0:0:0:0:
36,246,41712,6,0,P|92:259|132:236,1,100,10|0,0:2|3:0,0:0:0:0:
182,156,41998,2,0,P|226:136|273:150,1,100,2|0,0:0|3:0,0:0:0:0:
328,66,42284,2,0,P|384:79|424:56,1,100,10|0,0:2|0:0,0:0:0:0:
512,209,42569,6,0,B|487:275|487:275|343:301,1,200,6|8,0:2|0:2,0:0:0:0:
314,226,42998,1,2,3:2:0:0:
192,249,43141,2,0,L|310:226,1,100,2|2,0:3|3:2,0:0:0:0:
216,340,43427,2,0,L|98:363,1,100,8|2,0:2|3:2,0:0:0:0:
0,286,43712,2,0,L|118:263,1,100,2|2,0:3|3:2,0:0:0:0:
224,163,43998,6,0,P|165:160|127:195,1,100,10|0,0:2|3:0,0:0:0:0:
77,84,44284,2,0,P|136:81|174:116,1,100,2|0,0:0|3:0,0:0:0:0:
224,5,44569,2,0,P|165:2|127:37,1,100,10|0,0:2|0:0,0:0:0:0:
312,77,44855,6,0,L|384:77,3,50,4|0|0|0,0:2|0:0|0:0|0:0,0:0:0:0:
417,143,45141,2,0,L|489:143,3,50,8|0|2|0,0:2|0:0|3:2|0:0,0:0:0:0:
350,202,45427,6,0,L|278:202,3,50,2|0|2|0,0:3|0:0|3:2|0:0,0:0:0:0:
240,268,45712,2,0,L|168:268,3,50,8|0|2|0,0:2|0:0|3:2|0:0,0:0:0:0:
137,341,45998,2,0,P|102:290|164:182,1,200,12|8,0:2|0:2,0:0:0:0:
300,202,46427,1,8,0:2:0:0:
240,147,46569,2,0,L|264:34,1,100,2|8,0:2|0:2,0:0:0:0:
370,11,46855,1,4,0:3:0:0:
337,106,46998,1,4,0:3:0:0:
240,147,47141,5,4,0:2:0:0:
512,0,51712,5,6,3:2:0:0:
460,67,51855,1,2,0:0:0:0:
460,67,53998,5,2,0:0:0:0:
493,146,54141,1,2,0:0:0:0:
442,215,54284,1,2,0:0:0:0:
442,215,54427,5,2,0:0:0:0:
363,248,54570,1,2,0:0:0:0:
294,197,54713,1,2,0:0:0:0:
294,197,54855,5,2,0:0:0:0:
261,118,54998,1,2,0:0:0:0:
312,49,55141,1,2,0:0:0:0:
312,49,55284,5,2,0:0:0:0:
391,16,55427,1,2,0:0:0:0:
460,67,55570,1,2,0:0:0:0:
379,130,55712,2,0,L|271:120,1,100,2|2,0:0|0:0,0:0:0:0:
194,187,55998,2,0,L|293:196,1,100,2|2,0:0|0:0,0:0:0:0:
148,91,56284,6,0,P|99:181|143:274,3,200,6|0|0|0,3:2|3:0|3:0|3:0,0:0:0:0:
219,185,57427,2,0,P|252:275|204:359,3,200,2|0|0|0,3:2|3:0|3:0|3:0,0:0:0:0:
133,265,58569,2,0,P|99:174|148:91,3,200,2|0|0|0,3:2|3:0|3:0|3:0,0:0:0:0:
218,184,59712,2,0,P|266:100|233:10,3,200,2|0|0|0,3:2|3:0|3:0|3:0,0:0:0:0:
218,184,60855,6,0,B|267:222|267:222|412:203,1,200,6|0,3:2|3:0,0:0:0:0:
246,309,61427,2,0,B|197:271|197:271|52:290,1,200,0|0,3:0|3:0,0:0:0:0:
32,163,61998,2,0,B|81:201|81:201|217:183,1,200,0|0,3:0|3:0,0:0:0:0:
291,126,62569,2,0,B|242:88|242:88|105:105,1,200,0|0,3:0|3:0,0:0:0:0:
291,126,63141,6,0,P|351:165|477:115,1,200,2|0,3:2|3:0,0:0:0:0:
379,62,63712,2,0,L|380:283,1,200,0|0,3:0|3:0,0:0:0:0:
452,349,64284,2,0,P|378:287|287:317,1,200,2|0,3:2|3:0,0:0:0:0:
122,286,64855,2,0,P|195:347|286:317,1,200,0|0,3:0|3:0,0:0:0:0:
200,61,65427,6,0,B|205:136|205:136|219:158|219:158|208:181|208:181|212:254,1,200,6|0,3:2|3:0,0:0:0:0:
0,164,65998,2,0,L|217:158,1,200,0|0,3:0|3:0,0:0:0:0:
372,47,66569,2,0,P|282:10|199:60,1,200,2|0,3:2|3:0,0:0:0:0:
212,254,67141,2,0,P|301:290|384:240,1,200,0|0,3:0|3:0,0:0:0:0:
489,138,67712,6,0,L|274:154,1,200,2|0,3:2|3:0,0:0:0:0:
12,239,68284,2,0,L|227:255,1,200,0|0,3:0|3:0,0:0:0:0:
489,138,68855,2,0,L|274:154,1,200,2|0,3:2|3:0,0:0:0:0:
12,239,69427,2,0,L|227:255,1,200,0|0,3:0|3:0,0:0:0:0:
219,0,69998,6,0,P|165:79|205:166,1,200,6|0,3:2|3:0,0:0:0:0:
323,368,70569,2,0,P|362:281|309:201,1,200,0|0,3:0|3:0,0:0:0:0:
219,0,71141,2,0,P|165:79|205:166,1,200,0|0,3:0|3:0,0:0:0:0:
323,368,71712,2,0,P|362:281|309:201,1,200,0|0,3:0|3:0,0:0:0:0:
79,285,72284,6,0,B|123:318|123:318|282:282,1,200,2|0,3:2|3:0,0:0:0:0:
444,86,72855,2,0,B|400:53|400:53|241:89,1,200,0|0,3:0|3:0,0:0:0:0:
309,201,73427,5,2,3:2:0:0:
378,153,73569,1,0,0:0:0:0:
385,239,73712,1,0,3:0:0:0:
455,192,73855,2,0,P|458:286|373:327,1,200,2|0,0:0|0:0,0:0:0:0:
385,239,74284,1,8,3:2:0:0:
373,327,74569,6,0,L|239:337,1,100,4|0,0:2|0:0,0:0:0:0:
162,256,74855,2,0,L|261:248,1,100,10|2,0:2|3:2,0:0:0:0:
162,341,75141,2,0,L|28:351,1,100,2|2,0:2|3:2,0:0:0:0:
52,262,75427,1,10,0:2:0:0:
162,256,75569,1,2,3:2:0:0:
99,176,75712,6,0,L|91:62,1,100,2|0,0:2|3:2,0:0:0:0:
178,18,75998,2,0,L|185:117,1,100,10|2,0:2|3:2,0:0:0:0:
276,166,76284,2,0,L|268:52,1,100,2|2,0:2|3:2,0:0:0:0:
355,8,76569,1,10,0:2:0:0:
362,107,76712,1,0,3:2:0:0:
447,56,76855,6,0,L|454:166,1,100,2|0,0:2|0:0,0:0:0:0:
368,207,77141,2,0,L|361:107,1,100,10|2,0:2|3:2,0:0:0:0:
453,155,77427,2,0,L|459:254,1,100,2|2,0:2|3:2,0:0:0:0:
374,306,77712,1,10,0:2:0:0:
368,207,77855,1,2,3:2:0:0:
376,342,77998,6,0,P|331:364|283:355,1,100,2|0,0:2|3:2,0:0:0:0:
181,281,78284,2,0,P|225:259|273:268,1,100,10|2,0:2|3:2,0:0:0:0:
190,366,78569,2,0,P|145:387|97:378,1,100,2|2,0:2|3:2,0:0:0:0:
68,262,78855,1,10,0:2:0:0:
181,281,78998,1,0,3:2:0:0:
43,256,79141,6,0,L|42:132,1,100,4|0,0:2|0:0,0:0:0:0:
128,82,79427,1,10,0:2:0:0:
152,195,79569,1,2,3:2:0:0:
234,116,79712,2,0,L|358:115,1,100,2|2,0:2|3:2,0:0:0:0:
413,206,79998,1,10,0:2:0:0:
300,230,80140,1,2,3:2:0:0:
424,116,80284,6,0,L|428:4,1,100,2|2,0:2|3:2,0:0:0:0:
512,76,80569,1,10,0:2:0:0:
421,157,80712,1,2,3:2:0:0:
503,248,80855,2,0,L|497:361,1,100,2|2,0:2|3:2,0:0:0:0:
397,273,81141,1,10,0:2:0:0:
504,213,81284,1,2,3:2:0:0:
405,366,81427,5,12,3:2:0:0:
319,324,81569,1,2,3:3:0:0:
256,383,81712,1,8,3:2:0:0:
173,322,81854,1,2,0:2:0:0:
88,384,81998,2,0,L|71:272,1,100,8|2,3:2|0:2,0:0:0:0:
142,190,82284,2,0,L|125:78,1,100,8|2,3:2|0:2,0:0:0:0:
214,249,82569,6,0,L|324:238,2,100,8|2|2,3:2|0:2|3:2,0:0:0:0:
142,190,82998,1,4,0:2:0:0:
138,169,83141,1,2,3:2:0:0:
134,150,83284,1,2,0:2:0:0:
217,69,83427,1,8,3:2:0:0:
239,157,83569,1,8,0:2:0:0:
310,104,83712,6,0,L|416:93,1,100,6|0,2:2|0:0,0:0:0:0:
472,172,83998,2,0,L|372:182,1,100,8|0,0:2|3:2,0:0:0:0:
335,270,84284,2,0,L|435:260,1,100,2|2,0:3|3:2,0:0:0:0:
497,338,84569,1,8,0:2:0:0:
397,348,84712,1,0,3:2:0:0:
335,270,84855,6,0,P|286:262|241:283,1,100,2|0,2:2|0:0,0:0:0:0:
204,359,85141,2,0,P|252:366|297:345,1,100,8|2,0:2|3:2,0:0:0:0:
241,283,85427,2,0,P|192:275|147:296,1,100,2|2,0:3|3:2,0:0:0:0:
110,372,85712,1,8,0:2:0:0:
204,359,85855,1,0,0:2:0:0:
64,302,85998,6,0,L|60:190,1,100,2|0,2:2|0:0,0:0:0:0:
144,100,86284,2,0,L|147:199,1,100,8|2,0:2|3:2,0:0:0:0:
55,99,86569,2,0,L|51:-13,1,100,2|2,0:3|3:2,0:0:0:0:
197,10,86855,1,8,0:2:0:0:
144,100,86998,1,0,3:2:0:0:
248,101,87141,6,0,L|367:103,1,100,2|0,2:2|0:0,0:0:0:0:
399,16,87427,2,0,L|299:14,1,100,8|2,0:2|3:2,0:0:0:0:
347,102,87712,2,0,L|446:103,1,100,2|2,0:3|3:2,0:0:0:0:
498,17,87998,2,0,L|398:15,1,100,8|0,0:2|0:2,0:0:0:0:
446,103,88284,6,0,P|466:171|425:268,1,150,6|0,0:2|0:0,0:0:0:0:
422,266,88569,1,8,0:0:0:0:
480,354,88712,2,0,L|415:362,1,50,2|2,3:3|3:3,0:0:0:0:
395,366,88855,1,8,0:0:0:0:
245,283,88998,2,0,L|310:291,1,50,2|2,3:3|3:3,0:0:0:0:
330,295,89141,1,8,0:0:0:0:
235,372,89284,2,0,L|170:380,1,50,2|2,3:3|3:3,0:0:0:0:
150,384,89427,5,8,0:0:0:0:
67,253,89569,2,0,L|132:261,1,50,2|2,3:3|3:3,0:0:0:0:
152,265,89712,1,8,0:0:0:0:
235,134,89855,2,0,L|170:142,1,50,2|2,3:3|3:3,0:0:0:0:
150,146,89998,1,8,0:0:0:0:
67,15,90141,2,0,L|132:23,1,50,2|2,3:3|3:3,0:0:0:0:
152,27,90284,1,8,0:0:0:0:
58,103,90427,1,0,0:0:0:0:
238,44,90569,5,2,0:2:0:0:
279,58,90664,1,0,0:0:0:0:
310,89,90759,1,0,0:0:0:0:
323,131,90855,2,0,L|312:202,2,66.6666666666667,10|0|0,0:2|0:0|0:0,0:0:0:0:
404,88,91141,1,10,0:2:0:0:
404,88,91236,2,0,L|471:78,2,66.6666666666667,0|0|2,0:0|0:0|0:2,0:0:0:0:
408,170,91569,1,2,0:0:0:0:
394,320,91712,6,0,L|412:389,2,66.6666666666667,10|2|2,0:2|0:0|0:0,0:0:0:0:
449,245,91998,2,0,L|499:194,2,66.6666666666667,10|2|2,0:2|0:0|0:0,0:0:0:0:
357,235,92284,2,0,L|288:216,2,66.6666666666667,6|2|2,0:3|0:0|0:0,0:0:0:0:
405,319,92569,2,0,L|423:388,2,66.6666666666667,10|2|2,0:3|0:0|0:0,0:0:0:0:
299,314,92855,6,0,L|176:323,1,100,6|0,0:2|3:0,0:0:0:0:
134,241,93141,1,10,0:2:0:0:
78,322,93284,2,0,P|45:277|36:226,1,100,2|0,3:2|0:0,0:0:0:0:
81,161,93569,1,2,3:2:0:0:
134,241,93712,2,0,P|167:196|176:145,1,100,10|0,0:2|3:0,0:0:0:0:
134,81,93998,1,2,0:2:0:0:
81,161,94141,2,0,P|48:116|39:65,1,100,2|8,3:2|0:2,0:0:0:0:
134,81,94427,1,2,3:2:0:0:
185,10,94569,6,0,L|289:22,1,100,2|0,0:2|3:0,0:0:0:0:
346,100,94855,2,0,L|242:112,1,100,10|0,0:2|3:0,0:0:0:0:
396,20,95141,6,0,P|438:73|442:120,1,100,2|0,0:2|3:0,0:0:0:0:
391,183,95427,1,10,0:2:0:0:
346,100,95569,2,0,P|304:153|300:200,1,100,2|0,3:2|0:0,0:0:0:0:
345,262,95855,1,2,3:2:0:0:
391,183,95998,2,0,P|433:236|437:283,1,100,10|0,0:2|3:0,0:0:0:0:
396,344,96284,1,2,0:2:0:0:
345,262,96427,2,0,P|303:315|299:362,1,100,2|8,3:2|0:2,0:0:0:0:
396,344,96712,1,2,3:2:0:0:
345,262,96855,6,0,L|232:272,1,100,2|0,0:2|3:0,0:0:0:0:
198,354,97141,2,0,L|297:345,1,100,10|0,0:2|3:0,0:0:0:0:
195,188,97427,2,0,P|158:236|163:294,1,100,2|0,0:2|3:0,0:0:0:0:
245,270,97712,1,10,0:2:0:0:
277,138,97855,2,0,P|229:101|171:106,1,100,2|0,3:2|0:0,0:0:0:0:
195,188,98140,1,2,3:2:0:0:
327,220,98284,2,0,P|364:172|359:114,1,100,10|0,0:2|3:0,0:0:0:0:
277,138,98569,5,2,0:2:0:0:
317,58,98712,2,0,P|357:43|428:64,1,100,2|8,3:2|0:2,0:0:0:0:
277,138,98998,1,0,3:0:0:0:
237,58,99141,2,0,P|197:43|126:64,1,100,2|0,0:2|3:0,0:0:0:0:
91,121,99427,2,0,P|131:136|202:115,1,100,10|0,0:2|3:0,0:0:0:0:
17,62,99712,6,0,P|-2:116|90:217,1,200,2|8,0:2|0:2,0:0:0:0:
186,125,100141,1,2,3:2:0:0:
218,247,100284,2,0,P|165:348|78:360,1,200,0|8,0:0|0:2,0:0:0:0:
80,215,100712,1,0,3:0:0:0:
218,247,100855,5,10,3:2:0:0:
186,125,100998,1,0,3:0:0:0:
272,168,101141,1,0,3:0:0:0:
245,45,101284,2,0,L|121:43,2,100,10|0|0,3:2|3:0|3:0,0:0:0:0:
323,94,101712,2,0,L|423:94,1,100,2|0,3:2|0:0,0:0:0:0:
512,258,101998,6,0,P|426:266|359:152,1,200,6|10,0:2|0:2,0:0:0:0:
452,188,102427,1,2,3:0:0:0:
398,296,102569,2,0,L|286:302,1,100,2|2,0:3|3:0,0:0:0:0:
243,379,102855,2,0,L|355:385,1,100,10|2,0:2|3:2,0:0:0:0:
202,294,103141,6,0,P|152:279|103:297,1,100,2|0,0:2|3:0,0:0:0:0:
154,362,103427,1,10,0:2:0:0:
202,294,103569,2,0,L|210:192,1,100,2|2,3:2|0:3,0:0:0:0:
82,109,103855,2,0,P|88:165|219:186,1,200,2|2,3:2|3:0,0:0:0:0:
260,110,104284,6,0,P|348:72|431:122,1,200,2|10,0:2|0:2,0:0:0:0:
343,158,104712,1,2,3:0:0:0:
361,51,104855,2,0,L|471:23,1,100,2|2,0:3|0:2,0:0:0:0:
493,15,105069,1,2,0:2:0:0:
493,15,105141,1,0,0:0:0:0:
431,122,105284,1,2,3:2:0:0:
491,200,105427,6,0,B|504:226|504:226|503:305,2,100,2|2|10,0:2|3:2|0:2,0:0:0:0:
406,247,105855,2,0,B|393:273|393:273|394:352,2,100,2|2|2,3:2|0:2|3:2,0:0:0:0:
503,296,106284,1,2,3:2:0:0:
393,343,106427,1,10,0:2:0:0:
289,280,106569,6,0,L|211:295,2,66.6666666666667,14|2|2,0:2|0:2|0:2,0:0:0:0:
175,222,106855,2,0,L|240:209,2,66.6666666666667,10|2|2,0:2|0:2|0:2,0:0:0:0:
126,292,107141,6,0,L|61:280,2,66.6666666666667,10|0|2,0:2|0:0|0:2,0:0:0:0:
109,209,107427,2,0,L|175:222,2,66.6666666666667,10|0|0,2:2|0:0|0:0,0:0:0:0:
227,303,107712,6,0,L|292:290,2,66.6666666666667,10|2|2,2:2|2:2|2:2,0:0:0:0:
243,219,107998,2,0,L|177:231,2,66.6666666666667,10|0|2,2:2|0:0|2:2,0:0:0:0:
129,303,108284,6,0,L|63:290,2,66.6666666666667,10|0|0,0:3|0:0|0:0,0:0:0:0:
113,219,108570,2,0,L|178:231,2,66.6666666666667,0|0|0,0:0|0:0|0:0,0:0:0:0:
190,134,108855,6,0,P|251:86|363:168,1,200,6|8,0:2|0:2,0:0:0:0:
422,224,109284,2,0,P|457:176|399:35,1,200,2|8,3:2|3:2,0:0:0:0:
352,132,109712,1,10,0:2:0:0:
422,224,109855,1,2,3:2:0:0:
353,297,109998,6,0,L|272:314,2,66.6666666666667,2|2|2,3:2|3:2|3:2,0:0:0:0:
443,350,110284,2,0,L|508:363,2,66.6666666666667,10|10|10,3:2|3:2|3:2,0:0:0:0:
422,224,110569,1,10,3:2:0:0:
353,297,110784,1,10,3:2:0:0:
280,226,110998,1,10,3:2:0:0:
280,226,111141,5,6,3:2:0:0:
36,279,120284,6,0,L|129:273,1,69.9999978637696,14|2,0:2|0:0,0:0:0:0:
166,360,120569,2,0,L|96:355,1,69.9999978637696,2|2,0:3|0:0,0:0:0:0:
199,264,120855,2,0,L|292:258,1,69.9999978637696,10|2,0:0|0:0,0:0:0:0:
329,345,121141,2,0,L|259:340,1,69.9999978637696,2|2,0:3|3:0,0:0:0:0:
349,200,121427,5,10,0:0:0:0:
418,289,121569,1,10,3:2:0:0:
460,191,121712,2,0,L|443:118,1,69.9999978637696,2|2,0:3|0:0,0:0:0:0:
279,195,121998,2,0,L|367:201,1,69.9999978637696,10|2,0:0|3:2,0:0:0:0:
305,94,122284,2,0,L|217:100,1,69.9999978637696,2|2,0:3|3:2,0:0:0:0:
54,21,122569,6,0,P|87:10|121:14,1,69.9999978637696,6|2,3:2|3:2,0:0:0:0:
194,172,122855,2,0,P|160:182|126:178,1,69.9999978637696,2|2,0:3|3:2,0:0:0:0:
212,34,123141,2,0,P|232:69|232:112,1,69.9999978637696,10|2,0:2|3:2,0:0:0:0:
126,178,123427,1,2,0:3:0:0:
151,92,123569,1,2,3:0:0:0:
221,185,123712,6,0,L|228:270,1,69.9999978637696,10|10,0:2|0:2,0:0:0:0:
67,335,123998,2,0,L|72:265,1,69.9999978637696,2|2,0:0|0:0,0:0:0:0:
244,198,124284,2,0,L|251:283,1,69.9999978637696,10|2,0:2|3:2,0:0:0:0:
90,348,124570,2,0,L|95:278,1,69.9999978637696,2|2,0:0|3:2,0:0:0:0:
229,356,124855,6,0,P|275:354|304:340,1,69.9999978637696,6|2,3:2|3:2,0:0:0:0:
474,322,125141,2,0,P|428:320|399:306,1,69.9999978637696,2|2,0:0|3:2,0:0:0:0:
249,267,125427,2,0,P|295:265|324:251,1,69.9999978637696,10|2,0:0|3:2,0:0:0:0:
494,233,125713,2,0,P|448:231|419:217,1,69.9999978637696,2|2,0:0|3:0,0:0:0:0:
413,188,125927,1,0,3:0:0:0:
413,188,125998,6,0,P|423:139|423:110,1,69.9999978637696,10|10,3:2|3:2,0:0:0:0:
294,72,126284,2,0,P|296:106|304:140,1,69.9999978637696,2|0,0:0|0:0,0:0:0:0:
476,42,126569,2,0,P|425:29|387:36,1,69.9999978637696,8|2,0:0|3:2,0:0:0:0:
304,140,126855,2,0,P|253:153|215:146,1,69.9999978637696,2|2,0:3|3:2,0:0:0:0:
85,40,127141,6,0,P|130:77|133:165,1,119.999996337891,12|2,0:2|3:2,0:0:0:0:
0,220,127427,2,0,P|12:162|57:124,1,119.999996337891,8|2,0:2|3:2,0:0:0:0:
179,215,127712,2,0,L|179:342,1,119.999996337891,8|2,0:2|3:2,0:0:0:0:
46,303,127998,2,0,P|110:284|157:314,1,119.999996337891,8|2,0:2|0:2,0:0:0:0:
97,384,128284,1,6,0:2:0:0:
383,255,128569,5,2,0:2:0:0:
260,366,128855,1,2,0:2:0:0:
227,133,129141,1,2,0:2:0:0:
463,303,129427,6,0,P|470:244|442:193,1,119.999996337891,6|0,0:2|0:0,0:0:0:0:
307,214,129712,2,0,P|299:272|327:323,1,119.999996337891,8|2,0:2|3:2,0:0:0:0:
347,133,129998,2,0,L|215:134,1,119.999996337891,2|2,0:3|3:2,0:0:0:0:
101,213,130284,2,0,L|220:212,1,119.999996337891,8|2,0:2|3:2,0:0:0:0:
143,134,130569,2,0,L|11:135,1,119.999996337891,2|0,0:3|3:2,0:0:0:0:
184,57,130855,6,0,P|240:40|296:59,1,119.999996337891,10|0,0:2|3:2,0:0:0:0:
347,133,131141,2,0,P|403:149|459:130,1,119.999996337891,2|0,0:0|3:2,0:0:0:0:
262,141,131427,2,0,P|222:213|228:264,1,119.999996337891,10|0,0:2|0:2,0:0:0:0:
298,329,131712,6,0,L|166:342,1,119.999996337891,2|0,0:0|0:0,0:0:0:0:
104,236,131998,2,0,L|236:249,1,119.999996337891,8|2,0:2|3:2,0:0:0:0:
298,329,132284,1,2,0:3:0:0:
328,231,132427,6,0,L|447:219,1,119.999996337891,2|8,3:2|0:2,0:0:0:0:
417,340,132712,2,0,L|297:328,1,119.999996337891,2|2,3:2|0:3,0:0:0:0:
223,247,132998,1,0,3:0:0:0:
148,340,133141,6,0,P|104:272|107:219,1,119.999996337891,10|0,0:2|3:0,0:0:0:0:
267,142,133427,2,0,P|259:200|222:246,1,119.999996337891,2|0,0:0|3:0,0:0:0:0:
35,180,133712,2,0,P|98:152|169:172,1,119.999996337891,10|0,0:2|0:0,0:0:0:0:
308,219,133998,6,0,P|364:235|420:216,1,119.999996337891,6|0,0:0|0:0,0:0:0:0:
408,46,134284,2,0,P|351:29|295:48,1,119.999996337891,8|2,0:0|3:2,0:0:0:0:
499,192,134569,2,0,L|487:62,1,119.999996337891,2|2,0:3|3:2,0:0:0:0:
216,78,134855,2,0,L|227:197,1,119.999996337891,8|2,0:2|3:2,0:0:0:0:
431,335,135141,2,0,L|419:205,1,119.999996337891,2|2,0:3|3:2,0:0:0:0:
133,286,135427,6,0,P|195:316|250:302,1,119.999996337891,10|0,0:2|3:0,0:0:0:0:
419,215,135712,2,0,P|360:206|309:235,1,119.999996337891,2|0,0:0|3:0,0:0:0:0:
242,306,135998,2,0,P|193:344|114:344,1,119.999996337891,10|0,0:0|0:0,0:0:0:0:
27,274,136284,6,0,L|38:147,1,119.999996337891,2|0,0:0|0:0,0:0:0:0:
134,79,136569,2,0,L|123:198,1,119.999996337891,8|2,0:2|3:2,0:0:0:0:
14,68,136855,2,0,L|142:79,1,119.999996337891,2|2,0:3|3:2,0:0:0:0:
243,208,137141,2,0,L|123:197,1,119.999996337891,8|2,0:2|3:2,0:0:0:0:
217,84,137427,2,0,L|345:95,1,119.999996337891,2|0,0:3|3:0,0:0:0:0:
347,294,137712,6,0,P|321:225|330:179,1,119.999996337891,10|0,0:2|3:0,0:0:0:0:
435,47,137998,2,0,P|441:105|417:159,1,119.999996337891,2|0,0:0|3:0,0:0:0:0:
217,84,138284,2,0,L|345:95,1,119.999996337891,10|0,0:2|0:0,0:0:0:0:
460,272,138569,6,0,B|440:289|440:289|342:294,1,119.999996337891,6|0,0:0|0:0,0:0:0:0:
176,384,138855,2,0,L|311:377,1,119.999996337891,8|2,0:2|3:2,0:0:0:0:
191,290,139141,2,0,P|118:303|86:343,1,119.999996337891,2|2,0:3|3:0,0:0:0:0:
0,174,139427,2,0,P|73:187|105:227,1,119.999996337891,8|2,0:2|3:2,0:0:0:0:
191,58,139712,2,0,P|118:71|86:111,1,119.999996337891,2|0,0:3|3:0,0:0:0:0:
266,132,139998,6,0,B|300:150|300:150|400:130,1,119.999996337891,10|0,0:2|3:0,0:0:0:0:
512,26,140284,2,0,B|478:8|478:8|378:28,1,119.999996337891,2|0,0:0|3:0,0:0:0:0:
437,203,140569,2,0,B|465:176|465:176|465:69,1,119.999996337891,10|0,0:2|0:0,0:0:0:0:
300,275,140855,6,0,P|357:314|412:174,1,239.999992675781,6|8,0:2|0:2,0:0:0:0:
367,234,141284,1,2,3:2:0:0:
338,354,141427,2,0,P|274:361|220:316,1,119.999996337891,2|2,0:3|3:2,0:0:0:0:
106,268,141712,2,0,P|156:237|214:245,1,119.999996337891,8|2,0:2|3:2,0:0:0:0:
15,331,141998,6,0,L|11:197,1,119.999996337891,6|2,0:2|3:0,0:0:0:0:
79,116,142284,1,8,0:2:0:0:
79,116,142427,2,0,P|150:101|216:114,1,119.999996337891,2|2,3:0|0:3,0:0:0:0:
260,45,142712,2,0,P|320:86|371:80,1,119.999996337891,2|8,3:0|0:2,0:0:0:0:
460,46,142998,1,2,0:0:0:0:
460,46,143069,1,2,0:0:0:0:
460,46,143141,5,6,0:0:0:0:
466,235,143284,2,0,L|456:172,1,59.9999981689454,2|2,0:0|0:0,0:0:0:0:
451,141,143427,1,6,0:0:0:0:
353,276,143569,2,0,L|363:213,1,59.9999981689454,2|2,0:0|0:0,0:0:0:0:
368,182,143712,1,6,0:0:0:0:
240,235,143855,2,0,L|230:172,1,59.9999981689454,2|2,0:0|0:0,0:0:0:0:
225,141,143998,1,6,0:0:0:0:
127,276,144141,2,0,L|137:213,1,59.9999981689454,2|2,0:0|0:0,0:0:0:0:
142,182,144284,1,10,0:0:0:0:
14,235,144427,2,0,L|4:172,1,59.9999981689454,2|2,0:0|0:0,0:0:0:0:
0,141,144569,5,10,0:0:0:0:
93,95,144712,1,2,0:0:0:0:
11,43,144855,2,0,P|75:4|129:2,1,119.999996337891,10|2,0:0|0:0,0:0:0:0:
182,64,145141,2,0,P|249:89|294:75,1,119.999996337891,10|2,0:0|0:0,0:0:0:0:
382,18,145427,6,0,L|468:14,2,79.9999975585938,6|2|2,0:2|0:2|0:2,0:0:0:0:
512,106,145712,2,0,L|426:102,2,79.9999975585938,2|2|2,0:2|0:2|0:2,0:0:0:0:
382,194,145998,2,0,L|468:190,2,79.9999975585938,2|2|2,0:2|0:2|0:2,0:0:0:0:
512,282,146284,2,0,L|426:278,2,79.9999975585938,6|2|2,0:2|0:2|0:2,0:0:0:0:
382,370,146570,2,0,L|468:366,2,79.9999975585938,2|0|0,0:2|0:0|0:0,0:0:0:0:
323,293,146855,6,0,L|189:286,1,119.999996337891,2|0,0:2|0:0,0:0:0:0:
140,384,147141,2,0,L|274:377,1,119.999996337891,6|0,0:2|0:0,0:0:0:0:
343,366,147355,1,0,0:0:0:0:
343,366,147427,1,2,0:2:0:0:
197,258,147569,1,0,0:0:0:0:
197,258,147641,1,0,0:0:0:0:
197,258,147712,6,0,L|187:96,1,119.999996337891,6|0,0:2|0:0,0:0:0:0:
333,47,147998,2,0,L|340:166,1,119.999996337891,10|2,3:2|0:2,0:0:0:0:
213,54,148284,2,0,L|375:44,1,119.999996337891,2|2,3:3|0:2,0:0:0:0:
460,159,148570,2,0,L|340:166,1,119.999996337891,10|2,3:2|0:2,0:0:0:0:
452,39,148855,2,0,L|459:158,1,119.999996337891,2|0,3:3|0:0,0:0:0:0:
411,275,149141,6,0,P|352:310|299:292,1,119.999996337891,10|0,3:2|0:0,0:0:0:0:
196,257,149427,2,0,P|137:222|84:240,1,119.999996337891,2|0,3:2|0:0,0:0:0:0:
187,369,149712,2,0,P|210:304|196:257,1,119.999996337891,10|0,3:2|0:0,0:0:0:0:
90,234,149998,6,0,L|83:114,1,119.999996337891,2|0,3:2|0:0,0:0:0:0:
199,31,150284,2,0,L|192:151,1,119.999996337891,10|2,3:2|0:2,0:0:0:0:
107,39,150569,1,2,3:2:0:0:
192,150,150712,2,0,L|327:143,1,119.999996337891,2|10,0:2|3:2,0:0:0:0:
380,57,150998,1,2,0:2:0:0:
311,143,151141,2,0,P|298:211|330:268,1,119.999996337891,2|0,3:0|0:0,0:0:0:0:
426,234,151427,6,0,P|352:229|307:273,1,119.999996337891,10|0,3:2|0:0,0:0:0:0:
251,322,151712,2,0,P|301:352|359:342,1,119.999996337891,2|0,3:2|0:0,0:0:0:0:
317,254,151998,2,0,P|252:217|199:233,1,119.999996337891,10|0,3:2|0:0,0:0:0:0:
129,337,152284,6,0,L|101:197,1,119.999996337891,6|0,0:2|0:0,0:0:0:0:
234,108,152569,2,0,L|210:225,1,119.999996337891,10|2,3:2|0:0,0:0:0:0:
23,161,152855,2,0,P|83:126|145:130,1,119.999996337891,2|2,3:0|0:0,0:0:0:0:
210,225,153141,2,0,P|154:248|103:214,1,119.999996337891,10|2,3:2|0:0,0:0:0:0:
234,108,153427,2,0,L|363:125,1,119.999996337891,2|0,3:3|0:0,0:0:0:0:
488,239,153712,6,0,P|423:263|358:237,1,119.999996337891,10|0,3:2|0:0,0:0:0:0:
415,65,153998,2,0,P|439:130|413:195,1,119.999996337891,2|0,3:2|0:0,0:0:0:0:
241,134,154284,2,0,P|306:110|371:136,1,119.999996337891,10|0,3:2|0:0,0:0:0:0:
214,48,154569,6,0,P|132:43|87:71,1,119.999996337891,2|0,3:2|0:0,0:0:0:0:
9,132,154855,2,0,P|64:153|122:143,1,119.999996337891,10|2,3:2|0:0,0:0:0:0:
241,134,155141,2,0,L|236:264,1,119.999996337891,2|2,3:0|0:0,0:0:0:0:
138,354,155427,2,0,L|142:234,1,119.999996337891,10|2,3:2|0:0,0:0:0:0:
236,253,155712,2,0,P|300:282|375:279,1,119.999996337891,2|0,3:0|0:0,0:0:0:0:
426,237,155998,6,0,P|398:309|430:373,1,119.999996337891,10|0,3:2|0:0,0:0:0:0:
510,279,156284,2,0,P|508:204|475:156,1,119.999996337891,2|0,3:2|0:0,0:0:0:0:
401,153,156569,2,0,P|379:95|403:31,1,119.999996337891,10|0,3:2|0:0,0:0:0:0:
463,93,156855,6,0,L|319:104,1,119.999996337891,6|0,3:2|0:0,0:0:0:0:
191,18,157141,2,0,L|335:29,1,119.999996337891,8|2,0:2|3:2,0:0:0:0:
343,102,157427,2,0,L|199:113,1,119.999996337891,2|2,0:3|3:2,0:0:0:0:
71,8,157713,2,0,L|215:19,1,119.999996337891,8|2,0:2|0:2,0:0:0:0:
152,209,157998,2,0,L|134:68,1,119.999996337891,4|0,3:2|0:0,0:0:0:0:
258,217,158284,6,0,P|228:281|167:301,1,119.999996337891,10|0,0:2|0:0,0:0:0:0:
45,241,158569,2,0,P|105:203|172:220,1,119.999996337891,2|0,0:0|0:0,0:0:0:0:
185,300,158855,2,0,P|245:338|312:321,1,119.999996337891,10|0,0:2|0:0,0:0:0:0:
407,370,159141,6,0,P|461:302|389:167,1,239.999992675781,6|8,0:2|0:0,0:0:0:0:
283,152,159569,1,0,0:0:0:0:
283,152,159712,2,0,P|246:84|268:21,1,119.999996337891,2|0,0:2|0:0,0:0:0:0:
422,55,159998,2,0,L|402:192,1,119.999996337891,8|0,0:0|0:0,0:0:0:0:
324,236,160284,2,0,L|76:247,1,239.999992675781,12|8,0:2|3:2,0:0:0:0:
27,159,160712,1,10,3:2:0:0:
135,145,160855,2,0,P|187:202|113:341,2,239.999992675781,0|4|6,3:0|3:3|0:2,0:0:0:0:
74,85,161569,5,0,0:0:0:0:
164,62,161712,2,0,L|277:56,1,100,8|0,0:2|3:0,0:0:0:0:
352,152,161998,2,0,L|239:146,1,100,2|0,0:3|3:0,0:0:0:0:
358,50,162284,2,0,L|471:44,1,100,8|2,0:2|3:2,0:0:0:0:
503,200,162569,6,0,P|425:228|351:137,1,200,2|8,0:2|0:2,0:0:0:0:
435,149,162998,2,0,L|403:255,1,100,2|2,3:2|0:3,0:0:0:0:
371,324,163284,1,2,3:2:0:0:
493,293,163427,2,0,L|390:236,1,100,10|2,0:2|0:2,0:0:0:0:
371,324,163712,6,0,P|290:367|194:313,1,200,2|8,0:2|0:2,0:0:0:0:
160,242,164141,2,0,P|111:296|207:307,1,200,0|0,3:0|3:0,0:0:0:0:
240,255,164569,2,0,L|245:145,1,100,8|2,0:2|3:2,0:0:0:0:
156,111,164855,6,0,P|205:66|339:134,1,200,2|10,0:2|0:2,0:0:0:0:
328,188,165284,2,0,P|382:219|490:119,1,200,2|2,3:2|3:2,0:0:0:0:
402,135,165712,1,10,0:2:0:0:
465,231,165855,1,2,3:2:0:0:
419,324,165998,6,0,L|310:335,1,100,14|2,0:2|3:2,0:0:0:0:
177,270,166284,2,0,L|276:259,1,100,8|2,0:2|3:2,0:0:0:0:
130,342,166569,2,0,P|91:279|100:231,1,100,8|2,0:2|3:2,0:0:0:0:
215,183,166855,2,0,P|208:231|176:269,1,100,8|2,0:2|3:2,0:0:0:0:
138,193,167069,1,0,0:0:0:0:
138,193,167141,2,0,L|131:67,1,100,10|0,0:2|3:0,0:0:0:0:
201,23,167427,1,10,0:2:0:0:
261,96,167569,2,0,L|390:92,1,100,2|8,3:2|0:2,0:0:0:0:
419,19,167855,1,2,3:2:0:0:
362,108,167998,1,10,0:2:0:0:
474,84,168141,1,2,3:2:0:0:
444,186,168284,5,2,0:2:0:0:
444,186,168427,2,0,L|458:303,1,100,6|0,3:2|0:0,0:0:0:0:
289,352,168712,1,2,3:2:0:0:
289,352,168855,2,0,L|303:235,1,100,6|0,0:2|0:0,0:0:0:0:
134,186,169141,1,2,3:2:0:0:
134,186,169284,2,0,L|148:303,1,100,6|0,0:2|0:0,0:0:0:0:
26,169,169569,1,2,3:2:0:0:
26,169,169712,2,0,P|59:111|103:86,1,100,6|0,0:2|0:0,0:0:0:0:
172,102,169998,2,0,L|224:110,3,50,0|0|0|0,3:0|3:0|3:0|3:0,0:0:0:0:
270,39,170284,2,0,L|322:31,3,50,0|0|0|0,3:0|3:0|3:0|3:0,0:0:0:0:
401,34,170569,6,0,B|163:213|163:213|115:150|115:150|21:364|21:364|252:331|252:331|204:268|204:268|444:90,1,1215.99998515625,10|0,0:2|0:0,0:0:0:0:
