osu file format v14

[General]
AudioFilename: audio.mp3
AudioLeadIn: 0
PreviewTime: 128569
Countdown: 0
SampleSet: Soft
StackLeniency: 0.5
Mode: 0
LetterboxInBreaks: 0
WidescreenStoryboard: 1

[Editor]
Bookmarks: 1971,3304,4637,5971,7304,9221,12545,20438,22568,23076,25714,28351,30659,30962,31636,32218,32827,33427,44855,47141,51712,53998,56284,73427,74569,81427,83712,88284,92855,100855,101998,106569,108855,109998,110569,111141,117998,118569,120284,127141,128569,129427,143141,146855,147712,159141,161427,165998,168284,169998,170569,181118,186393
DistanceSpacing: 1.4
BeatDivisor: 4
GridSize: 16
TimelineZoom: 2.3

[Metadata]
Title:- FALLEN -
TitleUnicode:- ΓΛLLΞИ -
Artist:Kaneko Chiharu
ArtistUnicode:かねこちはる
Creator:s0m3guy
Version:Legendary
Source:
Tags:Legendary LΞGΞNDARY -Episode.1- かねこちはる Bad Fennec Records epes2001 773
BeatmapID:1879833
BeatmapSetID:889575

[Difficulty]
HPDrainRate:5
CircleSize:3
OverallDifficulty:8
ApproachRate:9.6
SliderMultiplier:2
SliderTickRate:1

[Events]
//Background and Video events
0,0,"bg.jpg",0,0
//Break Periods
2,113627,118044
//Storyboard Layer 0 (Background)
//Storyboard Layer 1 (Fail)
//Storyboard Layer 2 (Pass)
//Storyboard Layer 3 (Foreground)
//Storyboard Sound Samples

[TimingPoints]
638,333.333333333333,4,2,1,5,1,0
971,-200,4,2,1,5,0,0
1054,-200,4,2,1,15,0,0
1137,-200,4,2,1,25,0,0
1221,-200,4,2,1,35,0,0
1304,-200,4,2,1,45,0,0
1387,-200,4,2,1,50,0,0
1471,-200,4,2,1,55,0,0
1554,-200,4,2,1,60,0,0
1637,-200,4,2,1,65,0,0
1721,-200,4,2,1,70,0,0
1804,-200,4,2,1,80,0,0
1887,-100,4,2,1,5,0,0
1971,-200,4,2,1,70,0,0
3304,-200,4,2,2,70,0,0
3387,-200,4,2,1,70,0,0
4637,-200,4,2,2,70,0,0
4721,-200,4,2,1,70,0,0
5971,-200,4,2,2,70,0,0
6054,-200,4,2,1,70,0,0
7304,-200,4,2,2,40,0,0
7387,-200,4,2,1,40,0,0
12471,-200,4,2,1,5,0,0
12545,327.868852459016,4,2,1,40,1,0
12545,-200,4,2,1,40,0,0
14184,-200,4,2,1,35,0,0
14512,-200,4,2,1,30,0,0
14840,-200,4,2,1,25,0,0
15167,-200,4,2,1,40,0,0
16479,334.261838440111,4,2,1,40,1,0
16479,-200,4,2,1,40,0,0
16813,-200,4,2,1,35,0,0
17147,-200,4,2,1,30,0,0
17481,-200,4,2,1,25,0,0
17816,327.868852459016,4,2,1,40,1,0
17816,-200,4,2,1,40,0,0
19455,-200,4,2,1,30,0,0
19783,-200,4,2,1,20,0,0
20438,-166.666666666667,4,2,1,40,0,0
21750,342.857142857143,4,2,1,40,1,0
21750,-166.666666666667,4,2,1,40,0,0
22264,304.568527918782,4,2,1,40,1,0
22568,338.983050847458,4,2,1,60,1,0
22737,-133.333333333333,4,2,1,60,0,0
22906,-133.333333333333,4,2,1,5,0,0
23077,329.67032967033,4,2,1,60,1,0
23077,-153.846153846154,4,2,1,60,0,0
25384,-133.333333333333,4,2,1,60,0,0
25549,-133.333333333333,4,2,1,5,0,0
25714,-133.333333333333,4,2,1,60,0,0
28186,-133.333333333333,4,2,1,5,0,0
28351,-133.333333333333,4,2,1,60,0,0
30661,301.507537688442,4,2,1,60,1,0
30962,337.078651685393,4,2,1,70,1,0
30962,-100,4,2,1,70,0,0
31636,582.52427184466,4,2,1,30,1,0
31636,-133.333333333333,4,2,1,30,0,0
32072,-100,4,2,1,5,0,0
32218,609.137055837563,4,2,1,40,1,0
32218,-125,4,2,1,40,0,0
32674,-100,4,2,1,5,0,0
32827,600,4,2,1,50,1,0
32827,-117.647058823529,4,2,1,50,0,0
33277,-100,4,2,1,5,0,0
33427,285.714285714286,4,2,1,80,1,1
33641,-100,4,2,1,5,0,1
33712,-100,4,2,1,70,0,1
38212,-100,4,2,1,5,0,1
38284,-100,4,2,1,70,0,1
42784,-100,4,2,1,5,0,1
42855,-100,4,2,1,70,0,1
47141,-66.6666666666667,4,2,1,70,0,0
47427,-133.333333333333,4,2,1,70,0,0
47712,-142.857142857143,4,2,1,70,0,0
47998,-153.846153846154,4,2,1,70,0,0
48284,-166.666666666667,4,2,1,70,0,0
48569,-181.818181818182,4,2,1,70,0,0
48855,-200,4,2,1,70,0,0
49141,-222.222222222222,4,2,1,70,0,0
49427,-133.333333333333,4,2,1,70,0,0
49998,-142.857142857143,4,2,1,70,0,0
50284,-153.846153846154,4,2,1,70,0,0
50569,-133.333333333333,4,2,1,70,0,0
50855,-181.818181818182,4,2,1,70,0,0
51141,-200,4,2,1,70,0,0
51427,-222.222222222222,4,2,1,70,0,0
51998,-200,4,2,1,70,0,0
54141,-200,4,2,1,65,0,0
54284,-200,4,2,1,60,0,0
54427,-200,4,2,1,65,0,0
54569,-200,4,2,1,60,0,0
54712,-200,4,2,1,55,0,0
54855,-200,4,2,1,60,0,0
54998,-200,4,2,1,55,0,0
55141,-200,4,2,1,50,0,0
55284,-200,4,2,1,55,0,0
55427,-200,4,2,1,50,0,0
55569,-200,4,2,1,45,0,0
55712,-200,4,2,1,50,0,0
55998,-200,4,2,1,45,0,0
56284,-166.666666666667,4,2,1,60,0,0
57284,-166.666666666667,4,2,1,5,0,0
57427,-166.666666666667,4,2,1,60,0,0
58427,-166.666666666667,4,2,1,5,0,0
58569,-166.666666666667,4,2,1,60,0,0
59569,-166.666666666667,4,2,1,5,0,0
59712,-133.333333333333,4,2,1,60,0,0
60712,-166.666666666667,4,2,1,5,0,0
60855,-166.666666666667,4,2,1,60,0,0
66427,-166.666666666667,4,2,1,5,0,0
66569,-166.666666666667,4,2,1,60,0,0
67569,-166.666666666667,4,2,1,5,0,0
67712,-166.666666666667,4,2,1,60,0,0
68712,-166.666666666667,4,2,1,5,0,0
68855,-125,4,2,1,60,0,0
69855,-166.666666666667,4,2,1,5,0,0
69998,-166.666666666667,4,2,1,60,0,0
73855,-100,4,2,1,60,0,0
74569,-100,4,2,1,70,0,1
74784,-100,4,2,1,5,0,0
74855,-100,4,2,1,70,0,0
75998,-100,4,2,1,70,0,0
77069,-100,4,2,1,5,0,0
77141,-100,4,2,1,70,0,0
78284,-100,4,2,1,70,0,0
79355,-100,4,2,1,5,0,0
79427,-100,4,2,1,70,0,0
83712,-100,4,2,1,70,0,1
83927,-100,4,2,1,5,0,0
83998,-100,4,2,1,70,0,0
85069,-100,4,2,1,5,0,0
85141,-100,4,2,1,70,0,0
86212,-100,4,2,1,5,0,0
86284,-100,4,2,1,70,0,0
87355,-100,4,2,1,5,0,0
87427,-100,4,2,1,70,0,0
88284,-100,4,2,1,70,0,1
88355,-100,4,2,1,70,0,0
92855,-90.9090909090909,4,2,3,80,0,1
92998,-90.9090909090909,4,2,1,80,0,1
101927,-90.9090909090909,4,2,1,5,0,1
101998,-90.9090909090909,4,2,1,80,0,1
102212,-90.9090909090909,4,2,1,5,0,1
102284,-90.9090909090909,4,2,1,80,0,1
104498,-90.9090909090909,4,2,1,5,0,1
104569,-90.9090909090909,4,2,1,80,0,1
104998,-90.9090909090909,4,2,1,5,0,1
105069,-90.9090909090909,4,2,1,80,0,1
105212,-90.9090909090909,4,2,1,5,0,1
105284,-90.9090909090909,4,2,1,80,0,1
111141,-90.9090909090909,4,2,1,80,0,0
113427,-90.9090909090909,4,2,1,5,0,0
118569,-200,4,2,1,80,0,0
118712,-200,4,2,1,5,0,0
118998,-200,4,2,1,60,0,0
120284,-125,4,2,1,70,0,0
128284,-100,4,2,1,70,0,0
128569,-90.9090909090909,4,2,1,70,0,0
128855,-83.3333333333333,4,2,1,70,0,0
129141,-76.9230769230769,4,2,1,70,0,0
129427,-66.6666666666667,4,2,1,80,0,1
129641,-66.6666666666667,4,2,1,5,0,1
129712,-66.6666666666667,4,2,1,80,0,1
131927,-66.6666666666667,4,2,1,5,0,1
131998,-66.6666666666667,4,2,1,80,0,1
134212,-66.6666666666667,4,2,1,5,0,1
134284,-66.6666666666667,4,2,1,80,0,1
135427,-71.4285714285714,4,2,1,80,0,1
138784,-71.4285714285714,4,2,1,5,0,1
138855,-71.4285714285714,4,2,1,80,0,1
138998,-71.4285714285714,4,2,1,80,0,1
141069,-71.4285714285714,4,2,1,5,0,1
141141,-71.4285714285714,4,2,1,80,0,1
146855,-64.5161290322581,4,2,1,80,0,0
147141,-62.5,4,2,1,80,0,0
147427,-60.6060606060606,4,2,1,80,0,0
147712,-58.8235294117647,4,2,1,80,0,1
147927,-58.8235294117647,4,2,1,5,0,1
147998,-58.8235294117647,4,2,1,80,0,1
152498,-58.8235294117647,4,2,1,5,0,1
152569,-58.8235294117647,4,2,1,80,0,1
157069,-58.8235294117647,4,2,1,5,0,1
157141,-58.8235294117647,4,2,1,80,0,1
158284,-58.8235294117647,4,2,1,80,0,1
158498,-58.8235294117647,4,2,1,5,0,1
158569,-58.8235294117647,4,2,1,80,0,1
158784,-58.8235294117647,4,2,1,5,0,1
158855,-58.8235294117647,4,2,1,80,0,1
159069,-58.8235294117647,4,2,1,5,0,1
159141,-58.8235294117647,4,2,1,80,0,1
161427,-58.8235294117647,4,2,1,70,0,0
162569,-83.3333333333333,4,2,1,70,0,0
164712,-83.3333333333333,4,2,1,70,0,0
165998,-66.6666666666667,4,2,1,80,0,1
170569,329.67032967033,4,2,1,60,1,0
170569,-200,4,2,1,60,0,0
171887,-200,4,2,2,60,0,0
171970,-200,4,2,1,60,0,0
173206,-200,4,2,2,60,0,0
173288,-200,4,2,1,60,0,0
174525,-200,4,2,2,60,0,0
174607,-200,4,2,1,60,0,0
175843,-200,4,2,2,60,0,0
175926,-200,4,2,1,60,0,0
186393,-200,4,2,1,5,0,0

[Colours]
Combo1 : 210,201,193
Combo2 : 245,204,141
Combo3 : 220,170,90

[HitObjects]
256,192,971,12,0,1888,0:0:0:0:
0,41,1971,6,0,B|33:-1|88:-18|144:5|170:46|170:46|200:92|257:117|325:84|339:51|339:51|323:131|395:186|464:161|464:161|534:134|550:44|497:1|497:1|438:27|415:77|434:137|460:179|460:179|484:208|498:272|466:326|431:347|431:347|411:282|346:236|274:245|274:245|203:255|155:316|157:382|157:382|212:326|205:248|152:202|152:202|103:155|24:164|-20:218|-20:218|-14:251|31:288|72:295|72:295|37:342,1,2175
256,192,9304,12,0,12471,0:0:0:0:
211,295,12545,6,0,P|222:343|250:384,1,100,6|0,0:0|0:0,0:0:0:0:
259,169,13036,2,0,P|212:154|162:157,1,100,2|0,0:0|0:0,0:0:0:0:
342,272,13528,2,0,P|372:248|392:221,1,50,2|0,0:0|0:0,0:0:0:0:
444,87,13856,2,0,P|459:39|488:0,3,100,2|2|2|2,0:0|0:0|0:0|0:0,0:0:0:0:
348,0,15167,6,0,P|298:6|253:27,1,100,2|0,0:0|0:0,0:0:0:0:
300,237,15659,2,0,P|319:191|323:141,1,100,2|0,0:0|0:0,0:0:0:0:
146,117,16151,2,0,P|165:133|188:145,1,50,2|0,0:0|0:0,0:0:0:0:
87,48,16479,2,0,P|47:18|-1:3,3,100,2|2|2|2,0:0|0:0|0:0|0:0,0:0:0:0:
0,149,17816,6,0,P|6:198|27:243,1,100,2|0,0:0|0:0,0:0:0:0:
237,197,18307,2,0,P|191:177|141:173,1,100,2|0,0:0|0:0,0:0:0:0:
117,350,18799,2,0,P|133:331|144:308,1,50,2|0,0:0|0:0,0:0:0:0:
141,173,19127,2,0,P|190:177|236:196,3,100,2|2|2|0,0:0|0:0|0:0|0:0,0:0:0:0:
297,384,20438,5,2,0:0:0:0:
313,226,20602,2,0,L|318:161,1,59.9999981689454,2|0,0:0|0:0,0:0:0:0:
396,2,20930,2,0,L|429:56,1,59.9999981689454,2|0,0:0|0:0,0:0:0:0:
461,229,21258,2,0,L|400:202,1,59.9999981689454,2|0,0:0|0:0,0:0:0:0:
273,83,21586,2,0,L|336:67,1,59.9999981689454,2|0,0:0|0:0,0:0:0:0:
512,90,21921,2,0,L|464:142,1,59.9999981689454,2|0,0:0|0:0,0:0:0:0:
313,226,22264,1,2,0:0:0:0:
273,83,22416,1,2,0:0:0:0:
256,309,22568,5,2,0:3:0:0:
256,309,22652,1,2,0:3:0:0:
256,309,22737,2,0,L|256:405,1,75.0000028610231,2|0,0:3|0:0,0:0:0:0:
0,226,23077,5,6,3:2:0:0:
42,51,23241,2,0,P|90:56|130:79,1,64.9999970245363,2|0,3:2|0:0,0:0:0:0:
222,35,23571,2,0,P|231:82|222:127,1,64.9999970245363,2|0,3:2|0:0,0:0:0:0:
291,202,23901,2,0,P|248:225|203:230,1,64.9999970245363,2|0,3:2|0:0,0:0:0:0:
154,320,24230,2,0,P|118:287|99:245,1,64.9999970245363,2|0,3:2|0:0,0:0:0:0:
0,226,24560,2,0,P|20:182|54:151,1,64.9999970245363,2|0,3:2|0:0,0:0:0:0:
154,320,24890,5,2,3:2:0:0:
221,129,25055,1,2,3:2:0:0:
352,282,25219,5,2,0:3:0:0:
352,282,25302,1,2,0:3:0:0:
352,282,25384,2,0,P|373:325|374:384,1,75.0000028610231,2|0,0:3|0:0,0:0:0:0:
500,181,25714,5,6,3:2:0:0:
449,8,25879,2,0,P|401:16|353:49,1,75.0000028610231,2|0,3:2|0:0,0:0:0:0:
352,282,26208,2,0,P|385:247|404:191,1,75.0000028610231,2|0,3:2|0:0,0:0:0:0:
269,1,26538,2,0,P|262:48|279:105,1,75.0000028610231,2|0,3:2|0:0,0:0:0:0:
500,181,26868,2,0,P|477:138|430:102,1,75.0000028610231,2|0,3:2|0:0,0:0:0:0:
209,172,27197,2,0,P|252:193|311:194,1,75.0000028610231,2|0,3:2|0:0,0:0:0:0:
352,282,27527,5,2,3:2:0:0:
209,172,27692,1,2,3:2:0:0:
99,315,27857,5,2,0:3:0:0:
99,315,27939,1,2,0:3:0:0:
99,315,28022,2,0,P|46:336|2:344,1,75.0000028610231,2|0,0:3|0:0,0:0:0:0:
227,384,28351,5,4,3:2:0:0:
227,384,28516,1,0,3:2:0:0:
273,175,28681,1,0,3:0:0:0:
376,359,28846,2,0,P|432:371|480:371,1,75.0000028610231,8|0,3:2|0:0,0:0:0:0:
478,48,29175,5,0,3:2:0:0:
432,257,29340,1,0,3:0:0:0:
329,73,29505,2,0,P|273:61|225:61,1,75.0000028610231,8|0,3:2|0:0,0:0:0:0:
140,308,29835,5,0,3:2:0:0:
255,59,30000,1,0,3:0:0:0:
72,125,30164,1,8,3:2:0:0:
321,240,30329,1,0,3:2:0:0:
0,192,30659,5,8,0:2:0:0:
512,0,30962,5,2,0:2:0:0:
300,286,31636,6,0,P|267:340|223:367,1,112.500004291535,2|0,0:0|0:0,0:0:0:0:
329,73,32218,6,0,P|392:74|445:107,1,120,2|0,0:0|0:0,0:0:0:0:
130,154,32827,6,0,P|99:98|103:31,1,127.50000243187,2|0,0:0|0:0,0:0:0:0:
451,384,33427,6,0,L|467:192,1,150,6|0,0:2|0:0,0:0:0:0:
469,181,33712,5,8,0:2:0:0:
231,130,33855,1,2,3:2:0:0:
452,32,33998,1,2,0:3:0:0:
332,243,34141,1,2,3:2:0:0:
306,0,34284,1,8,0:2:0:0:
469,181,34427,1,2,3:2:0:0:
231,130,34569,2,0,P|147:133|94:164,1,100,2|0,0:0|3:2,0:0:0:0:
350,260,34855,6,0,P|389:185|389:124,1,100,10|0,0:2|3:2,0:0:0:0:
178,298,35141,2,0,P|222:368|276:399,1,100,2|0,0:0|3:0,0:0:0:0:
230,96,35427,2,0,P|146:99|93:130,1,100,10|0,0:2|0:0,0:0:0:0:
389,278,35712,2,0,P|427:203|427:142,1,100,2|0,0:0|0:0,0:0:0:0:
6,357,35998,5,8,0:2:0:0:
178,298,36141,1,2,3:2:0:0:
42,136,36284,2,0,P|6:77|-4:24,1,100,2|2,0:2|3:2,0:0:0:0:
133,299,36569,5,8,0:2:0:0:
169,90,36712,2,0,P|191:25|225:-17,1,100,2|2,3:2|0:3,0:0:0:0:
471,321,36998,5,0,3:0:0:0:
381,128,37141,6,0,P|343:71|299:39,1,100,10|0,0:2|3:0,0:0:0:0:
303,307,37427,2,0,P|340:363|384:396,1,100,2|0,0:0|3:0,0:0:0:0:
397,76,37712,2,0,P|359:19|315:-12,1,100,10|0,0:2|0:0,0:0:0:0:
67,384,37998,6,0,L|50:192,1,150,6|0,0:2|0:0,0:0:0:0:
50,183,38284,5,8,0:2:0:0:
213,2,38427,1,2,3:2:0:0:
187,245,38570,1,2,0:3:0:0:
67,34,38713,1,2,3:2:0:0:
288,132,38855,1,8,0:2:0:0:
50,183,38999,1,2,3:2:0:0:
206,0,39141,2,0,P|274:-6|326:7,1,100,2|2,0:2|3:2,0:0:0:0:
242,259,39427,6,0,P|201:202|188:150,1,100,10|0,0:2|3:0,0:0:0:0:
449,98,39712,2,0,P|420:160|381:198,1,100,2|0,0:0|3:0,0:0:0:0:
206,0,39998,2,0,P|274:-6|326:7,1,100,10|0,0:2|0:0,0:0:0:0:
392,238,40284,2,0,P|323:244|271:230,1,100,2|0,0:0|0:0,0:0:0:0:
154,133,40569,5,8,0:2:0:0:
300,341,40712,2,0,P|237:312|199:273,1,100,2|2,3:2|0:3,0:0:0:0:
136,129,40998,5,2,3:2:0:0:
119,329,41141,1,8,0:2:0:0:
293,238,41284,1,2,3:2:0:0:
97,230,41427,2,0,P|12:236|-27:257,1,100,2|2,0:2|3:2,0:0:0:0:
254,328,41712,6,0,P|291:251|292:207,1,100,10|0,0:2|3:0,0:0:0:0:
78,50,41998,2,0,P|125:120|163:143,1,100,2|0,0:0|3:0,0:0:0:0:
405,35,42284,2,0,P|319:41|280:62,1,100,10|0,0:2|0:0,0:0:0:0:
238,363,42569,6,0,L|413:378,1,150,6|0,0:2|0:0,0:0:0:0:
440,380,42855,5,8,0:2:0:0:
466,192,42998,2,0,P|508:118|546:87,1,100,2|2,3:2|0:3,0:0:0:0:
333,251,43284,5,2,3:2:0:0:
256,60,43427,1,8,0:2:0:0:
182,304,43569,2,0,P|138:330|84:338,1,100,2|2,3:2|0:3,0:0:0:0:
256,60,43855,5,2,3:2:0:0:
426,84,43998,6,0,P|489:113|527:168,1,100,10|0,0:2|3:0,0:0:0:0:
232,230,44284,2,0,P|169:201|131:146,1,100,2|0,0:0|3:0,0:0:0:0:
402,254,44569,2,0,P|373:317|318:355,1,100,10|0,0:2|0:0,0:0:0:0:
256,60,44855,5,4,0:2:0:0:
284,36,44926,1,0,0:0:0:0:
319,21,44997,1,0,0:0:0:0:
355,14,45069,1,0,0:0:0:0:
393,16,45141,2,0,L|462:28,1,50,8|0,0:2|0:0,0:0:0:0:
511,182,45284,5,2,3:2:0:0:
511,182,45355,1,0,0:0:0:0:
511,182,45427,2,0,L|465:236,1,50,2|0,0:3|0:0,0:0:0:0:
308,201,45569,5,2,3:2:0:0:
308,201,45640,1,0,0:0:0:0:
308,201,45712,2,0,L|283:134,1,50,8|0,0:2|0:0,0:0:0:0:
229,0,45855,6,0,L|183:54,1,50,2|0,3:2|0:0,0:0:0:0:
71,165,45998,1,12,0:2:0:0:
71,165,46069,1,0,0:0:0:0:
71,165,46141,2,0,L|140:177,1,50,2|0,0:2|0:0,0:0:0:0:
308,201,46284,6,0,L|262:255,1,50,8|0,0:2|0:0,0:0:0:0:
155,378,46427,1,8,0:2:0:0:
155,378,46498,1,0,0:0:0:0:
155,378,46569,2,0,L|130:311,1,50,2|0,3:3|0:0,0:0:0:0:
0,65,46712,5,8,0:2:0:0:
38,30,46783,1,0,0:0:0:0:
86,10,46854,1,4,0:3:0:0:
135,0,46926,1,4,0:3:0:0:
189,3,46998,1,4,0:3:0:0:
242,21,47069,1,4,0:3:0:0:
287,48,47141,6,0,P|347:70|431:51,1,150.000005722046,4|0,0:2|0:0,0:0:0:0:
314,384,47427,6,0,P|301:338|302:306,1,75.0000028610231,2|0,0:0|0:0,0:0:0:0:
222,264,47712,2,0,P|246:239|276:220,1,69.9999978637696,2|0,0:0|0:0,0:0:0:0:
279,134,47998,2,0,P|310:142|338:158,1,64.9999970245363,2|0,0:0|0:0,0:0:0:0:
414,122,48284,2,0,P|420:151|420:181,1,59.9999981689454,2|0,0:0|0:0,0:0:0:0:
490,227,48569,2,0,P|469:245|445:258,1,55.0000016784668,2|0,0:0|0:0,0:0:0:0:
434,339,48855,2,0,P|410:330|389:317,1,50,2|0,0:0|0:0,0:0:0:0:
313,345,49141,2,0,P|308:322|309:300,1,44.999998626709,2|0,0:0|0:0,0:0:0:0:
445,0,49427,6,0,L|365:6,1,75.0000028610231,2|0,0:0|0:0,0:0:0:0:
94,0,49712,6,0,P|81:46|82:78,1,75.0000028610231,2|0,0:0|0:0,0:0:0:0:
2,119,49998,2,0,P|25:144|55:162,1,69.9999978637696,2|0,0:0|0:0,0:0:0:0:
59,250,50284,2,0,P|90:241|118:225,1,64.9999970245363,2|0,0:0|0:0,0:0:0:0:
370,6,50569,6,0,L|362:89,1,75.0000028610231,2|0,0:0|0:0,0:0:0:0:
193,259,50855,6,0,P|198:232|197:204,1,55.0000016784668,2|0,0:0|0:0,0:0:0:0:
261,154,51141,2,0,P|241:138|219:125,1,50,2|0,0:0|0:0,0:0:0:0:
206,47,51427,2,0,P|184:54|165:66,1,44.999998626709,2|0,0:0|0:0,0:0:0:0:
159,384,51712,5,6,3:2:0:0:
118,224,51855,1,2,0:0:0:0:
245,275,51998,6,0,P|277:246|303:235,1,50,2|0,0:0|0:0,0:0:0:0:
512,253,52284,2,0,P|478:280|451:292,1,50,2|0,0:0|0:0,0:0:0:0:
302,152,52569,2,0,P|342:165|366:182,1,50,2|0,0:0|0:0,0:0:0:0:
456,373,52855,2,0,P|414:358|391:340,1,50,2|0,0:0|0:0,0:0:0:0:
435,142,53141,2,0,P|443:183|439:212,1,50,2|0,0:0|0:0,0:0:0:0:
324,384,53426,2,0,P|314:340|319:312,1,50,2|0,0:0|0:0,0:0:0:0:
512,253,53712,2,0,P|478:280|451:292,1,50,2|0,0:0|0:0,0:0:0:0:
447,39,53998,5,2,0:0:0:0:
379,200,54141,2,0,L|406:135,1,50,2|2,0:0|0:0,0:0:0:0:
306,44,54427,5,2,0:0:0:0:
281,217,54570,2,0,L|290:147,1,50,2|2,0:0|0:0,0:0:0:0:
149,95,54855,5,2,0:0:0:0:
184,266,54998,2,0,L|168:197,1,50,2|2,0:0|0:0,0:0:0:0:
0,254,55284,5,2,0:0:0:0:
115,384,55427,2,0,L|67:332,1,50,2|2,0:0|0:0,0:0:0:0:
331,272,55712,5,2,0:0:0:0:
176,147,55855,1,2,0:0:0:0:
229,339,55998,1,2,0:0:0:0:
299,153,56141,1,2,0:0:0:0:
115,384,56284,5,6,3:2:0:0:
115,384,56569,1,0,3:0:0:0:
115,384,56855,1,0,3:0:0:0:
115,383,57141,2,0,P|131:359|152:338,1,59.9999981689454,0|0,3:0|0:0,0:0:0:0:
353,315,57427,5,2,3:2:0:0:
353,315,57712,1,0,3:0:0:0:
353,315,57998,1,0,3:0:0:0:
353,315,58284,2,0,P|328:298|307:277,1,59.9999981689454,0|0,3:0|0:0,0:0:0:0:
283,76,58569,5,2,3:2:0:0:
283,76,58854,1,0,3:0:0:0:
283,76,59140,1,0,3:0:0:0:
283,76,59427,2,0,P|266:100|245:121,1,59.9999981689454,0|0,3:0|0:0,0:0:0:0:
46,145,59712,5,2,3:2:0:0:
46,145,59997,1,0,3:0:0:0:
46,145,60283,1,0,3:0:0:0:
45,145,60569,2,0,L|112:181,1,75.0000028610231,0|0,3:0|0:0,0:0:0:0:
353,315,60855,5,6,3:2:0:0:
353,315,61140,1,0,3:0:0:0:
353,315,61426,1,0,3:0:0:0:
353,315,61712,1,0,3:0:0:0:
353,315,61998,1,0,3:0:0:0:
353,315,62283,1,0,3:0:0:0:
353,315,62569,1,0,3:0:0:0:
353,315,62855,1,0,3:0:0:0:
283,76,63141,5,2,3:2:0:0:
283,76,63426,1,0,3:0:0:0:
283,76,63712,1,0,3:0:0:0:
283,76,63998,1,0,3:0:0:0:
112,255,64284,5,2,3:2:0:0:
112,255,64569,1,0,3:0:0:0:
112,255,64855,1,0,3:0:0:0:
112,255,65141,1,0,3:0:0:0:
362,384,65427,5,6,3:2:0:0:
362,384,65712,1,0,3:0:0:0:
362,384,65998,1,0,3:0:0:0:
362,384,66284,2,0,P|339:341|315:315,1,59.9999981689454,0|0,3:0|0:0,0:0:0:0:
64,298,66570,5,2,3:2:0:0:
64,298,66855,1,0,3:0:0:0:
64,298,67141,1,0,3:0:0:0:
64,298,67427,2,0,P|107:275|133:251,1,59.9999981689454,0|0,3:0|0:0,0:0:0:0:
150,0,67712,5,2,3:2:0:0:
150,0,67997,1,0,3:0:0:0:
150,0,68283,1,0,3:0:0:0:
150,0,68569,2,0,P|173:43|197:69,1,59.9999981689454,0|0,3:0|0:0,0:0:0:0:
448,86,68855,5,2,3:2:0:0:
448,86,69140,1,0,3:0:0:0:
448,86,69426,1,0,3:0:0:0:
448,86,69712,2,0,L|377:123,1,80,0|0,3:0|0:0,0:0:0:0:
64,298,69998,5,6,3:2:0:0:
64,298,70283,1,0,3:0:0:0:
64,298,70569,1,0,3:0:0:0:
64,298,70855,1,0,3:0:0:0:
64,298,71141,1,0,3:0:0:0:
64,298,71426,1,0,3:0:0:0:
64,298,71712,1,0,3:0:0:0:
64,298,71998,1,0,3:0:0:0:
150,0,72284,5,2,3:2:0:0:
150,0,72569,1,0,3:0:0:0:
150,0,72855,1,0,3:0:0:0:
150,0,73141,1,0,3:0:0:0:
365,224,73427,5,2,3:2:0:0:
365,224,73712,5,0,3:0:0:0:
487,129,73855,2,0,P|508:80|511:19,2,100,2|0|0,0:0|0:0|0:0,0:0:0:0:
150,0,74284,5,8,3:2:0:0:
0,364,74569,6,0,L|175:348,1,150,4|0,0:2|0:0,0:0:0:0:
183,349,74855,5,10,0:2:0:0:
306,144,74998,1,2,3:2:0:0:
327,383,75141,1,2,0:2:0:0:
169,201,75284,1,2,3:2:0:0:
402,255,75427,2,0,P|470:253|537:237,1,100,10|2,0:2|3:2,0:0:0:0:
223,58,75712,5,2,0:2:0:0:
205,273,75855,1,0,3:2:0:0:
83,99,75998,2,0,P|32:59|-8:48,1,100,10|2,0:2|3:2,0:0:0:0:
289,326,76284,5,2,0:2:0:0:
307,111,76427,1,2,3:2:0:0:
429,285,76570,2,0,P|480:325|520:336,1,100,10|0,0:2|3:2,0:0:0:0:
512,18,76855,6,0,L|341:34,1,150,2|0,0:2|0:0,0:0:0:0:
329,35,77141,5,10,0:2:0:0:
206,240,77284,1,2,3:2:0:0:
185,1,77427,1,2,0:2:0:0:
343,183,77570,1,2,3:2:0:0:
110,129,77713,2,0,P|42:131|-25:147,1,100,10|2,0:2|3:2,0:0:0:0:
154,384,77998,5,2,0:2:0:0:
193,152,78141,1,0,3:2:0:0:
294,360,78284,2,0,P|345:369|400:362,1,100,10|2,0:2|3:2,0:0:0:0:
512,77,78569,5,2,0:2:0:0:
473,309,78712,1,2,3:2:0:0:
372,101,78855,2,0,P|321:92|266:99,1,100,10|0,0:2|3:2,0:0:0:0:
449,384,79141,6,0,L|435:224,1,150,4|0,0:2|0:0,0:0:0:0:
431,190,79427,5,10,0:2:0:0:
287,0,79569,1,2,3:2:0:0:
292,239,79713,1,2,0:2:0:0:
430,42,79856,1,2,3:2:0:0:
202,120,79998,2,0,P|136:139|76:172,1,100,10|2,0:2|3:2,0:0:0:0:
0,350,80284,5,2,0:2:0:0:
18,135,80427,1,2,3:2:0:0:
140,309,80570,2,0,P|191:349|231:360,1,100,10|2,0:2|3:2,0:0:0:0:
288,168,80855,5,2,0:2:0:0:
306,383,80998,1,2,3:2:0:0:
428,209,81141,2,0,P|479:169|519:158,1,100,10|2,0:2|3:2,0:0:0:0:
134,149,81427,5,12,3:2:0:0:
14,316,81569,1,2,3:3:0:0:
124,149,81712,5,8,3:2:0:0:
65,358,81855,1,2,0:2:0:0:
114,153,81998,5,8,3:2:0:0:
132,382,82141,1,2,0:2:0:0:
107,159,82284,5,8,3:2:0:0:
208,381,82426,1,2,0:2:0:0:
100,168,82569,5,8,3:2:0:0:
259,276,82711,1,2,0:2:0:0:
274,84,82855,1,2,3:2:0:0:
176,222,82998,5,4,0:2:0:0:
435,305,83141,1,2,3:2:0:0:
274,84,83284,1,2,0:2:0:0:
273,359,83427,5,8,3:2:0:0:
436,136,83569,1,8,0:2:0:0:
40,384,83712,6,0,L|23:192,1,150,6|0,2:2|2:0,0:0:0:0:
22,200,83998,5,8,0:2:0:0:
249,27,84141,1,0,3:2:0:0:
49,0,84284,1,2,0:3:0:0:
222,227,84427,1,2,3:2:0:0:
136,114,84569,1,8,0:2:0:0:
136,114,84712,1,0,3:2:0:0:
472,0,84855,6,0,L|488:191,1,150,2|0,2:2|2:0,0:0:0:0:
490,184,85141,5,8,0:2:0:0:
263,357,85284,1,2,3:2:0:0:
463,384,85427,1,2,0:3:0:0:
290,157,85570,1,2,3:2:0:0:
376,270,85712,1,8,0:2:0:0:
376,270,85855,1,0,0:2:0:0:
0,19,85998,6,0,L|191:35,1,150,2|0,2:2|2:0,0:0:0:0:
183,35,86284,5,8,0:2:0:0:
306,240,86427,1,2,3:2:0:0:
327,1,86570,1,2,0:3:0:0:
169,183,86713,1,2,3:2:0:0:
402,129,86855,1,8,0:2:0:0:
279,117,86998,1,0,3:2:0:0:
512,365,87141,6,0,L|320:348,1,150,2|0,2:2|2:0,0:0:0:0:
329,349,87427,5,8,0:2:0:0:
110,255,87570,1,2,3:2:0:0:
343,201,87713,1,2,0:3:0:0:
185,383,87856,1,2,3:2:0:0:
206,144,87998,2,0,P|235:64|271:28,1,100,8|0,0:2|0:2,0:0:0:0:
33,384,88284,6,0,L|25:315,1,50,6|2,0:2|0:0,0:0:0:0:
5,164,88426,5,2,3:3:0:0:
5,164,88498,1,0,0:0:0:0:
5,164,88569,2,2,L|-3:95,1,50,8|0,0:0|0:0,0:0:0:0:
171,139,88712,5,2,3:3:0:0:
171,139,88784,1,2,3:3:0:0:
171,139,88855,2,2,L|240:131,1,50,8|0,0:0|0:0,0:0:0:0:
196,305,88997,5,2,3:3:0:0:
196,305,89069,1,2,3:3:0:0:
196,305,89141,2,2,L|204:374,1,50,8|0,0:0|0:0,0:0:0:0:
362,280,89284,5,2,3:3:0:0:
362,280,89355,1,2,3:3:0:0:
362,280,89427,2,2,L|431:272,1,50,8|0,0:0|0:0,0:0:0:0:
337,114,89569,5,2,3:3:0:0:
337,114,89641,1,2,3:3:0:0:
337,114,89712,2,2,L|329:45,1,50,8|0,0:0|0:0,0:0:0:0:
171,139,89855,5,2,3:3:0:0:
171,139,89927,1,2,3:3:0:0:
171,139,89998,2,2,L|102:147,1,50,8|0,0:0|0:0,0:0:0:0:
255,333,90141,5,2,3:3:0:0:
255,333,90212,1,2,3:3:0:0:
255,333,90284,2,2,L|255:387,1,50,8|2,0:0|3:3,0:0:0:0:
75,168,90569,5,2,0:2:0:0:
29,145,90641,1,2,0:0:0:0:
1,103,90712,1,2,0:0:0:0:
6,52,90784,1,2,0:0:0:0:
38,14,90855,1,10,0:2:0:0:
86,1,90927,1,2,0:0:0:0:
134,13,90998,1,2,0:0:0:0:
162,53,91069,1,2,0:0:0:0:
153,102,91141,1,10,0:2:0:0:
163,150,91212,1,2,0:0:0:0:
204,179,91284,1,2,0:0:0:0:
252,166,91355,1,2,0:0:0:0:
270,118,91427,1,2,0:2:0:0:
266,68,91498,1,2,0:0:0:0:
296,28,91569,1,2,0:0:0:0:
340,3,91641,1,2,0:0:0:0:
405,0,91712,5,10,0:2:0:0:
483,16,91808,1,2,0:0:0:0:
512,90,91903,1,2,0:0:0:0:
479,166,91998,1,10,0:2:0:0:
404,190,92093,1,2,0:0:0:0:
355,257,92189,1,2,0:0:0:0:
367,338,92284,1,6,0:3:0:0:
293,374,92379,1,2,0:0:0:0:
235,314,92474,1,2,0:0:0:0:
274,240,92570,1,10,0:3:0:0:
214,164,92665,1,2,0:0:0:0:
124,188,92760,1,2,0:0:0:0:
106,277,92855,6,0,P|39:296|-35:291,1,110.000003356934,6|0,0:2|3:0,0:0:0:0:
220,108,93141,5,10,0:2:0:0:
211,308,93284,2,0,P|163:358|95:390,1,110.000003356934,2|0,3:2|0:0,0:0:0:0:
227,104,93569,5,2,3:2:0:0:
335,272,93712,2,0,P|323:340|287:405,1,110.000003356934,10|0,0:2|3:0,0:0:0:0:
231,97,93998,5,2,0:2:0:0:
416,172,94141,2,0,P|446:233|454:308,1,110.000003356934,2|8,3:2|0:2,0:0:0:0:
231,89,94426,5,2,3:2:0:0:
512,108,94569,2,0,P|470:70|421:46,1,110.000003356934,2|0,0:2|3:0,0:0:0:0:
347,295,94855,2,0,P|401:292|453:274,1,110.000003356934,10|0,0:2|3:0,0:0:0:0:
131,83,95141,6,0,P|110:132|104:187,1,110.000003356934,2|0,0:2|3:0,0:0:0:0:
204,361,95426,1,10,0:2:0:0:
455,185,95569,6,0,P|400:182|346:195,1,110.000003356934,2|0,3:2|0:0,0:0:0:0:
219,348,95855,1,2,3:2:0:0:
0,169,95998,6,0,P|6:222|29:272,1,110.000003356934,10|0,0:2|3:0,0:0:0:0:
201,371,96284,1,2,0:2:0:0:
309,83,96427,6,0,P|262:112|226:153,1,110.000003356934,2|8,3:2|0:2,0:0:0:0:
210,353,96712,1,2,3:2:0:0:
309,83,96855,6,0,P|262:112|226:153,1,110.000003356934,2|0,0:2|3:0,0:0:0:0:
393,384,97141,2,0,P|391:328|373:277,1,110.000003356934,10|0,0:2|3:0,0:0:0:0:
192,342,97427,6,0,P|138:331|90:306,1,110.000003356934,2|0,0:2|3:0,0:0:0:0:
1,215,97712,5,10,0:2:0:0:
318,150,97855,2,0,P|307:203|281:252,1,110.000003356934,2|0,3:2|0:0,0:0:0:0:
192,342,98141,5,2,3:2:0:0:
127,23,98284,2,0,P|179:33|228:58,1,110.000003356934,10|0,0:2|3:0,0:0:0:0:
318,150,98569,5,2,0:2:0:0:
1,215,98712,2,0,P|11:161|36:112,1,110.000003356934,2|8,3:2|0:2,0:0:0:0:
127,23,98998,5,0,3:0:0:0:
192,342,99141,2,0,P|138:331|90:306,1,110.000003356934,2|0,0:2|3:0,0:0:0:0:
318,150,99427,2,0,P|307:203|281:252,1,110.000003356934,10|0,0:2|3:0,0:0:0:0:
35,112,99712,6,0,P|10:161|1:215,1,110.000003356934,2|0,0:2|3:0,0:0:0:0:
87,305,99998,1,8,0:2:0:0:
249,50,100141,2,0,P|195:62|147:89,1,110.000003356934,2|0,3:2|0:0,0:0:0:0:
134,213,100427,1,0,3:0:0:0:
477,172,100569,2,0,P|436:135|386:111,1,110.000003356934,8|0,0:2|3:0,0:0:0:0:
266,229,100855,5,10,3:2:0:0:
477,172,100998,1,0,3:0:0:0:
421,384,101141,1,0,3:0:0:0:
355,139,101284,5,10,3:2:0:0:
510,294,101427,1,0,3:0:0:0:
298,351,101569,1,0,3:0:0:0:
477,172,101712,6,0,P|511:106|511:9,1,165.000005035401,2|0,3:2|0:0,0:0:0:0:
503,0,101998,6,0,L|311:16,1,165.000005035401,6|0,0:2|0:0,0:0:0:0:
293,21,102284,5,10,0:2:0:0:
230,254,102427,1,2,3:0:0:0:
106,90,102569,2,0,P|42:73|-9:79,1,110.000003356934,2|2,0:3|3:0,0:0:0:0:
230,254,102855,2,0,P|276:207|297:159,1,110.000003356934,10|2,0:2|3:2,0:0:0:0:
25,279,103141,6,0,P|42:342|72:384,1,110.000003356934,2|0,0:2|3:0,0:0:0:0:
189,384,103427,1,10,0:2:0:0:
236,103,103569,2,0,P|189:149|168:197,1,110.000003356934,2|2,3:2|0:3,0:0:0:0:
489,214,103855,2,0,P|428:186|377:183,1,110.000003356934,2|10,3:2|0:2,0:0:0:0:
323,384,104141,1,2,3:0:0:0:
386,183,104284,6,0,P|402:119|388:20,1,165.000005035401,2|0,0:2|0:0,0:0:0:0:
371,0,104569,5,10,0:2:0:0:
256,192,104712,1,2,3:0:0:0:
90,0,104855,6,0,P|112:56|110:114,1,110.000003356934,2|2,0:3|0:2,0:0:0:0:
96,137,105069,2,0,P|74:187|73:241,1,110.000003356934,2|0,0:2|0:0,0:0:0:0:
83,269,105284,1,2,3:2:0:0:
254,380,105427,5,2,0:2:0:0:
365,209,105569,1,2,3:2:0:0:
83,269,105712,1,10,0:2:0:0:
194,98,105854,1,2,3:2:0:0:
275,341,105998,5,2,0:2:0:0:
171,135,106141,1,2,3:2:0:0:
326,186,106284,1,2,3:2:0:0:
120,290,106427,1,10,0:2:0:0:
320,346,106569,5,14,0:2:0:0:
300,276,106664,1,2,0:2:0:0:
325,209,106759,1,2,0:2:0:0:
385,169,106855,1,10,0:2:0:0:
449,139,106950,1,2,0:2:0:0:
470,71,107045,1,2,0:2:0:0:
432,11,107140,1,10,0:2:0:0:
362,0,107235,1,2,0:2:0:0:
307,40,107331,1,2,0:2:0:0:
265,99,107426,1,10,2:2:0:0:
192,105,107521,1,2,2:2:0:0:
127,74,107616,1,2,2:2:0:0:
86,13,107711,5,10,2:2:0:0:
70,87,107807,1,2,2:2:0:0:
56,158,107902,1,2,2:2:0:0:
44,231,107997,1,10,2:2:0:0:
30,303,108092,1,2,2:2:0:0:
20,374,108188,1,2,2:2:0:0:
70,316,108284,5,10,0:3:0:0:
124,264,108378,1,2,0:3:0:0:
197,239,108473,1,2,0:3:0:0:
274,235,108568,1,10,0:3:0:0:
347,258,108664,1,2,0:3:0:0:
410,300,108759,1,2,0:3:0:0:
452,363,108855,6,0,L|470:213,1,110.000003356934,6|8,0:2|3:2,0:0:0:0:
488,69,109141,1,8,0:2:0:0:
314,297,109284,6,0,L|305:145,1,110.000003356934,2|8,3:2|0:2,0:0:0:0:
297,0,109569,1,8,3:2:0:0:
160,277,109712,6,0,L|100:138,1,110.000003356934,10|2,0:2|3:2,0:0:0:0:
12,0,109998,5,2,3:2:0:0:
45,72,110093,1,2,3:2:0:0:
34,155,110188,1,2,3:2:0:0:
6,231,110284,1,10,3:2:0:0:
20,310,110379,1,10,3:2:0:0:
75,368,110474,1,10,3:2:0:0:
155,374,110569,5,10,3:2:0:0:
306,130,110784,1,10,3:2:0:0:
435,384,110998,1,10,3:2:0:0:
159,208,111141,5,6,3:2:0:0:
256,192,111212,12,0,113427,0:0:0:0:
256,335,118569,6,0,L|255:406,1,50,2|0,3:3|0:0,0:0:0:0:
0,209,118998,5,0,3:0:0:0:
0,209,119069,1,0,3:0:0:0:
0,209,119140,1,8,3:2:0:0:
219,106,119283,1,4,3:0:0:0:
160,267,119426,1,2,3:2:0:0:
58,48,119569,1,2,3:2:0:0:
50,317,119712,5,2,3:0:0:0:
109,156,119855,1,0,3:0:0:0:
259,338,119998,1,2,3:0:0:0:
80,238,120140,1,8,3:2:0:0:
334,283,120284,6,0,P|377:255|405:212,1,80,14|2,0:2|0:0,0:0:0:0:
503,236,120569,2,0,P|489:186|457:146,1,80,2|2,0:3|0:0,0:0:0:0:
512,62,120855,2,0,P|460:59|412:77,1,80,10|2,0:0|0:0,0:0:0:0:
349,0,121141,2,0,P|330:47|333:99,1,80,2|2,0:3|3:0,0:0:0:0:
239,136,121427,6,0,P|278:168|328:181,1,80,10|10,0:0|3:2,0:0:0:0:
409,143,121712,2,0,P|390:190|393:242,1,80,2|2,0:3|0:0,0:0:0:0:
454,306,121998,2,0,P|402:303|354:321,1,80,10|2,0:0|3:2,0:0:0:0:
304,384,122284,2,0,P|290:334|258:294,1,80,2|2,0:3|3:2,0:0:0:0:
95,141,122569,6,0,P|124:113|157:91,1,80,6|2,3:2|3:2,0:0:0:0:
250,0,122855,2,0,P|277:29|299:62,1,80,2|2,0:3|3:2,0:0:0:0:
391,155,123141,2,0,P|361:182|328:204,1,80,10|2,0:2|3:2,0:0:0:0:
236,296,123427,2,0,P|208:266|186:233,1,80,2|2,0:3|3:0,0:0:0:0:
184,179,123640,5,0,3:0:0:0:
184,179,123712,2,0,P|201:143|213:104,1,80,10|10,0:2|0:2,0:0:0:0:
81,25,123998,2,0,P|41:27|2:36,1,80,2|2,0:0|0:0,0:0:0:0:
0,192,124284,2,0,P|22:225|49:254,1,80,10|2,0:2|3:2,0:0:0:0:
184,179,124569,2,0,P|201:143|213:104,1,80,2|2,0:0|3:2,0:0:0:0:
458,354,124855,6,0,P|409:338|371:303,1,80,6|2,3:2|3:2,0:0:0:0:
371,86,125141,2,0,P|401:127|411:177,1,80,2|2,0:0|3:2,0:0:0:0:
283,354,125427,2,0,P|283:302|303:255,1,80,10|2,0:0|3:2,0:0:0:0:
512,188,125712,1,2,0:0:0:0:
228,187,125855,5,2,3:0:0:0:
228,187,125927,1,0,3:0:0:0:
228,187,125998,2,0,P|276:171|327:176,1,80,10|10,3:2|3:2,0:0:0:0:
458,354,126284,2,0,P|409:338|371:303,1,80,2|0,0:0|0:0,0:0:0:0:
371,86,126569,2,0,P|401:127|411:177,1,80,8|2,0:0|3:2,0:0:0:0:
283,354,126855,2,0,P|283:302|303:255,1,80,2|2,0:3|3:2,0:0:0:0:
342,232,127069,5,0,0:0:0:0:
342,232,127141,1,12,0:2:0:0:
158,61,127284,1,2,3:2:0:0:
164,238,127427,1,8,0:2:0:0:
335,54,127570,1,2,3:2:0:0:
365,195,127712,5,8,0:2:0:0:
134,97,127855,1,2,3:2:0:0:
201,262,127998,1,8,0:2:0:0:
298,30,128141,1,2,0:2:0:0:
298,30,128212,1,0,0:0:0:0:
298,30,128284,2,0,L|415:40,1,100,6|0,0:2|3:0,0:0:0:0:
364,278,128569,6,0,P|341:355|297:399,1,110.000003356934,2|0,0:2|0:0,0:0:0:0:
182,42,128855,2,0,P|260:23|320:39,1,119.999996337891,2|0,0:2|0:0,0:0:0:0:
69,317,129141,2,0,P|13:258|-2:198,1,129.999994049073,2|0,0:2|0:0,0:0:0:0:
470,1,129427,6,0,L|449:240,1,225.000008583069,6|0,0:2|0:0,0:0:0:0:
440,308,129712,5,8,0:2:0:0:
119,251,129855,1,2,3:2:0:0:
296,188,129998,1,2,0:3:0:0:
263,371,130141,1,2,3:2:0:0:
79,101,130284,1,8,0:2:0:0:
332,118,130427,1,2,3:2:0:0:
119,251,130569,1,2,0:3:0:0:
212,17,130712,1,0,3:2:0:0:
446,121,130855,6,0,P|400:59|332:25,1,150.000005722046,10|0,0:2|3:2,0:0:0:0:
367,345,131141,2,0,P|441:336|505:294,1,150.000005722046,2|0,0:0|3:2,0:0:0:0:
211,165,131427,2,0,P|180:234|183:309,1,150.000005722046,10|0,0:2|0:2,0:0:0:0:
337,27,131712,6,0,L|103:7,1,225.000008583069,2|0,0:0|0:0,0:0:0:0:
46,0,131998,5,8,0:2:0:0:
121,244,132141,1,2,3:2:0:0:
166,102,132284,1,2,0:3:0:0:
166,384,132427,1,2,3:2:0:0:
0,156,132569,1,8,0:2:0:0:
268,242,132712,2,0,P|358:254|451:239,1,150.000005722046,2|2,3:2|0:3,0:0:0:0:
337,27,132998,5,0,3:0:0:0:
268,242,133141,6,0,P|187:303|99:312,1,150.000005722046,10|0,0:2|3:0,0:0:0:0:
143,9,133427,2,0,P|236:48|288:120,1,150.000005722046,2|0,0:0|3:0,0:0:0:0:
3,233,133712,2,0,P|-9:132|26:51,1,150.000005722046,10|0,0:2|0:0,0:0:0:0:
456,384,133998,6,0,L|435:143,1,225.000008583069,6|0,0:0|0:0,0:0:0:0:
431,115,134284,5,8,0:0:0:0:
194,237,134427,1,2,3:2:0:0:
316,0,134569,1,2,0:3:0:0:
358,263,134712,1,2,3:2:0:0:
169,74,134855,1,8,0:2:0:0:
99,345,134998,2,0,P|173:338|238:293,1,150.000005722046,2|2,3:2|0:3,0:0:0:0:
316,112,135284,1,2,3:2:0:0:
434,284,135427,6,0,P|502:188|530:126,1,139.999995727539,10|0,0:2|3:0,0:0:0:0:
228,264,135712,2,0,P|324:332|386:360,1,139.999995727539,2|0,0:0|3:0,0:0:0:0:
248,58,135998,2,0,P|180:154|152:216,1,139.999995727539,10|0,0:0|0:0,0:0:0:0:
454,78,136284,2,0,P|358:10|296:-18,1,139.999995727539,2|0,0:0|0:0,0:0:0:0:
265,379,136569,5,8,0:2:0:0:
169,173,136712,2,0,P|97:119|34:102,1,139.999995727539,2|2,3:2|0:3,0:0:0:0:
230,268,136998,5,2,3:2:0:0:
320,52,137141,1,8,0:2:0:0:
398,276,137284,2,0,P|457:331|525:350,1,139.999995727539,2|2,3:2|0:3,0:0:0:0:
230,268,137569,1,0,3:0:0:0:
248,58,137712,6,0,P|338:52|403:79,1,139.999995727539,10|0,0:2|3:0,0:0:0:0:
144,140,137998,2,0,P|92:64|83:-5,1,139.999995727539,2|0,0:0|3:0,0:0:0:0:
268,190,138284,2,0,P|227:270|171:314,1,139.999995727539,10|0,0:2|0:0,0:0:0:0:
84,18,138569,6,0,L|307:37,1,209.999993591309,6|0,0:0|0:0,0:0:0:0:
357,42,138855,5,8,0:2:0:0:
387,233,138998,2,0,P|438:319|510:356,1,139.999995727539,2|2,3:2|0:3,0:0:0:0:
284,140,139284,5,2,3:0:0:0:
238,353,139427,1,8,0:2:0:0:
118,179,139569,2,0,P|59:130|-2:112,1,139.999995727539,2|2,3:2|0:3,0:0:0:0:
238,353,139855,1,0,3:0:0:0:
438,226,139998,6,0,P|495:142|515:68,1,139.999995727539,10|0,0:2|3:0,0:0:0:0:
304,264,140284,2,0,P|348:355|402:409,1,139.999995727539,2|0,0:0|3:0,0:0:0:0:
338,128,140569,2,0,P|236:120|162:140,1,139.999995727539,10|0,0:2|0:0,0:0:0:0:
22,384,140855,6,0,L|42:144,1,209.999993591309,6|0,0:2|0:0,0:0:0:0:
44,118,141141,5,8,0:2:0:0:
113,318,141284,1,2,3:2:0:0:
183,102,141427,2,0,P|263:71|327:74,1,139.999995727539,2|2,0:3|3:2,0:0:0:0:
512,352,141712,5,8,0:2:0:0:
443,152,141855,1,2,3:2:0:0:
357,343,141998,2,0,P|277:374|213:371,1,139.999995727539,6|2,0:2|3:0,0:0:0:0:
143,308,142284,5,8,0:2:0:0:
348,139,142427,2,0,P|313:217|265:260,1,139.999995727539,2|2,3:0|0:3,0:0:0:0:
125,1,142712,2,0,P|175:70|188:133,1,139.999995727539,2|8,3:0|0:2,0:0:0:0:
154,295,142998,5,2,0:0:0:0:
154,295,143069,1,2,0:0:0:0:
154,295,143141,2,0,L|147:374,1,69.9999978637696,6|2,0:0|0:0,0:0:0:0:
360,293,143284,5,2,0:0:0:0:
360,293,143355,1,2,0:0:0:0:
360,293,143427,2,0,L|439:299,1,69.9999978637696,6|2,0:0|0:0,0:0:0:0:
357,87,143569,5,2,0:0:0:0:
357,87,143640,1,2,0:0:0:0:
357,87,143712,2,0,L|363:7,1,69.9999978637696,6|2,0:0|0:0,0:0:0:0:
151,89,143855,5,2,0:0:0:0:
151,89,143926,1,2,0:0:0:0:
151,89,143998,2,0,L|71:82,1,69.9999978637696,6|2,0:0|0:0,0:0:0:0:
379,190,144141,5,2,0:0:0:0:
379,190,144212,1,2,0:0:0:0:
379,190,144284,2,0,L|435:145,1,69.9999978637696,10|2,0:0|0:0,0:0:0:0:
132,192,144427,5,2,0:0:0:0:
132,192,144498,1,2,0:0:0:0:
132,192,144570,2,0,L|74:237,1,69.9999978637696,10|2,0:0|0:0,0:0:0:0:
255,68,144712,5,2,0:0:0:0:
255,68,144783,1,2,0:0:0:0:
255,69,144855,2,0,L|211:14,1,69.9999978637696,10|2,0:0|0:0,0:0:0:0:
256,314,144998,5,2,0:0:0:0:
256,314,145069,1,2,0:0:0:0:
256,314,145141,2,0,L|301:370,1,69.9999978637696,10|2,0:0|0:0,0:0:0:0:
255,69,145284,6,0,L|211:14,1,69.9999978637696,2|2,0:0|0:0,0:0:0:0:
237,234,145427,5,6,0:2:0:0:
225,153,145522,1,2,0:2:0:0:
302,184,145617,1,2,0:2:0:0:
228,227,145712,5,2,0:2:0:0:
238,149,145807,1,2,0:2:0:0:
299,197,145902,1,2,0:2:0:0:
221,217,145998,5,2,0:2:0:0:
249,149,146093,1,2,0:2:0:0:
295,207,146188,1,2,0:2:0:0:
220,206,146284,5,6,0:2:0:0:
259,153,146379,1,2,0:2:0:0:
285,214,146474,1,2,0:2:0:0:
225,195,146569,5,2,0:2:0:0:
266,163,146664,1,2,0:2:0:0:
274,215,146759,1,2,0:2:0:0:
256,192,146855,6,0,P|284:263|340:315,1,155.000001182556,2|0,0:2|0:0,0:0:0:0:
359,30,147141,2,0,P|283:19|203:45,1,160,6|0,0:2|0:0,0:0:0:0:
448,199,147427,2,0,P|495:138|512:51,1,165.000001573563,2|0,0:2|0:0,0:0:0:0:
0,384,147712,6,0,L|22:128,1,255.000004863739,6|0,0:2|0:0,0:0:0:0:
28,62,147998,5,10,3:2:0:0:
246,88,148141,1,2,0:2:0:0:
114,263,148284,1,2,3:3:0:0:
144,12,148427,1,2,0:2:0:0:
230,213,148569,1,10,3:2:0:0:
361,38,148712,1,2,0:2:0:0:
332,290,148855,1,2,3:3:0:0:
129,137,148998,1,0,0:0:0:0:
361,38,149141,6,0,P|455:134|462:213,1,170.000003242493,10|0,3:2|0:0,0:0:0:0:
122,213,149427,2,0,P|158:83|223:38,1,170.000003242493,2|0,3:2|0:0,0:0:0:0:
394,333,149712,2,0,P|263:366|191:332,1,170.000003242493,10|0,3:2|0:0,0:0:0:0:
413,0,149998,2,0,P|501:100|517:178,1,170.000003242493,2|0,3:2|0:0,0:0:0:0:
187,233,150284,5,10,3:2:0:0:
345,232,150427,1,2,0:2:0:0:
236,81,150569,5,2,3:2:0:0:
58,326,150712,1,2,0:2:0:0:
345,232,150855,1,10,3:2:0:0:
58,139,150998,1,2,0:2:0:0:
236,384,151141,2,0,L|411:368,1,170.000003242493,2|0,3:0|0:0,0:0:0:0:
140,0,151427,6,0,P|67:96|64:211,1,170.000003242493,10|0,3:2|0:0,0:0:0:0:
401,242,151712,2,0,P|352:130|254:71,1,170.000003242493,2|0,3:2|0:0,0:0:0:0:
60,347,151998,2,0,P|179:361|280:305,1,170.000003242493,10|0,3:2|0:0,0:0:0:0:
512,0,152284,6,0,L|489:255,1,255.000004863739,6|0,0:2|0:0,0:0:0:0:
477,354,152569,5,10,3:2:0:0:
392,135,152712,1,2,0:0:0:0:
173,220,152855,1,2,3:0:0:0:
325,287,152998,1,2,0:0:0:0:
156,55,153141,1,10,3:2:0:0:
40,318,153284,1,2,0:0:0:0:
307,122,153427,1,2,3:3:0:0:
191,384,153569,1,0,0:0:0:0:
308,44,153712,6,0,P|194:-2|123:7,1,170.000003242493,10|0,3:2|0:0,0:0:0:0:
466,159,153998,2,0,P|512:45|503:-26,1,170.000003242493,2|0,3:2|0:0,0:0:0:0:
351,317,154284,2,0,P|465:363|536:354,1,170.000003242493,10|0,3:2|0:0,0:0:0:0:
193,202,154569,2,0,P|147:316|156:387,1,170.000003242493,2|0,3:2|0:0,0:0:0:0:
282,0,154855,5,10,3:2:0:0:
512,49,154998,1,2,0:0:0:0:
463,280,155141,1,2,3:0:0:0:
372,139,155284,1,2,0:0:0:0:
133,245,155427,1,10,3:2:0:0:
389,300,155570,1,2,0:0:0:0:
214,106,155712,1,2,3:0:0:0:
242,366,155854,1,0,0:0:0:0:
6,253,155998,6,0,P|127:348|204:357,1,170.000003242493,10|0,3:2|0:0,0:0:0:0:
254,22,156284,2,0,P|111:79|64:141,1,170.000003242493,2|0,3:2|0:0,0:0:0:0:
328,351,156569,2,0,P|349:198|319:127,1,170.000003242493,10|0,3:2|0:0,0:0:0:0:
0,0,156855,6,0,L|270:23,1,255.000004863739,6|0,3:2|0:0,0:0:0:0:
335,30,157141,5,8,0:2:0:0:
165,263,157284,1,2,3:2:0:0:
439,174,157427,1,2,0:3:0:0:
165,85,157569,1,2,3:2:0:0:
335,319,157712,1,8,0:2:0:0:
165,85,157855,1,2,0:2:0:0:
439,174,157998,2,0,L|455:-17,1,170.000003242493,4|0,3:2|0:0,0:0:0:0:
6,49,158284,6,0,P|144:128|271:32,1,255.000004863739,10|0,0:2|0:0,0:0:0:0:
305,9,158569,2,0,P|165:89|185:245,1,255.000004863739,2|0,0:0|0:0,0:0:0:0:
189,287,158855,2,0,P|188:125|43:64,1,255.000004863739,10|0,0:2|0:0,0:0:0:0:
0,17,159141,5,6,0:2:0:0:
2,59,159212,1,0,0:0:0:0:
5,101,159284,1,0,0:0:0:0:
5,143,159355,1,0,0:0:0:0:
7,185,159427,1,8,0:0:0:0:
8,227,159498,1,0,0:0:0:0:
10,269,159569,1,0,0:0:0:0:
13,311,159640,1,0,0:0:0:0:
16,361,159711,5,2,0:2:0:0:
67,329,159783,1,0,0:0:0:0:
122,307,159854,1,0,0:0:0:0:
182,311,159927,1,0,0:0:0:0:
237,331,159998,1,8,0:0:0:0:
292,351,160069,1,0,0:0:0:0:
351,346,160141,1,0,0:0:0:0:
395,307,160212,1,0,0:0:0:0:
393,247,160284,5,12,0:2:0:0:
346,209,160355,1,0,0:0:0:0:
339,149,160427,1,2,0:2:0:0:
376,103,160498,1,0,3:0:0:0:
434,92,160569,1,8,3:2:0:0:
484,123,160641,1,0,3:0:0:0:
498,180,160712,1,10,3:2:0:0:
471,233,160784,1,0,3:0:0:0:
406,252,160855,1,0,3:0:0:0:
347,214,160927,1,0,3:0:0:0:
322,151,160998,1,8,3:2:0:0:
304,85,161069,1,0,3:0:0:0:
256,36,161141,1,4,3:3:0:0:
188,29,161212,1,4,3:3:0:0:
125,56,161284,1,4,3:3:0:0:
100,118,161355,1,4,3:3:0:0:
104,186,161427,6,0,L|119:361,1,170.000003242493,6|0,0:2|0:0,0:0:0:0:
453,248,161712,5,8,0:2:0:0:
310,0,161855,1,0,3:0:0:0:
506,52,161998,1,2,0:3:0:0:
258,196,162141,1,0,3:0:0:0:
382,124,162284,1,8,0:2:0:0:
0,29,162427,5,2,3:2:0:0:
0,29,162498,1,2,0:2:0:0:
0,29,162569,2,0,P|19:85|64:123,1,119.999996337891,2|0,0:2|3:0,0:0:0:0:
193,3,162855,1,8,0:2:0:0:
184,274,162998,2,0,P|222:228|233:170,1,119.999996337891,2|2,3:2|0:3,0:0:0:0:
64,123,163284,5,2,3:2:0:0:
233,170,163427,1,10,0:2:0:0:
193,3,163569,1,2,0:2:0:0:
400,247,163712,5,2,0:2:0:0:
355,113,163855,1,0,0:0:0:0:
356,380,163998,1,8,0:2:0:0:
512,164,164141,1,0,3:0:0:0:
259,246,164284,1,2,0:3:0:0:
512,329,164427,1,0,3:0:0:0:
400,247,164569,1,8,0:2:0:0:
14,353,164712,5,2,3:2:0:0:
14,353,164783,1,2,0:2:0:0:
14,353,164855,2,0,P|0:295|15:238,1,119.999996337891,2|0,0:2|3:0,0:0:0:0:
219,262,165141,1,10,0:2:0:0:
39,16,165284,2,0,P|96:31|137:74,1,119.999996337891,2|2,3:2|0:3,0:0:0:0:
15,237,165569,5,2,3:2:0:0:
137,74,165712,1,10,0:2:0:0:
219,262,165855,1,2,3:2:0:0:
0,24,165998,5,14,0:2:0:0:
31,318,166141,1,2,3:2:0:0:
194,128,166284,5,8,0:2:0:0:
162,384,166427,1,2,3:2:0:0:
318,46,166569,5,8,0:2:0:0:
350,302,166712,1,2,3:2:0:0:
512,146,166855,5,8,0:2:0:0:
414,384,166998,1,2,3:2:0:0:
414,384,167069,1,0,0:0:0:0:
414,384,167141,1,10,0:2:0:0:
256,180,167284,1,0,3:0:0:0:
84,384,167427,5,10,0:2:0:0:
119,128,167570,1,2,3:2:0:0:
391,221,167712,5,8,0:2:0:0:
135,256,167855,1,2,3:2:0:0:
512,96,167998,5,10,0:2:0:0:
236,67,168141,1,2,3:2:0:0:
430,283,168284,5,2,0:2:0:0:
80,99,168427,1,6,3:2:0:0:
444,134,168712,5,2,3:2:0:0:
66,248,168856,1,6,0:2:0:0:
209,39,169141,5,2,3:2:0:0:
300,342,169284,1,6,0:2:0:0:
328,51,169569,5,2,3:2:0:0:
181,331,169712,1,6,0:2:0:0:
14,0,169998,5,0,3:0:0:0:
55,29,170069,1,0,3:0:0:0:
78,79,170140,1,0,3:0:0:0:
71,131,170212,1,0,3:0:0:0:
39,175,170284,1,0,3:0:0:0:
5,219,170355,1,0,3:0:0:0:
0,271,170426,1,0,3:0:0:0:
20,321,170498,1,0,3:0:0:0:
77,346,170569,6,0,B|37:273|97:202|166:215|166:215|243:233|263:315|206:370|206:370|193:302|223:259|272:234|314:238|314:238|376:236|420:203|436:146|428:103|428:103|375:150|317:154|274:126|270:108|270:108|232:59|176:36|125:42|69:63|69:63|111:103|160:121|215:127|270:108|270:108|314:91|360:63|385:25|390:-13|390:-13|466:-5|513:26|528:83|528:83|554:186|487:286|417:333|331:342|331:342|395:381,1,2200,6|0,3:2|3:0,0:0:0:0:
256,192,177904,12,4,181118,0:0:0:0:
256,192,181200,12,0,186393,0:0:0:0:
