osu file format v14

[General]
AudioFilename: audio.mp3
AudioLeadIn: 0
PreviewTime: 31636
Countdown: 0
SampleSet: Normal
StackLeniency: 1
Mode: 1
LetterboxInBreaks: 0
WidescreenStoryboard: 0

[Editor]
Bookmarks: 47142,56285,74570,92856,111142
DistanceSpacing: 0.3
BeatDivisor: 4
GridSize: 32
TimelineZoom: 3.499999

[Metadata]
Title:- FALLEN -
TitleUnicode:- ΓΛLLΞИ -
Artist:Kaneko Chiharu
ArtistUnicode:かねこちはる
Creator:Vulkin
Version:Reality Shattering Nightmare: Decayment of the Kingdom
Source:
Tags:LΞGΞNDARY LEGENDARY Episode.1 VALLEYSTONE BAD FENNEC RECORDS Electronic Rock Instrumental
BeatmapID:1853999
BeatmapSetID:886833

[Difficulty]
HPDrainRate:6
CircleSize:5
OverallDifficulty:7
ApproachRate:10
SliderMultiplier:1.4
SliderTickRate:1

[Events]
//Background and Video events
0,0,"62498318_p4.jpg",0,0
//Break Periods
2,111342,118120
//Storyboard Layer 0 (Background)
//Storyboard Layer 1 (Fail)
//Storyboard Layer 2 (Pass)
//Storyboard Layer 3 (Foreground)
//Storyboard Layer 4 (Overlay)
//Storyboard Sound Samples

[TimingPoints]
1973,337.078651685393,4,1,0,60,1,0
1973,-98.8888888888889,4,1,0,60,0,0
4669,326.086956521739,4,1,0,60,1,0
4669,-102.222222222222,4,1,0,60,0,0
5973,319.148936170213,4,1,0,60,1,0
5973,-104.444444444444,4,1,0,60,0,0
7249,333.333333333333,4,1,0,60,1,0
7249,-100,4,1,0,60,0,0
9248,383.386581469649,4,1,0,60,1,8
9248,-86.9444444444443,4,1,0,60,0,8
10014,323.450134770889,4,1,0,60,1,0
10014,-103.055555555556,4,1,0,60,0,0
11307,309.278350515464,4,1,0,60,1,0
11307,-107.777777777778,4,1,0,60,0,0
12544,327.868852459016,4,1,0,60,1,0
12544,-101.666666666667,4,1,0,60,0,0
16478,334.261838440111,4,1,0,60,1,0
16478,-99.7222222222223,4,1,0,60,0,0
17815,327.868852459016,4,1,0,60,1,0
17815,-101.666666666667,4,1,0,60,0,0
21749,342.857142857143,4,1,0,60,1,0
21749,-97.2222222222222,4,1,0,60,0,0
22263,304.568527918782,4,1,0,60,1,8
22263,-109.444444444444,4,1,0,60,0,8
22567,338.983050847458,4,1,0,60,1,8
22567,-98.3333333333332,4,1,0,60,0,8
23075,329.67032967033,4,1,0,60,1,0
23075,-101.111111111111,4,1,0,60,0,0
30327,335.195530726257,4,1,0,60,1,8
30327,-99.4444444444444,4,1,0,60,0,0
30662,301.507537688442,4,1,0,60,1,8
30662,-110.555555555556,4,1,0,60,0,0
30963,337.078651685393,4,1,0,60,1,0
30963,-98.8888888888889,4,1,0,60,0,0
31637,582.52427184466,4,1,0,60,1,0
31637,-57.2222222222222,4,1,0,60,0,0
32219,609.137055837563,4,1,0,60,1,8
32219,-54.7222222222223,4,1,0,60,0,0
32828,600,4,1,0,60,1,8
32828,-55.5555555555556,4,1,0,60,0,0
33428,285.714285714286,4,1,0,80,1,0
129428,-100,4,1,0,80,0,1
170570,329.67032967033,4,1,0,80,1,0
170570,-86.6671288913541,4,1,0,80,0,0

[HitObjects]
256,192,1973,5,12,0:0:0:0:
256,192,3321,1,0,0:0:0:0:
256,192,4669,1,0,0:0:0:0:
256,192,5973,1,0,0:0:0:0:
256,192,7249,1,8,0:0:0:0:
256,192,7582,12,0,11332,0:0:0:0:
256,192,12544,5,4,0:0:0:0:
256,192,13035,1,8,0:0:0:0:
256,192,13855,1,8,0:0:0:0:
256,192,14511,1,8,0:0:0:0:
256,192,15166,1,0,0:0:0:0:
256,192,15658,1,8,0:0:0:0:
256,192,16478,1,8,0:0:0:0:
256,192,16812,1,8,0:0:0:0:
256,192,17146,1,8,0:0:0:0:
256,192,17815,1,0,0:0:0:0:
256,192,18306,1,8,0:0:0:0:
256,192,19126,1,8,0:0:0:0:
256,192,19782,1,8,0:0:0:0:
256,192,20437,1,0,0:0:0:0:
256,192,20601,1,8,0:0:0:0:
256,192,20929,1,0,0:0:0:0:
256,192,21093,1,0,0:0:0:0:
256,192,21257,1,8,0:0:0:0:
256,192,21585,1,0,0:0:0:0:
256,192,21749,1,0,0:0:0:0:
256,192,21920,1,8,0:0:0:0:
256,192,22263,1,0,0:0:0:0:
256,192,22415,1,8,0:0:0:0:
256,192,22567,1,0,0:0:0:0:
256,192,22651,1,0,0:0:0:0:
256,192,22736,1,8,0:0:0:0:
256,192,23075,1,4,0:0:0:0:
256,192,23239,1,0,0:0:0:0:
256,192,23569,1,0,0:0:0:0:
256,192,23899,1,0,0:0:0:0:
256,192,24228,1,0,0:0:0:0:
256,192,24558,1,0,0:0:0:0:
256,192,24888,1,8,0:0:0:0:
256,192,25053,1,0,0:0:0:0:
256,192,25217,1,0,0:0:0:0:
256,192,25300,1,0,0:0:0:0:
256,192,25382,1,8,0:0:0:0:
256,192,25712,1,4,0:0:0:0:
256,192,25877,1,0,0:0:0:0:
256,192,26206,1,0,0:0:0:0:
256,192,26536,1,0,0:0:0:0:
256,192,26866,1,0,0:0:0:0:
256,192,27195,1,0,0:0:0:0:
256,192,27525,1,8,0:0:0:0:
256,192,27690,1,0,0:0:0:0:
256,192,27855,1,0,0:0:0:0:
256,192,27937,1,0,0:0:0:0:
256,192,28020,1,8,0:0:0:0:
256,192,28184,1,0,0:0:0:0:
256,192,28349,1,4,0:0:0:0:
256,192,28514,1,0,0:0:0:0:
256,192,28679,1,8,0:0:0:0:
256,192,28761,1,8,0:0:0:0:
256,192,28844,1,0,0:0:0:0:
256,192,29009,1,0,0:0:0:0:
256,192,29173,1,8,0:0:0:0:
256,192,29338,1,0,0:0:0:0:
256,192,29503,1,8,0:0:0:0:
256,192,29833,1,8,0:0:0:0:
256,192,29998,1,0,0:0:0:0:
256,192,30162,1,8,0:0:0:0:
256,192,30245,1,8,0:0:0:0:
256,192,30327,1,8,0:0:0:0:
256,192,30494,1,8,0:0:0:0:
256,192,30662,1,0,0:0:0:0:
256,192,30963,1,12,0:0:0:0:
256,192,31637,12,0,32828,0:0:0:0:
256,192,33428,5,4,0:0:0:0:
256,192,33713,1,8,0:0:0:0:
256,192,33856,1,0,0:0:0:0:
256,192,33928,1,0,0:0:0:0:
256,192,33999,1,0,0:0:0:0:
256,192,34142,1,0,0:0:0:0:
256,192,34285,1,8,0:0:0:0:
256,192,34428,1,0,0:0:0:0:
256,192,34499,1,8,0:0:0:0:
256,192,34570,1,0,0:0:0:0:
256,192,34713,1,0,0:0:0:0:
256,192,34856,1,8,0:0:0:0:
256,192,34999,1,0,0:0:0:0:
256,192,35070,1,0,0:0:0:0:
256,192,35142,1,8,0:0:0:0:
256,192,35285,1,0,0:0:0:0:
256,192,35428,1,8,0:0:0:0:
256,192,35570,1,8,0:0:0:0:
256,192,35713,1,0,0:0:0:0:
256,192,35999,1,8,0:0:0:0:
256,192,36142,1,0,0:0:0:0:
256,192,36213,1,0,0:0:0:0:
256,192,36285,1,8,0:0:0:0:
256,192,36320,1,8,0:0:0:0:
256,192,36428,1,8,0:0:0:0:
256,192,36463,1,8,0:0:0:0:
256,192,36570,1,0,0:0:0:0:
256,192,36606,1,0,0:0:0:0:
256,192,36713,1,8,0:0:0:0:
256,192,36749,1,8,0:0:0:0:
256,192,36856,1,0,0:0:0:0:
256,192,36999,1,0,0:0:0:0:
256,192,37070,1,0,0:0:0:0:
256,192,37142,1,8,0:0:0:0:
256,192,37285,1,0,0:0:0:0:
256,192,37428,1,8,0:0:0:0:
256,192,37499,1,8,0:0:0:0:
256,192,37570,1,0,0:0:0:0:
256,192,37713,1,8,0:0:0:0:
256,192,37856,1,8,0:0:0:0:
256,192,37999,1,4,0:0:0:0:
256,192,38285,1,8,0:0:0:0:
256,192,38428,1,0,0:0:0:0:
256,192,38499,1,0,0:0:0:0:
256,192,38570,1,0,0:0:0:0:
256,192,38713,1,0,0:0:0:0:
256,192,38856,1,8,0:0:0:0:
256,192,38999,1,0,0:0:0:0:
256,192,39070,1,8,0:0:0:0:
256,192,39142,1,0,0:0:0:0:
256,192,39285,1,0,0:0:0:0:
256,192,39428,1,8,0:0:0:0:
256,192,39499,1,8,0:0:0:0:
256,192,39570,1,0,0:0:0:0:
256,192,39713,1,8,0:0:0:0:
256,192,39856,1,0,0:0:0:0:
256,192,39928,1,8,0:0:0:0:
256,192,39999,1,8,0:0:0:0:
256,192,40142,1,8,0:0:0:0:
256,192,40285,1,0,0:0:0:0:
256,192,40570,1,8,0:0:0:0:
256,192,40713,1,0,0:0:0:0:
256,192,40785,1,0,0:0:0:0:
256,192,40856,1,0,0:0:0:0:
256,192,40999,1,0,0:0:0:0:
256,192,41142,1,8,0:0:0:0:
256,192,41285,1,0,0:0:0:0:
256,192,41356,1,8,0:0:0:0:
256,192,41428,1,0,0:0:0:0:
256,192,41570,1,0,0:0:0:0:
256,192,41713,1,8,0:0:0:0:
256,192,41785,1,0,0:0:0:0:
256,192,41856,1,0,0:0:0:0:
256,192,41999,1,8,0:0:0:0:
256,192,42142,1,0,0:0:0:0:
256,192,42213,1,0,0:0:0:0:
256,192,42285,1,8,0:0:0:0:
256,192,42428,1,8,0:0:0:0:
256,192,42570,1,4,0:0:0:0:
256,192,42856,1,8,0:0:0:0:
256,192,42999,1,0,0:0:0:0:
256,192,43070,1,8,0:0:0:0:
256,192,43142,1,0,0:0:0:0:
256,192,43285,1,0,0:0:0:0:
256,192,43428,1,8,0:0:0:0:
256,192,43570,1,8,0:0:0:0:
256,192,43642,1,8,0:0:0:0:
256,192,43713,1,0,0:0:0:0:
256,192,43856,1,0,0:0:0:0:
256,192,43999,1,8,0:0:0:0:
256,192,44142,1,0,0:0:0:0:
256,192,44213,1,0,0:0:0:0:
256,192,44285,1,8,0:0:0:0:
256,192,44428,1,0,0:0:0:0:
256,192,44570,1,8,0:0:0:0:
256,192,44713,1,8,0:0:0:0:
256,192,44856,1,4,0:0:0:0:
256,192,45047,1,8,0:0:0:0:
256,192,45142,1,8,0:0:0:0:
256,192,45237,1,0,0:0:0:0:
256,192,45332,1,0,0:0:0:0:
256,192,45428,1,8,0:0:0:0:
256,192,45523,1,0,0:0:0:0:
256,192,45618,1,8,0:0:0:0:
256,192,45713,1,8,0:0:0:0:
256,192,45808,1,0,0:0:0:0:
256,192,45904,1,0,0:0:0:0:
256,192,45999,1,8,0:0:0:0:
256,192,46070,1,8,0:0:0:0:
256,192,46142,1,0,0:0:0:0:
256,192,46213,1,0,0:0:0:0:
256,192,46285,1,8,0:0:0:0:
256,192,46356,1,0,0:0:0:0:
256,192,46428,1,8,0:0:0:0:
256,192,46499,1,8,0:0:0:0:
256,192,46570,1,0,0:0:0:0:
256,192,46642,1,0,0:0:0:0:
256,192,46713,1,8,0:0:0:0:
256,192,46785,1,8,0:0:0:0:
256,192,46856,1,0,0:0:0:0:
256,192,46928,1,0,0:0:0:0:
256,192,46999,1,0,0:0:0:0:
256,192,47070,1,0,0:0:0:0:
256,192,47142,1,12,0:0:0:0:
256,192,47428,1,8,0:0:0:0:
256,192,47570,1,0,0:0:0:0:
256,192,47713,1,8,0:0:0:0:
256,192,47999,1,8,0:0:0:0:
256,192,48142,1,0,0:0:0:0:
256,192,48285,1,8,0:0:0:0:
256,192,48570,1,8,0:0:0:0:
256,192,48713,1,0,0:0:0:0:
256,192,48856,1,8,0:0:0:0:
256,192,48999,1,0,0:0:0:0:
256,192,49142,1,8,0:0:0:0:
256,192,49428,1,0,0:0:0:0:
256,192,49713,1,8,0:0:0:0:
256,192,49856,1,0,0:0:0:0:
256,192,49999,1,8,0:0:0:0:
256,192,50285,1,8,0:0:0:0:
256,192,50428,1,0,0:0:0:0:
256,192,50570,1,8,0:0:0:0:
256,192,50713,1,8,0:0:0:0:
256,192,50856,1,0,0:0:0:0:
256,192,51142,1,8,0:0:0:0:
256,192,51285,1,0,0:0:0:0:
256,192,51356,1,0,0:0:0:0:
256,192,51428,1,8,0:0:0:0:
256,192,51570,1,8,0:0:0:0:
256,192,51713,1,4,0:0:0:0:
256,192,51856,1,8,0:0:0:0:
256,192,51999,1,8,0:0:0:0:
256,192,52285,1,8,0:0:0:0:
256,192,52428,1,0,0:0:0:0:
256,192,52570,1,8,0:0:0:0:
256,192,52856,1,8,0:0:0:0:
256,192,52999,1,0,0:0:0:0:
256,192,53142,1,8,0:0:0:0:
256,192,53285,1,8,0:0:0:0:
256,192,53428,1,0,0:0:0:0:
256,192,53570,1,8,0:0:0:0:
256,192,53713,1,0,0:0:0:0:
256,192,53999,1,8,0:0:0:0:
256,192,54142,1,8,0:0:0:0:
256,192,54213,1,8,0:0:0:0:
256,192,54285,1,0,0:0:0:0:
256,192,54428,1,8,0:0:0:0:
256,192,54570,1,0,0:0:0:0:
256,192,54642,1,8,0:0:0:0:
256,192,54713,1,0,0:0:0:0:
256,192,54856,1,8,0:0:0:0:
256,192,54999,1,0,0:0:0:0:
256,192,55070,1,0,0:0:0:0:
256,192,55142,1,0,0:0:0:0:
256,192,55285,1,8,0:0:0:0:
256,192,55428,1,0,0:0:0:0:
256,192,55570,1,0,0:0:0:0:
256,192,55713,1,8,0:0:0:0:
256,192,55856,1,8,0:0:0:0:
256,192,55999,1,0,0:0:0:0:
256,192,56285,1,4,0:0:0:0:
256,192,56570,1,0,0:0:0:0:
256,192,56856,1,0,0:0:0:0:
256,192,57142,1,0,0:0:0:0:
256,192,57285,1,8,0:0:0:0:
256,192,57428,1,0,0:0:0:0:
256,192,57713,1,0,0:0:0:0:
256,192,57999,1,0,0:0:0:0:
256,192,58142,1,8,0:0:0:0:
256,192,58213,1,8,0:0:0:0:
256,192,58285,1,0,0:0:0:0:
256,192,58428,1,8,0:0:0:0:
256,192,58570,1,0,0:0:0:0:
256,192,58856,1,0,0:0:0:0:
256,192,59142,1,0,0:0:0:0:
256,192,59428,1,0,0:0:0:0:
256,192,59570,1,8,0:0:0:0:
256,192,59713,1,0,0:0:0:0:
256,192,59999,1,0,0:0:0:0:
256,192,60142,1,8,0:0:0:0:
256,192,60285,1,0,0:0:0:0:
256,192,60428,1,0,0:0:0:0:
256,192,60499,1,0,0:0:0:0:
256,192,60570,1,8,0:0:0:0:
256,192,60713,1,8,0:0:0:0:
256,192,60856,1,4,0:0:0:0:
256,192,61142,1,8,0:0:0:0:
256,192,61428,1,0,0:0:0:0:
256,192,61713,1,0,0:0:0:0:
256,192,61856,1,8,0:0:0:0:
256,192,61999,1,0,0:0:0:0:
256,192,62285,1,8,0:0:0:0:
256,192,62428,1,8,0:0:0:0:
256,192,62499,1,8,0:0:0:0:
256,192,62570,1,0,0:0:0:0:
256,192,62713,1,0,0:0:0:0:
256,192,62856,1,8,0:0:0:0:
256,192,62999,1,0,0:0:0:0:
256,192,63142,1,0,0:0:0:0:
256,192,63428,1,0,0:0:0:0:
256,192,63713,1,0,0:0:0:0:
256,192,63999,1,0,0:0:0:0:
256,192,64142,1,8,0:0:0:0:
256,192,64285,1,0,0:0:0:0:
256,192,64428,1,0,0:0:0:0:
256,192,64499,1,0,0:0:0:0:
256,192,64570,1,0,0:0:0:0:
256,192,64713,1,8,0:0:0:0:
256,192,64856,1,0,0:0:0:0:
256,192,64999,1,0,0:0:0:0:
256,192,65142,1,8,0:0:0:0:
256,192,65428,1,4,0:0:0:0:
256,192,65713,1,0,0:0:0:0:
256,192,65999,1,0,0:0:0:0:
256,192,66285,1,0,0:0:0:0:
256,192,66428,1,8,0:0:0:0:
256,192,66570,1,0,0:0:0:0:
256,192,66856,1,0,0:0:0:0:
256,192,67142,1,0,0:0:0:0:
256,192,67285,1,8,0:0:0:0:
256,192,67356,1,8,0:0:0:0:
256,192,67428,1,0,0:0:0:0:
256,192,67570,1,8,0:0:0:0:
256,192,67713,1,0,0:0:0:0:
256,192,67999,1,0,0:0:0:0:
256,192,68285,1,0,0:0:0:0:
256,192,68570,1,0,0:0:0:0:
256,192,68713,1,8,0:0:0:0:
256,192,68856,1,0,0:0:0:0:
256,192,68999,1,8,0:0:0:0:
256,192,69142,1,8,0:0:0:0:
256,192,69428,1,8,0:0:0:0:
256,192,69570,1,8,0:0:0:0:
256,192,69642,1,8,0:0:0:0:
256,192,69713,1,0,0:0:0:0:
256,192,69856,1,0,0:0:0:0:
256,192,69999,1,12,0:0:0:0:
256,192,70285,1,0,0:0:0:0:
256,192,70570,1,0,0:0:0:0:
256,192,70856,1,0,0:0:0:0:
256,192,70999,1,8,0:0:0:0:
256,192,71142,1,0,0:0:0:0:
256,192,71428,1,0,0:0:0:0:
256,192,71570,1,8,0:0:0:0:
256,192,71642,1,8,0:0:0:0:
256,192,71713,1,0,0:0:0:0:
256,192,71856,1,8,0:0:0:0:
256,192,71999,1,0,0:0:0:0:
256,192,72142,1,8,0:0:0:0:
256,192,72285,1,0,0:0:0:0:
256,192,72570,1,0,0:0:0:0:
256,192,72713,1,8,0:0:0:0:
256,192,72856,1,0,0:0:0:0:
256,192,72999,1,0,0:0:0:0:
256,192,73142,1,8,0:0:0:0:
256,192,73285,1,0,0:0:0:0:
256,192,73428,1,8,0:0:0:0:
256,192,73570,1,8,0:0:0:0:
256,192,73642,1,8,0:0:0:0:
256,192,73713,1,0,0:0:0:0:
256,192,73856,1,8,0:0:0:0:
256,192,73928,1,8,0:0:0:0:
256,192,73999,1,0,0:0:0:0:
256,192,74070,1,0,0:0:0:0:
256,192,74142,1,8,0:0:0:0:
256,192,74213,1,0,0:0:0:0:
256,192,74285,1,8,0:0:0:0:
256,192,74428,1,0,0:0:0:0:
256,192,74570,1,12,0:0:0:0:
256,192,74856,1,8,0:0:0:0:
256,192,74999,1,8,0:0:0:0:
256,192,75070,1,8,0:0:0:0:
256,192,75142,1,0,0:0:0:0:
256,192,75285,1,0,0:0:0:0:
256,192,75428,1,8,0:0:0:0:
256,192,75570,1,0,0:0:0:0:
256,192,75713,1,0,0:0:0:0:
256,192,75999,1,8,0:0:0:0:
256,192,76142,1,0,0:0:0:0:
256,192,76213,1,8,0:0:0:0:
256,192,76285,1,0,0:0:0:0:
256,192,76428,1,0,0:0:0:0:
256,192,76570,1,8,0:0:0:0:
256,192,76713,1,8,0:0:0:0:
256,192,76856,1,0,0:0:0:0:
256,192,77142,1,8,0:0:0:0:
256,192,77285,1,8,0:0:0:0:
256,192,77356,1,8,0:0:0:0:
256,192,77428,1,0,0:0:0:0:
256,192,77570,1,0,0:0:0:0:
256,192,77713,1,8,0:0:0:0:
256,192,77856,1,0,0:0:0:0:
256,192,77999,1,0,0:0:0:0:
256,192,78285,1,8,0:0:0:0:
256,192,78428,1,0,0:0:0:0:
256,192,78499,1,8,0:0:0:0:
256,192,78570,1,0,0:0:0:0:
256,192,78713,1,0,0:0:0:0:
256,192,78856,1,8,0:0:0:0:
256,192,78999,1,0,0:0:0:0:
256,192,79070,1,0,0:0:0:0:
256,192,79142,1,8,0:0:0:0:
256,192,79428,1,8,0:0:0:0:
256,192,79570,1,8,0:0:0:0:
256,192,79642,1,8,0:0:0:0:
256,192,79713,1,0,0:0:0:0:
256,192,79856,1,0,0:0:0:0:
256,192,79999,1,8,0:0:0:0:
256,192,80142,1,0,0:0:0:0:
256,192,80213,1,8,0:0:0:0:
256,192,80285,1,0,0:0:0:0:
256,192,80428,1,0,0:0:0:0:
256,192,80570,1,8,0:0:0:0:
256,192,80713,1,8,0:0:0:0:
256,192,80785,1,8,0:0:0:0:
256,192,80856,1,0,0:0:0:0:
256,192,80999,1,0,0:0:0:0:
256,192,81142,1,8,0:0:0:0:
256,192,81285,1,0,0:0:0:0:
256,192,81428,1,8,0:0:0:0:
256,192,81570,1,0,0:0:0:0:
256,192,81642,1,0,0:0:0:0:
256,192,81713,1,8,0:0:0:0:
256,192,81856,1,0,0:0:0:0:
256,192,81999,1,8,0:0:0:0:
256,192,82142,1,0,0:0:0:0:
256,192,82213,1,0,0:0:0:0:
256,192,82285,1,8,0:0:0:0:
256,192,82428,1,0,0:0:0:0:
256,192,82570,1,8,0:0:0:0:
256,192,82642,1,8,0:0:0:0:
256,192,82713,1,0,0:0:0:0:
256,192,82856,1,0,0:0:0:0:
256,192,82999,1,8,0:0:0:0:
256,192,83142,1,0,0:0:0:0:
256,192,83285,1,0,0:0:0:0:
256,192,83428,1,8,0:0:0:0:
256,192,83570,1,8,0:0:0:0:
256,192,83713,1,4,0:0:0:0:
256,192,83999,1,8,0:0:0:0:
256,192,84142,1,8,0:0:0:0:
256,192,84213,1,8,0:0:0:0:
256,192,84285,1,0,0:0:0:0:
256,192,84428,1,0,0:0:0:0:
256,192,84570,1,8,0:0:0:0:
256,192,84713,1,0,0:0:0:0:
256,192,84856,1,0,0:0:0:0:
256,192,85142,1,8,0:0:0:0:
256,192,85285,1,0,0:0:0:0:
256,192,85356,1,8,0:0:0:0:
256,192,85428,1,0,0:0:0:0:
256,192,85570,1,0,0:0:0:0:
256,192,85713,1,8,0:0:0:0:
256,192,85856,1,8,0:0:0:0:
256,192,85999,1,0,0:0:0:0:
256,192,86285,1,8,0:0:0:0:
256,192,86428,1,8,0:0:0:0:
256,192,86499,1,8,0:0:0:0:
256,192,86570,1,0,0:0:0:0:
256,192,86713,1,0,0:0:0:0:
256,192,86856,1,8,0:0:0:0:
256,192,86999,1,0,0:0:0:0:
256,192,87142,1,0,0:0:0:0:
256,192,87428,1,8,0:0:0:0:
256,192,87570,1,0,0:0:0:0:
256,192,87642,1,8,0:0:0:0:
256,192,87713,1,0,0:0:0:0:
256,192,87856,1,0,0:0:0:0:
256,192,87999,1,8,0:0:0:0:
256,192,88070,1,8,0:0:0:0:
256,192,88142,1,0,0:0:0:0:
256,192,88213,1,0,0:0:0:0:
256,192,88285,1,8,0:0:0:0:
256,192,88428,1,0,0:0:0:0:
256,192,88499,1,0,0:0:0:0:
256,192,88570,1,8,0:0:0:0:
256,192,88713,1,0,0:0:0:0:
256,192,88785,1,0,0:0:0:0:
256,192,88856,1,0,0:0:0:0:
256,192,88999,1,0,0:0:0:0:
256,192,89070,1,0,0:0:0:0:
256,192,89142,1,8,0:0:0:0:
256,192,89285,1,0,0:0:0:0:
256,192,89356,1,0,0:0:0:0:
256,192,89428,1,0,0:0:0:0:
256,192,89570,1,0,0:0:0:0:
256,192,89642,1,0,0:0:0:0:
256,192,89713,1,8,0:0:0:0:
256,192,89856,1,0,0:0:0:0:
256,192,89928,1,0,0:0:0:0:
256,192,89999,1,0,0:0:0:0:
256,192,90142,1,0,0:0:0:0:
256,192,90213,1,0,0:0:0:0:
256,192,90285,1,8,0:0:0:0:
256,192,90428,1,0,0:0:0:0:
256,192,90499,1,0,0:0:0:0:
256,192,90570,1,8,0:0:0:0:
256,192,90642,1,0,0:0:0:0:
256,192,90713,1,8,0:0:0:0:
256,192,90785,1,8,0:0:0:0:
256,192,90856,1,0,0:0:0:0:
256,192,90999,1,8,0:0:0:0:
256,192,91070,1,0,0:0:0:0:
256,192,91142,1,8,0:0:0:0:
256,192,91213,1,0,0:0:0:0:
256,192,91285,1,8,0:0:0:0:
256,192,91428,1,0,0:0:0:0:
256,192,91499,1,0,0:0:0:0:
256,192,91570,1,8,0:0:0:0:
256,192,91642,1,0,0:0:0:0:
256,192,91713,1,8,0:0:0:0:
256,192,91808,1,8,0:0:0:0:
256,192,91904,1,0,0:0:0:0:
256,192,91999,1,8,0:0:0:0:
256,192,92094,1,0,0:0:0:0:
256,192,92189,1,0,0:0:0:0:
256,192,92285,1,8,0:0:0:0:
256,192,92380,1,0,0:0:0:0:
256,192,92475,1,0,0:0:0:0:
256,192,92570,1,8,0:0:0:0:
256,192,92642,1,8,0:0:0:0:
256,192,92713,1,8,0:0:0:0:
256,192,92785,1,8,0:0:0:0:
256,192,92856,1,4,0:0:0:0:
256,192,92999,1,8,0:0:0:0:
256,192,93142,1,0,0:0:0:0:
256,192,93213,1,0,0:0:0:0:
256,192,93285,1,8,0:0:0:0:
256,192,93428,1,0,0:0:0:0:
256,192,93570,1,8,0:0:0:0:
256,192,93642,1,0,0:0:0:0:
256,192,93713,1,8,0:0:0:0:
256,192,93856,1,0,0:0:0:0:
256,192,93999,1,0,0:0:0:0:
256,192,94070,1,0,0:0:0:0:
256,192,94142,1,8,0:0:0:0:
256,192,94285,1,0,0:0:0:0:
256,192,94428,1,8,0:0:0:0:
256,192,94499,1,0,0:0:0:0:
256,192,94570,1,8,0:0:0:0:
256,192,94642,1,8,0:0:0:0:
256,192,94713,1,0,0:0:0:0:
256,192,94785,1,0,0:0:0:0:
256,192,94856,1,8,0:0:0:0:
256,192,95142,1,0,0:0:0:0:
256,192,95285,1,8,0:0:0:0:
256,192,95428,1,0,0:0:0:0:
256,192,95499,1,0,0:0:0:0:
256,192,95570,1,8,0:0:0:0:
256,192,95713,1,0,0:0:0:0:
256,192,95856,1,8,0:0:0:0:
256,192,95928,1,0,0:0:0:0:
256,192,95999,1,8,0:0:0:0:
256,192,96142,1,0,0:0:0:0:
256,192,96285,1,8,0:0:0:0:
256,192,96356,1,0,0:0:0:0:
256,192,96428,1,8,0:0:0:0:
256,192,96499,1,8,0:0:0:0:
256,192,96570,1,0,0:0:0:0:
256,192,96713,1,8,0:0:0:0:
256,192,96856,1,0,0:0:0:0:
256,192,96999,1,0,0:0:0:0:
256,192,97070,1,0,0:0:0:0:
256,192,97142,1,8,0:0:0:0:
256,192,97428,1,8,0:0:0:0:
256,192,97570,1,0,0:0:0:0:
256,192,97642,1,0,0:0:0:0:
256,192,97713,1,8,0:0:0:0:
256,192,97856,1,8,0:0:0:0:
256,192,97999,1,0,0:0:0:0:
256,192,98142,1,8,0:0:0:0:
256,192,98213,1,0,0:0:0:0:
256,192,98285,1,8,0:0:0:0:
256,192,98428,1,0,0:0:0:0:
256,192,98570,1,8,0:0:0:0:
256,192,98642,1,0,0:0:0:0:
256,192,98713,1,0,0:0:0:0:
256,192,98856,1,8,0:0:0:0:
256,192,98999,1,0,0:0:0:0:
256,192,99070,1,0,0:0:0:0:
256,192,99142,1,0,0:0:0:0:
256,192,99285,1,0,0:0:0:0:
256,192,99428,1,8,0:0:0:0:
256,192,99713,1,8,0:0:0:0:
256,192,99856,1,8,0:0:0:0:
256,192,99928,1,8,0:0:0:0:
256,192,99999,1,0,0:0:0:0:
256,192,100142,1,8,0:0:0:0:
256,192,100285,1,0,0:0:0:0:
256,192,100428,1,0,0:0:0:0:
256,192,100499,1,0,0:0:0:0:
256,192,100570,1,8,0:0:0:0:
256,192,100713,1,0,0:0:0:0:
256,192,100856,1,8,0:0:0:0:
256,192,100928,1,8,0:0:0:0:
256,192,100999,1,8,0:0:0:0:
256,192,101142,1,0,0:0:0:0:
256,192,101285,1,8,0:0:0:0:
256,192,101428,1,0,0:0:0:0:
256,192,101570,1,0,0:0:0:0:
256,192,101713,1,8,0:0:0:0:
256,192,101856,1,0,0:0:0:0:
256,192,101999,1,12,0:0:0:0:
256,192,102285,1,8,0:0:0:0:
256,192,102428,1,0,0:0:0:0:
256,192,102499,1,0,0:0:0:0:
256,192,102570,1,8,0:0:0:0:
256,192,102713,1,0,0:0:0:0:
256,192,102856,1,8,0:0:0:0:
256,192,102928,1,8,0:0:0:0:
256,192,102999,1,0,0:0:0:0:
256,192,103070,1,0,0:0:0:0:
256,192,103142,1,8,0:0:0:0:
256,192,103285,1,0,0:0:0:0:
256,192,103428,1,8,0:0:0:0:
256,192,103499,1,0,0:0:0:0:
256,192,103570,1,8,0:0:0:0:
256,192,103713,1,0,0:0:0:0:
256,192,103856,1,8,0:0:0:0:
256,192,103928,1,8,0:0:0:0:
256,192,103999,1,0,0:0:0:0:
256,192,104142,1,8,0:0:0:0:
256,192,104285,1,0,0:0:0:0:
256,192,104428,1,0,0:0:0:0:
256,192,104499,1,0,0:0:0:0:
256,192,104570,1,8,0:0:0:0:
256,192,104713,1,0,0:0:0:0:
256,192,104856,1,8,0:0:0:0:
256,192,104999,1,0,0:0:0:0:
256,192,105070,1,8,0:0:0:0:
256,192,105213,1,8,0:0:0:0:
256,192,105285,1,0,0:0:0:0:
256,192,105428,1,8,0:0:0:0:
256,192,105499,1,0,0:0:0:0:
256,192,105570,1,8,0:0:0:0:
256,192,105642,1,8,0:0:0:0:
256,192,105713,1,0,0:0:0:0:
256,192,105856,1,8,0:0:0:0:
256,192,105999,1,0,0:0:0:0:
256,192,106070,1,0,0:0:0:0:
256,192,106142,1,8,0:0:0:0:
256,192,106213,1,8,0:0:0:0:
256,192,106285,1,0,0:0:0:0:
256,192,106428,1,0,0:0:0:0:
256,192,106570,1,12,0:0:0:0:
256,192,106761,1,0,0:0:0:0:
256,192,106856,1,8,0:0:0:0:
256,192,106951,1,0,0:0:0:0:
256,192,107047,1,0,0:0:0:0:
256,192,107142,1,8,0:0:0:0:
256,192,107332,1,0,0:0:0:0:
256,192,107428,1,8,0:0:0:0:
256,192,107523,1,8,0:0:0:0:
256,192,107618,1,0,0:0:0:0:
256,192,107713,1,8,0:0:0:0:
256,192,107808,1,8,0:0:0:0:
256,192,107904,1,8,0:0:0:0:
256,192,107999,1,0,0:0:0:0:
256,192,108094,1,0,0:0:0:0:
256,192,108189,1,0,0:0:0:0:
256,192,108285,1,8,0:0:0:0:
256,192,108380,1,0,0:0:0:0:
256,192,108475,1,8,0:0:0:0:
256,192,108570,1,8,0:0:0:0:
256,192,108666,1,0,0:0:0:0:
256,192,108761,1,0,0:0:0:0:
256,192,108856,1,8,0:0:0:0:
256,192,108928,1,8,0:0:0:0:
256,192,108999,1,0,0:0:0:0:
256,192,109070,1,0,0:0:0:0:
256,192,109142,1,8,0:0:0:0:
256,192,109213,1,0,0:0:0:0:
256,192,109285,1,8,0:0:0:0:
256,192,109428,1,0,0:0:0:0:
256,192,109570,1,8,0:0:0:0:
256,192,109642,1,8,0:0:0:0:
256,192,109713,1,8,0:0:0:0:
256,192,109856,1,0,0:0:0:0:
256,192,109999,1,8,0:0:0:0:
256,192,110094,1,8,0:0:0:0:
256,192,110189,1,0,0:0:0:0:
256,192,110285,1,8,0:0:0:0:
256,192,110380,1,0,0:0:0:0:
256,192,110475,1,0,0:0:0:0:
256,192,110570,1,12,0:0:0:0:
256,192,110785,1,12,0:0:0:0:
256,192,110999,1,0,0:0:0:0:
256,192,111142,1,12,0:0:0:0:
256,192,118570,5,8,0:0:0:0:
256,192,118999,1,0,0:0:0:0:
256,192,119070,1,0,0:0:0:0:
256,192,119142,1,8,0:0:0:0:
256,192,119285,1,0,0:0:0:0:
256,192,119570,1,0,0:0:0:0:
256,192,119856,1,8,0:0:0:0:
256,192,119999,1,0,0:0:0:0:
256,192,120285,1,12,0:0:0:0:
256,192,120570,1,0,0:0:0:0:
256,192,120713,1,0,0:0:0:0:
256,192,120785,1,0,0:0:0:0:
256,192,120856,1,8,0:0:0:0:
256,192,121142,1,0,0:0:0:0:
256,192,121285,1,0,0:0:0:0:
256,192,121356,1,8,0:0:0:0:
256,192,121428,1,0,0:0:0:0:
256,192,121570,1,8,0:0:0:0:
256,192,121713,1,0,0:0:0:0:
256,192,121856,1,0,0:0:0:0:
256,192,121999,1,8,0:0:0:0:
256,192,122285,1,0,0:0:0:0:
256,192,122428,1,8,0:0:0:0:
256,192,122570,1,0,0:0:0:0:
256,192,122856,1,0,0:0:0:0:
256,192,122999,1,0,0:0:0:0:
256,192,123070,1,0,0:0:0:0:
256,192,123142,1,8,0:0:0:0:
256,192,123428,1,0,0:0:0:0:
256,192,123570,1,0,0:0:0:0:
256,192,123642,1,8,0:0:0:0:
256,192,123713,1,0,0:0:0:0:
256,192,123856,1,8,0:0:0:0:
256,192,123999,1,0,0:0:0:0:
256,192,124142,1,0,0:0:0:0:
256,192,124285,1,8,0:0:0:0:
256,192,124356,1,8,0:0:0:0:
256,192,124428,1,0,0:0:0:0:
256,192,124499,1,0,0:0:0:0:
256,192,124570,1,8,0:0:0:0:
256,192,124713,1,8,0:0:0:0:
256,192,124856,1,0,0:0:0:0:
256,192,125142,1,0,0:0:0:0:
256,192,125285,1,0,0:0:0:0:
256,192,125356,1,0,0:0:0:0:
256,192,125428,1,8,0:0:0:0:
256,192,125713,1,0,0:0:0:0:
256,192,125856,1,0,0:0:0:0:
256,192,125928,1,8,0:0:0:0:
256,192,125999,1,0,0:0:0:0:
256,192,126142,1,8,0:0:0:0:
256,192,126285,1,0,0:0:0:0:
256,192,126428,1,0,0:0:0:0:
256,192,126499,1,8,0:0:0:0:
256,192,126570,1,8,0:0:0:0:
256,192,126713,1,8,0:0:0:0:
256,192,126856,1,0,0:0:0:0:
256,192,126999,1,0,0:0:0:0:
256,192,127070,1,0,0:0:0:0:
256,192,127142,1,8,0:0:0:0:
256,192,127285,1,0,0:0:0:0:
256,192,127356,1,0,0:0:0:0:
256,192,127428,1,8,0:0:0:0:
256,192,127570,1,0,0:0:0:0:
256,192,127713,1,8,0:0:0:0:
256,192,127785,1,8,0:0:0:0:
256,192,127856,1,0,0:0:0:0:
256,192,127928,1,0,0:0:0:0:
256,192,127999,1,8,0:0:0:0:
256,192,128142,1,0,0:0:0:0:
256,192,128213,1,0,0:0:0:0:
256,192,128285,1,8,0:0:0:0:
256,192,128428,1,8,0:0:0:0:
256,192,128499,1,8,0:0:0:0:
256,192,128570,1,0,0:0:0:0:
256,192,128713,1,8,0:0:0:0:
256,192,128856,1,0,0:0:0:0:
256,192,128999,1,0,0:0:0:0:
256,192,129070,1,0,0:0:0:0:
256,192,129142,1,8,0:0:0:0:
256,192,129285,1,0,0:0:0:0:
256,192,129428,1,12,0:0:0:0:
256,192,129713,1,8,0:0:0:0:
256,192,129856,1,8,0:0:0:0:
256,192,129928,1,8,0:0:0:0:
256,192,129999,1,0,0:0:0:0:
256,192,130142,1,0,0:0:0:0:
256,192,130285,1,8,0:0:0:0:
256,192,130428,1,0,0:0:0:0:
256,192,130499,1,8,0:0:0:0:
256,192,130570,1,0,0:0:0:0:
256,192,130713,1,0,0:0:0:0:
256,192,130856,1,8,0:0:0:0:
256,192,130928,1,8,0:0:0:0:
256,192,130999,1,0,0:0:0:0:
256,192,131070,1,0,0:0:0:0:
256,192,131142,1,8,0:0:0:0:
256,192,131285,1,0,0:0:0:0:
256,192,131428,1,8,0:0:0:0:
256,192,131570,1,8,0:0:0:0:
256,192,131642,1,8,0:0:0:0:
256,192,131713,1,0,0:0:0:0:
256,192,131999,1,8,0:0:0:0:
256,192,132142,1,0,0:0:0:0:
256,192,132213,1,0,0:0:0:0:
256,192,132285,1,8,0:0:0:0:
256,192,132320,1,8,0:0:0:0:
256,192,132428,1,8,0:0:0:0:
256,192,132463,1,8,0:0:0:0:
256,192,132570,1,0,0:0:0:0:
256,192,132605,1,0,0:0:0:0:
256,192,132713,1,8,0:0:0:0:
256,192,132748,1,8,0:0:0:0:
256,192,132856,1,0,0:0:0:0:
256,192,132999,1,0,0:0:0:0:
256,192,133070,1,0,0:0:0:0:
256,192,133142,1,8,0:0:0:0:
256,192,133285,1,0,0:0:0:0:
256,192,133428,1,8,0:0:0:0:
256,192,133499,1,8,0:0:0:0:
256,192,133570,1,0,0:0:0:0:
256,192,133642,1,0,0:0:0:0:
256,192,133713,1,8,0:0:0:0:
256,192,133856,1,0,0:0:0:0:
256,192,133999,1,12,0:0:0:0:
256,192,134285,1,8,0:0:0:0:
256,192,134428,1,8,0:0:0:0:
256,192,134499,1,8,0:0:0:0:
256,192,134570,1,0,0:0:0:0:
256,192,134713,1,0,0:0:0:0:
256,192,134856,1,8,0:0:0:0:
256,192,134999,1,0,0:0:0:0:
256,192,135070,1,8,0:0:0:0:
256,192,135142,1,0,0:0:0:0:
256,192,135285,1,0,0:0:0:0:
256,192,135428,1,8,0:0:0:0:
256,192,135499,1,8,0:0:0:0:
256,192,135570,1,0,0:0:0:0:
256,192,135642,1,0,0:0:0:0:
256,192,135713,1,8,0:0:0:0:
256,192,135856,1,0,0:0:0:0:
256,192,135999,1,8,0:0:0:0:
256,192,136070,1,0,0:0:0:0:
256,192,136142,1,8,0:0:0:0:
256,192,136213,1,8,0:0:0:0:
256,192,136285,1,0,0:0:0:0:
256,192,136570,1,8,0:0:0:0:
256,192,136713,1,8,0:0:0:0:
256,192,136785,1,8,0:0:0:0:
256,192,136856,1,0,0:0:0:0:
256,192,136999,1,0,0:0:0:0:
256,192,137142,1,8,0:0:0:0:
256,192,137285,1,0,0:0:0:0:
256,192,137356,1,0,0:0:0:0:
256,192,137428,1,8,0:0:0:0:
256,192,137570,1,0,0:0:0:0:
256,192,137713,1,8,0:0:0:0:
256,192,137785,1,8,0:0:0:0:
256,192,137856,1,8,0:0:0:0:
256,192,137928,1,0,0:0:0:0:
256,192,137999,1,8,0:0:0:0:
256,192,138142,1,0,0:0:0:0:
256,192,138285,1,8,0:0:0:0:
256,192,138356,1,0,0:0:0:0:
256,192,138428,1,8,0:0:0:0:
256,192,138499,1,8,0:0:0:0:
256,192,138570,1,0,0:0:0:0:
256,192,138856,1,8,0:0:0:0:
256,192,138999,1,0,0:0:0:0:
256,192,139070,1,0,0:0:0:0:
256,192,139142,1,0,0:0:0:0:
256,192,139285,1,0,0:0:0:0:
256,192,139428,1,8,0:0:0:0:
256,192,139570,1,0,0:0:0:0:
256,192,139642,1,8,0:0:0:0:
256,192,139713,1,0,0:0:0:0:
256,192,139856,1,0,0:0:0:0:
256,192,139999,1,8,0:0:0:0:
256,192,140070,1,8,0:0:0:0:
256,192,140142,1,0,0:0:0:0:
256,192,140213,1,0,0:0:0:0:
256,192,140285,1,8,0:0:0:0:
256,192,140428,1,0,0:0:0:0:
256,192,140570,1,8,0:0:0:0:
256,192,140642,1,8,0:0:0:0:
256,192,140713,1,8,0:0:0:0:
256,192,140785,1,8,0:0:0:0:
256,192,140856,1,4,0:0:0:0:
256,192,140999,1,8,0:0:0:0:
256,192,141070,1,8,0:0:0:0:
256,192,141142,1,0,0:0:0:0:
256,192,141285,1,8,0:0:0:0:
256,192,141428,1,0,0:0:0:0:
256,192,141570,1,0,0:0:0:0:
256,192,141642,1,0,0:0:0:0:
256,192,141713,1,8,0:0:0:0:
256,192,141856,1,0,0:0:0:0:
256,192,141999,1,8,0:0:0:0:
256,192,142070,1,8,0:0:0:0:
256,192,142142,1,0,0:0:0:0:
256,192,142213,1,0,0:0:0:0:
256,192,142285,1,8,0:0:0:0:
256,192,142356,1,0,0:0:0:0:
256,192,142428,1,8,0:0:0:0:
256,192,142499,1,8,0:0:0:0:
256,192,142570,1,0,0:0:0:0:
256,192,142713,1,8,0:0:0:0:
256,192,142785,1,8,0:0:0:0:
256,192,142856,1,0,0:0:0:0:
256,192,142928,1,0,0:0:0:0:
256,192,142999,1,8,0:0:0:0:
256,192,143142,1,4,0:0:0:0:
256,192,143285,1,0,0:0:0:0:
256,192,143356,1,0,0:0:0:0:
256,192,143428,1,8,0:0:0:0:
256,192,143570,1,0,0:0:0:0:
256,192,143642,1,0,0:0:0:0:
256,192,143713,1,0,0:0:0:0:
256,192,143856,1,0,0:0:0:0:
256,192,143928,1,0,0:0:0:0:
256,192,143999,1,8,0:0:0:0:
256,192,144142,1,0,0:0:0:0:
256,192,144213,1,0,0:0:0:0:
256,192,144285,1,0,0:0:0:0:
256,192,144428,1,0,0:0:0:0:
256,192,144499,1,0,0:0:0:0:
256,192,144570,1,8,0:0:0:0:
256,192,144713,1,0,0:0:0:0:
256,192,144785,1,0,0:0:0:0:
256,192,144856,1,0,0:0:0:0:
256,192,144999,1,0,0:0:0:0:
256,192,145070,1,0,0:0:0:0:
256,192,145142,1,8,0:0:0:0:
256,192,145213,1,0,0:0:0:0:
256,192,145285,1,0,0:0:0:0:
256,192,145356,1,0,0:0:0:0:
256,192,145428,1,8,0:0:0:0:
256,192,145523,1,8,0:0:0:0:
256,192,145618,1,8,0:0:0:0:
256,192,145713,1,0,0:0:0:0:
256,192,145808,1,0,0:0:0:0:
256,192,145904,1,0,0:0:0:0:
256,192,145999,1,8,0:0:0:0:
256,192,146094,1,0,0:0:0:0:
256,192,146189,1,0,0:0:0:0:
256,192,146285,1,8,0:0:0:0:
256,192,146380,1,0,0:0:0:0:
256,192,146475,1,0,0:0:0:0:
256,192,146570,1,8,0:0:0:0:
256,192,146666,1,8,0:0:0:0:
256,192,146761,1,0,0:0:0:0:
256,192,146856,1,8,0:0:0:0:
256,192,146951,1,0,0:0:0:0:
256,192,147047,1,0,0:0:0:0:
256,192,147142,1,8,0:0:0:0:
256,192,147237,1,8,0:0:0:0:
256,192,147332,1,8,0:0:0:0:
256,192,147428,1,0,0:0:0:0:
256,192,147523,1,8,0:0:0:0:
256,192,147618,1,8,0:0:0:0:
256,192,147713,1,4,0:0:0:0:
256,192,147999,1,8,0:0:0:0:
256,192,148142,1,0,0:0:0:0:
256,192,148213,1,0,0:0:0:0:
256,192,148285,1,0,0:0:0:0:
256,192,148428,1,0,0:0:0:0:
256,192,148570,1,8,0:0:0:0:
256,192,148713,1,0,0:0:0:0:
256,192,148785,1,8,0:0:0:0:
256,192,148856,1,0,0:0:0:0:
256,192,148999,1,0,0:0:0:0:
256,192,149142,1,8,0:0:0:0:
256,192,149213,1,8,0:0:0:0:
256,192,149285,1,0,0:0:0:0:
256,192,149356,1,0,0:0:0:0:
256,192,149428,1,8,0:0:0:0:
256,192,149499,1,0,0:0:0:0:
256,192,149570,1,0,0:0:0:0:
256,192,149642,1,0,0:0:0:0:
256,192,149713,1,8,0:0:0:0:
256,192,149856,1,8,0:0:0:0:
256,192,149928,1,8,0:0:0:0:
256,192,149999,1,0,0:0:0:0:
256,192,150142,1,0,0:0:0:0:
256,192,150285,1,8,0:0:0:0:
256,192,150428,1,0,0:0:0:0:
256,192,150499,1,0,0:0:0:0:
256,192,150570,1,8,0:0:0:0:
256,192,150606,1,8,0:0:0:0:
256,192,150713,1,8,0:0:0:0:
256,192,150749,1,8,0:0:0:0:
256,192,150856,1,0,0:0:0:0:
256,192,150891,1,0,0:0:0:0:
256,192,150999,1,8,0:0:0:0:
256,192,151034,1,8,0:0:0:0:
256,192,151142,1,0,0:0:0:0:
256,192,151285,1,0,0:0:0:0:
256,192,151356,1,0,0:0:0:0:
256,192,151428,1,8,0:0:0:0:
256,192,151570,1,0,0:0:0:0:
256,192,151713,1,8,0:0:0:0:
256,192,151785,1,8,0:0:0:0:
256,192,151856,1,0,0:0:0:0:
256,192,151928,1,0,0:0:0:0:
256,192,151999,1,8,0:0:0:0:
256,192,152070,1,8,0:0:0:0:
256,192,152142,1,8,0:0:0:0:
256,192,152285,1,4,0:0:0:0:
256,192,152570,1,8,0:0:0:0:
256,192,152713,1,0,0:0:0:0:
256,192,152785,1,0,0:0:0:0:
256,192,152856,1,0,0:0:0:0:
256,192,152999,1,0,0:0:0:0:
256,192,153142,1,8,0:0:0:0:
256,192,153285,1,0,0:0:0:0:
256,192,153356,1,8,0:0:0:0:
256,192,153428,1,0,0:0:0:0:
256,192,153570,1,0,0:0:0:0:
256,192,153713,1,8,0:0:0:0:
256,192,153785,1,8,0:0:0:0:
256,192,153856,1,8,0:0:0:0:
256,192,153928,1,0,0:0:0:0:
256,192,153999,1,8,0:0:0:0:
256,192,154070,1,8,0:0:0:0:
256,192,154142,1,0,0:0:0:0:
256,192,154213,1,0,0:0:0:0:
256,192,154285,1,8,0:0:0:0:
256,192,154428,1,8,0:0:0:0:
256,192,154499,1,8,0:0:0:0:
256,192,154570,1,0,0:0:0:0:
256,192,154713,1,0,0:0:0:0:
256,192,154856,1,8,0:0:0:0:
256,192,154999,1,0,0:0:0:0:
256,192,155070,1,8,0:0:0:0:
256,192,155142,1,0,0:0:0:0:
256,192,155285,1,0,0:0:0:0:
256,192,155428,1,8,0:0:0:0:
256,192,155570,1,8,0:0:0:0:
256,192,155642,1,8,0:0:0:0:
256,192,155713,1,0,0:0:0:0:
256,192,155856,1,0,0:0:0:0:
256,192,155999,1,8,0:0:0:0:
256,192,156070,1,8,0:0:0:0:
256,192,156142,1,0,0:0:0:0:
256,192,156213,1,0,0:0:0:0:
256,192,156285,1,8,0:0:0:0:
256,192,156356,1,0,0:0:0:0:
256,192,156428,1,0,0:0:0:0:
256,192,156499,1,0,0:0:0:0:
256,192,156570,1,8,0:0:0:0:
256,192,156642,1,8,0:0:0:0:
256,192,156713,1,8,0:0:0:0:
256,192,156856,1,4,0:0:0:0:
256,192,157142,1,8,0:0:0:0:
256,192,157285,1,0,0:0:0:0:
256,192,157356,1,0,0:0:0:0:
256,192,157428,1,8,0:0:0:0:
256,192,157570,1,0,0:0:0:0:
256,192,157713,1,8,0:0:0:0:
256,192,157785,1,8,0:0:0:0:
256,192,157856,1,0,0:0:0:0:
256,192,157928,1,0,0:0:0:0:
256,192,157999,1,8,0:0:0:0:
256,192,158142,1,0,0:0:0:0:
256,192,158213,1,0,0:0:0:0:
256,192,158285,1,8,0:0:0:0:
256,192,158428,1,0,0:0:0:0:
256,192,158570,1,8,0:0:0:0:
256,192,158642,1,8,0:0:0:0:
256,192,158713,1,8,0:0:0:0:
256,192,158785,1,0,0:0:0:0:
256,192,158856,1,8,0:0:0:0:
256,192,158999,1,0,0:0:0:0:
256,192,159142,1,8,0:0:0:0:
256,192,159237,1,8,0:0:0:0:
256,192,159332,1,0,0:0:0:0:
256,192,159428,1,8,0:0:0:0:
256,192,159523,1,0,0:0:0:0:
256,192,159618,1,0,0:0:0:0:
256,192,159713,1,8,0:0:0:0:
256,192,159808,1,0,0:0:0:0:
256,192,159904,1,0,0:0:0:0:
256,192,159999,1,8,0:0:0:0:
256,192,160094,1,8,0:0:0:0:
256,192,160189,1,0,0:0:0:0:
256,192,160285,1,8,0:0:0:0:
256,192,160356,1,8,0:0:0:0:
256,192,160428,1,0,0:0:0:0:
256,192,160499,1,0,0:0:0:0:
256,192,160570,1,8,0:0:0:0:
256,192,160642,1,0,0:0:0:0:
256,192,160713,1,8,0:0:0:0:
256,192,160785,1,8,0:0:0:0:
256,192,160856,1,0,0:0:0:0:
256,192,160928,1,0,0:0:0:0:
256,192,160999,1,8,0:0:0:0:
256,192,161070,1,8,0:0:0:0:
256,192,161142,1,0,0:0:0:0:
256,192,161213,1,0,0:0:0:0:
256,192,161285,1,0,0:0:0:0:
256,192,161356,1,0,0:0:0:0:
256,192,161428,1,12,0:0:0:0:
256,192,161713,1,8,0:0:0:0:
256,192,161999,1,8,0:0:0:0:
256,192,162285,1,8,0:0:0:0:
256,192,162428,1,0,0:0:0:0:
256,192,162499,1,0,0:0:0:0:
256,192,162570,1,8,0:0:0:0:
256,192,162713,1,0,0:0:0:0:
256,192,162856,1,8,0:0:0:0:
256,192,162999,1,0,0:0:0:0:
256,192,163285,1,8,0:0:0:0:
256,192,163428,1,0,0:0:0:0:
256,192,163570,1,8,0:0:0:0:
256,192,163713,1,0,0:0:0:0:
256,192,163999,1,8,0:0:0:0:
256,192,164285,1,8,0:0:0:0:
256,192,164570,1,8,0:0:0:0:
256,192,164713,1,0,0:0:0:0:
256,192,164785,1,8,0:0:0:0:
256,192,164856,1,8,0:0:0:0:
256,192,164999,1,8,0:0:0:0:
256,192,165142,1,0,0:0:0:0:
256,192,165285,1,8,0:0:0:0:
256,192,165570,1,8,0:0:0:0:
256,192,165713,1,0,0:0:0:0:
256,192,165856,1,8,0:0:0:0:
256,192,165999,1,0,0:0:0:0:
256,192,166142,1,8,0:0:0:0:
256,192,166213,1,0,0:0:0:0:
256,192,166285,1,8,0:0:0:0:
256,192,166428,1,0,0:0:0:0:
256,192,166570,1,8,0:0:0:0:
256,192,166642,1,0,0:0:0:0:
256,192,166713,1,8,0:0:0:0:
256,192,166785,1,8,0:0:0:0:
256,192,166856,1,0,0:0:0:0:
256,192,166999,1,8,0:0:0:0:
256,192,167070,1,8,0:0:0:0:
256,192,167142,1,0,0:0:0:0:
256,192,167285,1,0,0:0:0:0:
256,192,167356,1,0,0:0:0:0:
256,192,167428,1,8,0:0:0:0:
256,192,167499,1,0,0:0:0:0:
256,192,167570,1,8,0:0:0:0:
256,192,167642,1,8,0:0:0:0:
256,192,167713,1,0,0:0:0:0:
256,192,167856,1,8,0:0:0:0:
256,192,167928,1,8,0:0:0:0:
256,192,167999,1,0,0:0:0:0:
256,192,168142,1,0,0:0:0:0:
256,192,168285,1,8,0:0:0:0:
256,192,168428,1,4,0:0:0:0:
256,192,168713,1,8,0:0:0:0:
256,192,168856,1,4,0:0:0:0:
256,192,169142,1,8,0:0:0:0:
256,192,169285,1,4,0:0:0:0:
256,192,169570,1,8,0:0:0:0:
256,192,169713,1,4,0:0:0:0:
256,192,169999,1,8,0:0:0:0:
256,192,170070,1,0,0:0:0:0:
256,192,170142,1,8,0:0:0:0:
256,192,170213,1,8,0:0:0:0:
256,192,170285,1,0,0:0:0:0:
256,192,170356,1,0,0:0:0:0:
256,192,170428,1,8,0:0:0:0:
256,192,170499,1,8,0:0:0:0:
256,192,170570,1,4,0:0:0:0:
