osu file format v14

[General]
AudioFilename: audio.mp3
AudioLeadIn: 0
PreviewTime: 31645
Countdown: 0
SampleSet: Soft
StackLeniency: 0.7
Mode: 3
LetterboxInBreaks: 0
SpecialStyle: 0
WidescreenStoryboard: 0

[Editor]
Bookmarks: 12545,30962,33427,47141,56284,74569,91717,92855,111141,129427,147712,161427,170569
DistanceSpacing: 1.6
BeatDivisor: 4
GridSize: 8
TimelineZoom: 2.8

[Metadata]
Title:- FALLEN -
TitleUnicode:- ΓΛLLΞИ -
Artist:Kaneko Chiharu
ArtistUnicode:かねこちはる
Creator:Noch Einen
Version:riu's MAXIMUM
Source:
Tags:LΞGΞNDARY -Episode.1- VALLEYSTONE Bad Fennec Records Fate Apocrypha Ruler Jeanne d'Arc La Pucelle Crimson Saint Guren no Seijo riunosk murumoo famoss
BeatmapID:2149590
BeatmapSetID:1022331

[Difficulty]
HPDrainRate:9
CircleSize:4
OverallDifficulty:7
ApproachRate:5
SliderMultiplier:1.4
SliderTickRate:1

[Events]
//Background and Video events
0,0,"riu.jpg",0,0
//Break Periods
//Storyboard Layer 0 (Background)
//Storyboard Layer 1 (Fail)
//Storyboard Layer 2 (Pass)
//Storyboard Layer 3 (Foreground)
//Storyboard Layer 4 (Overlay)
//Storyboard Sound Samples
Sample,46574,0,"LR_HiHat SClick.wav",100
Sample,91432,0,"hihat02.wav",50
Sample,110289,0,"hihat13.wav",70
Sample,121289,0,"tom01.wav",70
Sample,121717,0,"tom02.wav",70
Sample,122432,0,"tom01.wav",70
Sample,123003,0,"tom01.wav",70
Sample,123574,0,"tom01.wav",70
Sample,124003,0,"tom02.wav",70
Sample,124717,0,"tom01.wav",70
Sample,125860,0,"tom01.wav",70
Sample,126289,0,"tom02.wav",70
Sample,127003,0,"tom01.wav",70
Sample,127574,0,"tom01.wav",70
Sample,128146,0,"tom02.wav",70
Sample,128574,0,"tom03.wav",70
Sample,145717,0,"hihat13.wav",70
Sample,146003,0,"LR_HiHat SClick.wav",100
Sample,146574,0,"LR_HiHat SClick.wav",100
Sample,146860,0,"hihat13.wav",70
Sample,160860,0,"LR_HiHat SClick.wav",100

[TimingPoints]
1974,333.333333333333,4,2,1,30,1,0
1974,-85.4700854700855,4,2,1,30,0,0
5973,319.148936170213,4,2,1,30,1,0
5973,-89.2857142857143,4,2,1,30,0,0
7249,333.333333333333,4,2,1,30,1,0
7249,-85.4700854700855,4,2,1,30,0,0
9248,383.386581469649,4,2,1,30,1,0
9248,-74.6268656716418,4,2,1,30,0,0
10014,323.450134770889,4,2,1,30,1,0
10014,-88.495575221239,4,2,1,30,0,0
11307,309.278350515464,4,2,1,30,1,0
11307,-92.5925925925926,4,2,1,30,0,0
12545,327.868852459016,4,2,1,30,1,0
12545,-86.9565217391304,4,2,1,30,0,0
16479,334.261838440111,4,2,1,30,1,0
16479,-85.4700854700855,4,2,1,30,0,0
17816,327.868852459016,4,2,1,30,1,0
17816,-86.9565217391304,4,2,1,30,0,0
21750,342.857142857143,4,2,1,30,1,0
21750,-83.3333333333333,4,2,1,30,0,0
22264,304.568527918782,4,2,1,30,1,0
22264,-93.4579439252336,4,2,1,30,0,0
22568,338.983050847458,4,2,1,30,1,0
22568,-84.0336134453782,4,2,1,30,0,0
23077,329.67032967033,4,2,1,50,1,0
23077,-86.9565217391304,4,2,1,50,0,0
30661,301.507537688442,4,2,1,50,1,0
30661,-94.3396226415094,4,2,1,50,0,0
30962,337.078651685393,4,2,1,50,1,0
30962,-84.7457627118644,4,2,1,50,0,0
31645,582.52427184466,4,2,1,50,1,0
31645,-49.0196078431373,4,2,1,50,0,0
32227,603.015075376884,4,2,1,50,1,0
32227,-47.39336492891,4,2,1,50,0,0
32836,600,4,2,1,50,1,0
32836,-47.6190476190476,4,2,1,50,0,0
33432,285.714285714286,4,2,1,70,1,0
33432,-100,4,2,1,70,0,1
47146,-100,4,2,1,70,0,0
56289,-100,4,2,1,60,0,0
111146,-100,4,2,1,30,0,0
119146,-100,4,2,1,50,0,0
124860,-100,4,2,1,60,0,0
129432,-100,4,2,1,70,0,1
170569,329.67032967033,4,2,1,70,1,0
170569,-86.9565217391304,4,2,1,70,0,0

[HitObjects]
192,192,1973,128,4,3307:0:0:0:0:
320,192,1973,128,0,4682:0:0:0:0:
448,192,1973,128,0,3307:0:0:0:0:
64,192,3307,128,0,5973:0:0:0:0:
192,192,4723,128,0,7249:0:0:0:0:
320,192,5973,128,0,12545:0:0:0:0:
448,192,7249,128,0,12545:0:0:0:0:
64,192,9082,128,0,9248:0:0:0:0:
192,192,9248,128,0,9311:0:0:0:0:
64,192,12545,128,0,12954:0:0:0:0:
192,192,12545,1,0,0:0:0:0:
64,192,13036,128,0,13446:0:0:0:0:
64,192,13528,128,0,13774:0:0:0:0:
320,192,13856,128,0,14020:0:0:0:0:
64,192,14184,128,0,14348:0:0:0:0:
192,192,14512,128,0,14676:0:0:0:0:
64,192,14840,128,0,15004:0:0:0:0:
448,192,15167,128,0,15577:0:0:0:0:
448,192,15659,128,0,16069:0:0:0:0:
448,192,16151,128,0,16397:0:0:0:0:
320,192,16479,128,0,16646:0:0:0:0:
192,192,16813,128,0,16980:0:0:0:0:
448,192,17147,128,0,17314:0:0:0:0:
320,192,17481,128,0,17648:0:0:0:0:
192,192,17816,128,0,18225:0:0:0:0:
192,192,18307,128,0,18717:0:0:0:0:
192,192,18799,128,0,19045:0:0:0:0:
320,192,19127,128,0,19291:0:0:0:0:
192,192,19455,128,0,19619:0:0:0:0:
320,192,19783,128,0,19947:0:0:0:0:
192,192,20111,128,0,20275:0:0:0:0:
64,192,20438,1,0,0:0:0:0:
320,192,20438,1,0,0:0:0:0:
320,192,20602,1,0,0:0:0:0:
448,192,20602,1,0,0:0:0:0:
64,192,20930,1,0,0:0:0:0:
192,192,20930,1,0,0:0:0:0:
64,192,21258,1,0,0:0:0:0:
448,192,21258,1,0,0:0:0:0:
192,192,21422,1,0,0:0:0:0:
320,192,21422,1,0,0:0:0:0:
64,192,21586,1,0,0:0:0:0:
192,192,21586,1,0,0:0:0:0:
320,192,21750,1,0,0:0:0:0:
448,192,21750,1,0,0:0:0:0:
64,192,21921,1,0,0:0:0:0:
192,192,21921,1,0,0:0:0:0:
320,192,22092,1,0,0:0:0:0:
448,192,22092,1,0,0:0:0:0:
64,192,22264,1,0,0:0:0:0:
192,192,22264,1,0,0:0:0:0:
64,192,22416,1,0,0:0:0:0:
320,192,22416,1,0,0:0:0:0:
192,192,22568,1,0,0:0:0:50:hihat13.wav
320,192,22652,1,0,0:0:0:50:hihat06.wav
448,192,22737,1,0,0:0:0:70:hihat02.wav
64,192,23077,1,2,0:0:0:0:
192,192,23077,1,0,0:0:0:0:
448,192,23077,1,0,0:0:0:0:
64,192,23241,1,2,0:0:0:0:
192,192,23241,1,0,0:0:0:50:hihat13.wav
64,192,23571,1,2,0:0:0:0:
192,192,23571,1,0,0:0:0:50:hihat13.wav
64,192,23901,1,2,0:0:0:0:
192,192,23901,1,0,0:0:0:50:hihat13.wav
64,192,24230,1,2,0:0:0:0:
192,192,24230,1,0,0:0:0:50:hihat13.wav
64,192,24560,1,2,0:0:0:0:
192,192,24560,1,0,0:0:0:50:hihat13.wav
64,192,24890,1,2,0:0:0:0:
192,192,24890,1,0,0:0:0:50:hihat13.wav
64,192,25055,1,2,0:0:0:0:
192,192,25055,1,0,0:0:0:50:hihat13.wav
320,192,25219,1,0,0:0:0:50:hihat13.wav
448,192,25302,1,0,0:0:0:50:hihat06.wav
64,192,25384,1,2,0:0:0:0:
192,192,25384,1,0,0:0:0:70:hihat02.wav
64,192,25714,1,4,0:0:0:0:
192,192,25714,1,2,0:0:0:0:
320,192,25714,1,0,0:0:0:0:
192,192,25879,1,2,0:0:0:0:
320,192,25879,1,0,0:0:0:50:hihat13.wav
192,192,26208,1,2,0:0:0:0:
320,192,26208,1,0,0:0:0:50:hihat13.wav
192,192,26538,1,2,0:0:0:0:
320,192,26538,1,0,0:0:0:50:hihat13.wav
192,192,26868,1,2,0:0:0:0:
320,192,26868,1,0,0:0:0:50:hihat13.wav
192,192,27197,1,2,0:0:0:0:
320,192,27197,1,0,0:0:0:50:hihat13.wav
192,192,27527,1,2,0:0:0:0:
320,192,27527,1,0,0:0:0:50:hihat13.wav
192,192,27692,1,2,0:0:0:0:
320,192,27692,1,0,0:0:0:50:hihat13.wav
64,192,27857,1,0,0:0:0:50:hihat13.wav
448,192,27939,1,0,0:0:0:50:hihat06.wav
192,192,28022,1,2,0:0:0:0:
320,192,28022,1,0,0:0:0:70:hihat02.wav
64,192,28351,1,4,0:0:0:0:
320,192,28351,1,2,0:0:0:0:
448,192,28351,1,0,0:0:0:0:
320,192,28516,1,2,0:0:0:0:
448,192,28516,1,0,0:0:0:50:hihat13.wav
192,192,28846,1,8,0:0:0:0:
320,192,28846,1,0,0:0:0:50:hihat13.wav
448,192,28846,1,0,0:0:0:0:
320,192,29175,1,2,0:0:0:0:
448,192,29175,1,0,0:0:0:50:hihat13.wav
192,192,29340,1,0,0:0:0:50:hihat13.wav
192,192,29505,1,8,0:0:0:0:
320,192,29505,1,0,0:0:0:50:hihat13.wav
448,192,29505,1,0,0:0:0:0:
320,192,29835,1,2,0:0:0:0:
448,192,29835,1,0,0:0:0:50:hihat13.wav
192,192,30000,1,0,0:0:0:50:hihat13.wav
192,192,30164,1,8,0:0:0:0:
320,192,30164,1,0,0:0:0:50:hihat13.wav
448,192,30164,1,0,0:0:0:0:
320,192,30329,1,2,0:0:0:0:
448,192,30329,1,0,0:0:0:50:hihat13.wav
64,192,30494,1,0,0:0:0:50:hihat13.wav
192,192,30577,1,0,0:0:0:50:hihat06.wav
64,192,30661,1,8,0:0:0:0:
320,192,30661,1,0,0:0:0:70:hihat02.wav
448,192,30661,1,0,0:0:0:0:
64,192,30962,1,0,0:0:0:70:breaking_thunder.wav
448,192,30962,1,0,0:0:0:0:
64,192,31636,128,0,33361:0:0:0:0:
192,192,32227,128,0,33361:0:0:0:0:
320,192,32830,128,0,33361:0:0:0:0:
64,192,33432,1,4,0:0:0:0:
320,192,33432,128,2,33646:0:0:0:0:
448,192,33432,128,0,33503:0:0:0:0:
448,192,33574,128,0,33932:0:0:0:0:
64,192,33717,1,8,0:0:0:0:
192,192,33717,1,0,0:0:0:70:hihat13.wav
320,192,33717,128,0,33789:0:0:0:0:
320,192,33860,128,2,34217:0:0:0:0:
192,192,34003,1,0,0:0:0:100:LR_HiHat SClick.wav
448,192,34003,128,0,34074:0:0:0:0:
448,192,34146,128,2,34503:0:0:0:0:
64,192,34289,1,8,0:0:0:0:
192,192,34289,1,0,0:0:0:70:hihat13.wav
320,192,34289,128,0,34360:0:0:0:0:
320,192,34432,128,2,34789:0:0:0:0:
64,192,34574,1,0,0:0:0:100:LR_HiHat SClick.wav
448,192,34574,128,0,34646:0:0:0:0:
448,192,34717,128,2,34789:0:0:0:0:
64,192,34860,128,8,35074:0:0:0:0:
192,192,34860,1,0,0:0:0:70:hihat13.wav
320,192,34860,1,0,0:0:0:0:
192,192,35003,128,2,35074:0:0:0:0:
192,192,35146,128,0,35360:0:0:0:100:LR_HiHat SClick.wav
448,192,35146,1,0,0:0:0:0:
320,192,35289,128,2,35360:0:0:0:0:
64,192,35432,1,8,0:0:0:0:
192,192,35432,1,0,0:0:0:70:hihat13.wav
320,192,35432,128,0,35646:0:0:0:0:
448,192,35574,128,0,35646:0:0:0:0:
64,192,35717,1,2,0:0:0:0:
448,192,35717,128,0,36074:0:0:0:100:LR_HiHat SClick.wav
320,192,35860,128,0,35932:0:0:0:0:
64,192,36003,1,8,0:0:0:0:
192,192,36003,1,0,0:0:0:70:hihat13.wav
320,192,36003,128,0,36360:0:0:0:0:
448,192,36146,128,2,36217:0:0:0:0:
64,192,36289,128,0,36360:0:0:0:100:LR_HiHat SClick.wav
192,192,36289,128,0,36360:0:0:0:0:
448,192,36289,128,0,36503:0:0:0:0:
192,192,36432,128,2,36503:0:0:0:0:
320,192,36432,128,0,36503:0:0:0:0:
64,192,36574,1,8,0:0:0:0:
320,192,36574,128,0,36789:0:0:0:70:hihat13.wav
448,192,36574,128,0,36646:0:0:0:0:
64,192,36717,128,2,36789:0:0:0:0:
448,192,36717,128,0,37074:0:0:0:0:
192,192,36860,1,0,0:0:0:100:LR_HiHat SClick.wav
320,192,36860,128,0,36932:0:0:0:0:
320,192,37003,128,2,37074:0:0:0:0:
64,192,37146,1,8,0:0:0:0:
192,192,37146,128,0,37360:0:0:0:70:hihat13.wav
448,192,37146,1,0,0:0:0:0:
64,192,37289,128,2,37360:0:0:0:0:
64,192,37432,128,0,37646:0:0:0:100:LR_HiHat SClick.wav
320,192,37432,1,0,0:0:0:0:
192,192,37574,128,2,37646:0:0:0:0:
192,192,37717,128,8,37932:0:0:0:0:
320,192,37717,1,0,0:0:0:70:hihat13.wav
448,192,37717,1,0,0:0:0:0:
320,192,37860,128,0,37932:0:0:0:0:
64,192,38003,1,2,0:0:0:0:
320,192,38003,128,4,38217:0:0:0:0:
448,192,38003,1,0,0:0:0:0:
192,192,38146,128,0,38503:0:0:0:0:
64,192,38289,1,8,0:0:0:0:
320,192,38289,128,0,38360:0:0:0:70:hihat13.wav
448,192,38289,1,0,0:0:0:0:
320,192,38432,128,2,38789:0:0:0:0:
64,192,38574,1,0,0:0:0:100:LR_HiHat SClick.wav
192,192,38574,128,0,38646:0:0:0:0:
192,192,38717,128,2,39074:0:0:0:0:
64,192,38860,1,8,0:0:0:0:
320,192,38860,128,0,38932:0:0:0:70:hihat13.wav
448,192,38860,1,0,0:0:0:0:
320,192,39003,128,2,39360:0:0:0:0:
192,192,39146,128,0,39217:0:0:0:100:LR_HiHat SClick.wav
448,192,39146,1,0,0:0:0:0:
192,192,39289,128,2,39360:0:0:0:0:
64,192,39432,1,8,0:0:0:0:
320,192,39432,1,0,0:0:0:70:hihat13.wav
448,192,39432,128,0,39646:0:0:0:0:
320,192,39574,128,2,39646:0:0:0:0:
64,192,39717,1,0,0:0:0:100:LR_HiHat SClick.wav
320,192,39717,128,0,39932:0:0:0:0:
192,192,39860,128,2,39932:0:0:0:0:
64,192,40003,1,8,0:0:0:0:
192,192,40003,128,0,40217:0:0:0:70:hihat13.wav
448,192,40003,1,0,0:0:0:0:
64,192,40146,128,0,40217:0:0:0:0:
320,192,40289,128,2,40360:0:0:0:0:
448,192,40289,1,0,0:0:0:100:LR_HiHat SClick.wav
320,192,40432,128,0,40789:0:0:0:0:
64,192,40574,1,8,0:0:0:0:
192,192,40574,128,0,40646:0:0:0:70:hihat13.wav
448,192,40574,1,0,0:0:0:0:
192,192,40717,128,2,41074:0:0:0:0:
64,192,40860,1,0,0:0:0:100:LR_HiHat SClick.wav
320,192,40860,128,0,40932:0:0:0:0:
320,192,41003,128,2,41360:0:0:0:0:
64,192,41146,1,8,0:0:0:0:
192,192,41146,128,0,41217:0:0:0:70:hihat13.wav
448,192,41146,1,0,0:0:0:0:
192,192,41289,128,2,41646:0:0:0:0:
320,192,41432,128,0,41503:0:0:0:100:LR_HiHat SClick.wav
448,192,41432,1,0,0:0:0:0:
320,192,41574,128,2,41646:0:0:0:0:
64,192,41717,1,8,0:0:0:0:
192,192,41717,1,0,0:0:0:70:hihat13.wav
448,192,41717,128,0,41932:0:0:0:0:
320,192,41860,128,2,41932:0:0:0:0:
64,192,42003,1,0,0:0:0:100:LR_HiHat SClick.wav
320,192,42003,128,0,42217:0:0:0:0:
192,192,42146,128,2,42217:0:0:0:0:
64,192,42289,1,8,0:0:0:0:
192,192,42289,128,0,42503:0:0:0:70:hihat13.wav
448,192,42289,1,0,0:0:0:0:
64,192,42432,128,0,42503:0:0:0:0:
64,192,42574,128,4,42646:0:0:0:0:
320,192,42574,1,2,0:0:0:0:
448,192,42574,1,0,0:0:0:0:
64,192,42717,128,0,43074:0:0:0:0:
192,192,42860,128,8,42932:0:0:0:0:
320,192,42860,1,0,0:0:0:70:hihat13.wav
448,192,42860,1,0,0:0:0:0:
192,192,43003,128,2,43360:0:0:0:0:
64,192,43146,128,0,43217:0:0:0:100:LR_HiHat SClick.wav
448,192,43146,1,0,0:0:0:0:
64,192,43289,128,2,43646:0:0:0:0:
192,192,43432,128,8,43503:0:0:0:0:
320,192,43432,1,0,0:0:0:70:hihat13.wav
448,192,43432,1,0,0:0:0:0:
192,192,43574,128,2,43932:0:0:0:0:
64,192,43717,128,0,43789:0:0:0:100:LR_HiHat SClick.wav
320,192,43717,1,0,0:0:0:0:
64,192,43860,128,2,43932:0:0:0:0:
64,192,44003,128,8,44217:0:0:0:0:
320,192,44003,1,0,0:0:0:70:hihat13.wav
448,192,44003,1,0,0:0:0:0:
192,192,44146,128,2,44217:0:0:0:0:
192,192,44289,128,0,44503:0:0:0:100:LR_HiHat SClick.wav
448,192,44289,1,0,0:0:0:0:
320,192,44432,128,2,44503:0:0:0:0:
64,192,44574,1,8,0:0:0:0:
320,192,44574,1,0,0:0:0:70:hihat13.wav
448,192,44574,128,0,44789:0:0:0:0:
320,192,44717,128,0,44789:0:0:0:0:
64,192,44860,1,2,0:0:0:0:
192,192,44860,1,4,0:0:0:0:
448,192,44860,128,0,44955:0:0:0:0:
320,192,44955,128,0,45051:0:0:0:0:
192,192,45051,128,0,45146:0:0:0:0:
64,192,45146,1,8,0:0:0:0:
320,192,45146,128,0,45241:0:0:0:70:hihat13.wav
448,192,45146,1,0,0:0:0:0:
192,192,45241,128,0,45336:0:0:0:0:
64,192,45336,128,0,45432:0:0:0:0:
192,192,45432,128,0,45527:0:0:0:100:LR_HiHat SClick.wav
448,192,45432,1,0,0:0:0:0:
320,192,45527,128,0,45622:0:0:0:0:
192,192,45622,128,0,45717:0:0:0:0:
64,192,45717,128,8,45812:0:0:0:0:
320,192,45717,1,0,0:0:0:70:hihat13.wav
448,192,45717,1,0,0:0:0:0:
192,192,45812,128,0,45908:0:0:0:0:
320,192,45908,128,0,46003:0:0:0:0:
64,192,46003,1,8,0:0:0:0:
192,192,46003,1,4,0:0:0:0:
448,192,46003,128,0,46074:0:0:0:0:
320,192,46074,128,0,46146:0:0:0:0:
64,192,46146,128,2,46217:0:0:0:0:
192,192,46217,128,0,46289:0:0:0:0:
64,192,46289,128,8,46360:0:0:0:0:
320,192,46289,1,0,0:0:0:70:hihat13.wav
448,192,46289,1,0,0:0:0:0:
192,192,46360,128,0,46432:0:0:0:0:
64,192,46432,128,8,46503:0:0:0:0:
320,192,46432,1,0,0:0:0:0:
448,192,46432,1,0,0:0:0:0:
192,192,46503,128,0,46574:0:0:0:0:
320,192,46574,128,2,46646:0:0:0:0:
448,192,46646,128,0,46717:0:0:0:0:
64,192,46717,1,8,0:0:0:0:
192,192,46717,128,0,46789:0:0:0:0:
320,192,46789,128,0,46860:0:0:0:0:
64,192,46860,128,0,46932:0:0:0:70:tom01.wav
192,192,46932,128,0,47003:0:0:0:0:
320,192,47003,128,0,47074:0:0:0:70:tom02.wav
448,192,47074,128,0,47146:0:0:0:0:
64,192,47146,1,2,0:0:0:0:
192,192,47146,1,4,0:0:0:0:
320,192,47146,1,0,0:0:0:70:twinkling.ogg
448,192,47432,128,0,47646:0:0:0:0:
320,192,47574,128,0,47932:0:0:0:0:
448,192,47717,128,0,48503:0:0:0:0:
192,192,47860,128,0,48217:0:0:0:0:
320,192,48003,128,0,48646:0:0:0:0:
64,192,48146,128,0,48360:0:0:0:0:
192,192,48289,128,0,48932:0:0:0:0:
64,192,48432,128,0,49217:0:0:0:0:
448,192,48574,128,0,48789:0:0:0:0:
320,192,48717,128,0,49074:0:0:0:0:
448,192,48860,128,0,49432:0:0:0:0:
192,192,49003,128,0,49360:0:0:0:0:
320,192,49146,128,0,49360:0:0:0:0:
64,192,49289,128,0,49432:0:0:0:0:
192,192,49432,1,0,0:0:0:0:
320,192,49432,1,0,0:0:0:0:
448,192,49717,128,0,49932:0:0:0:0:
320,192,49860,128,0,50217:0:0:0:0:
448,192,50003,128,0,50789:0:0:0:0:
192,192,50146,128,0,50503:0:0:0:0:
320,192,50289,128,0,50503:0:0:0:0:
64,192,50432,128,0,50646:0:0:0:0:
192,192,50574,128,0,51217:0:0:0:0:
320,192,50574,128,0,50932:0:0:0:0:
64,192,50717,128,0,51503:0:0:0:0:
448,192,50860,128,0,51074:0:0:0:0:
320,192,51003,128,0,51360:0:0:0:0:
448,192,51146,128,0,51646:0:0:0:0:
192,192,51289,128,0,51646:0:0:0:0:
320,192,51432,128,0,51646:0:0:0:0:
64,192,51574,128,0,51717:0:0:0:0:
192,192,51717,128,0,51789:0:0:0:0:
320,192,51717,128,0,51789:0:0:0:0:
448,192,51717,1,0,0:0:0:0:
320,192,51860,128,0,51932:0:0:0:0:
448,192,51860,128,0,51932:0:0:0:0:
448,192,52003,128,0,52217:0:0:0:0:
320,192,52146,128,0,52503:0:0:0:0:
448,192,52289,128,0,53074:0:0:0:0:
192,192,52432,128,0,52789:0:0:0:0:
320,192,52574,128,0,53217:0:0:0:0:
64,192,52717,128,0,52932:0:0:0:0:
192,192,52860,128,0,53503:0:0:0:0:
64,192,53003,128,0,53789:0:0:0:0:
448,192,53146,128,0,53360:0:0:0:0:
320,192,53289,128,0,53646:0:0:0:0:
448,192,53432,128,0,53932:0:0:0:0:
192,192,53574,128,0,54003:0:0:0:0:
320,192,53717,128,0,53932:0:0:0:0:
64,192,53860,128,0,54003:0:0:0:0:
320,192,54003,128,0,54074:0:0:0:0:
448,192,54003,128,0,54074:0:0:0:0:
192,192,54146,128,0,54217:0:0:0:0:
320,192,54146,128,0,54217:0:0:0:0:
64,192,54289,128,0,54360:0:0:0:0:
192,192,54289,128,0,54503:0:0:0:0:
64,192,54432,128,0,54646:0:0:0:0:
448,192,54432,128,0,54789:0:0:0:0:
192,192,54574,128,0,54646:0:0:0:0:
320,192,54574,128,0,54789:0:0:0:0:
64,192,54717,128,0,54932:0:0:0:0:
192,192,54717,128,0,55074:0:0:0:0:
320,192,54860,128,0,54932:0:0:0:0:
448,192,54860,128,0,55217:0:0:0:0:
64,192,55003,128,0,55074:0:0:0:0:
320,192,55003,128,0,55360:0:0:0:0:
64,192,55146,128,0,55360:0:0:0:0:
192,192,55146,128,0,55217:0:0:0:0:
192,192,55289,128,0,55503:0:0:0:0:
448,192,55289,128,0,55646:0:0:0:0:
64,192,55432,128,0,55503:0:0:0:0:
320,192,55432,128,0,55646:0:0:0:0:
64,192,55574,128,0,55789:0:0:0:0:
192,192,55574,128,0,55932:0:0:0:0:
320,192,55717,128,0,55789:0:0:0:0:
448,192,55717,128,0,55932:0:0:0:0:
64,192,55860,128,0,56074:0:0:0:0:
320,192,55860,128,0,56217:0:0:0:0:
192,192,56003,128,0,56074:0:0:0:0:
448,192,56003,128,0,56217:0:0:0:0:
64,192,56146,128,0,56217:0:0:0:0:
192,192,56146,128,0,56217:0:0:0:0:
64,192,56289,1,2,0:0:0:0:
320,192,56289,1,4,0:0:0:0:
448,192,56289,128,0,57432:0:0:0:0:
64,192,56432,1,0,0:0:0:0:
192,192,56574,1,2,0:0:0:0:
320,192,56574,1,0,0:0:0:0:
192,192,56717,1,0,0:0:0:0:
64,192,56860,1,2,0:0:0:0:
320,192,56860,1,0,0:0:0:0:
64,192,57003,1,0,0:0:0:0:
192,192,57146,1,2,0:0:0:0:
320,192,57146,1,0,0:0:0:0:
192,192,57289,1,0,0:0:0:0:
64,192,57432,128,2,58574:0:0:0:0:
320,192,57432,1,0,0:0:0:0:
320,192,57574,1,0,0:0:0:0:
192,192,57717,1,2,0:0:0:0:
448,192,57717,1,0,0:0:0:0:
448,192,57860,1,0,0:0:0:0:
192,192,58003,1,2,0:0:0:0:
320,192,58003,1,0,0:0:0:0:
320,192,58146,1,0,0:0:0:0:
192,192,58289,1,2,0:0:0:0:
448,192,58289,1,0,0:0:0:0:
448,192,58432,1,0,0:0:0:0:
192,192,58574,1,2,0:0:0:0:
320,192,58574,128,0,59717:0:0:0:0:
192,192,58717,1,0,0:0:0:0:
64,192,58860,1,2,0:0:0:0:
448,192,58860,1,0,0:0:0:0:
64,192,59003,1,0,0:0:0:0:
192,192,59146,1,2,0:0:0:0:
448,192,59146,1,0,0:0:0:0:
192,192,59289,1,0,0:0:0:0:
64,192,59432,1,2,0:0:0:0:
448,192,59432,1,0,0:0:0:0:
64,192,59574,1,0,0:0:0:0:
192,192,59717,128,2,60860:0:0:0:0:
448,192,59717,1,0,0:0:0:0:
448,192,59860,1,0,0:0:0:0:
64,192,60003,1,2,0:0:0:0:
320,192,60003,1,0,0:0:0:0:
320,192,60146,1,0,0:0:0:0:
64,192,60289,1,2,0:0:0:0:
448,192,60289,1,0,0:0:0:0:
448,192,60432,1,0,0:0:0:0:
64,192,60574,1,2,0:0:0:0:
320,192,60574,1,0,0:0:0:0:
320,192,60717,1,0,0:0:0:0:
64,192,60860,1,2,0:0:0:0:
320,192,60860,128,4,63146:0:0:0:0:
448,192,60860,1,0,0:0:0:0:
64,192,61003,1,0,0:0:0:0:
192,192,61146,1,2,0:0:0:0:
448,192,61146,1,0,0:0:0:0:
192,192,61289,1,0,0:0:0:0:
64,192,61432,1,2,0:0:0:0:
448,192,61432,1,0,0:0:0:0:
64,192,61574,1,0,0:0:0:0:
192,192,61717,1,2,0:0:0:0:
448,192,61717,1,0,0:0:0:0:
192,192,61860,1,0,0:0:0:0:
64,192,62003,1,2,0:0:0:0:
448,192,62003,1,0,0:0:0:0:
64,192,62146,1,0,0:0:0:0:
192,192,62289,1,2,0:0:0:0:
448,192,62289,1,0,0:0:0:0:
192,192,62432,1,0,0:0:0:0:
64,192,62574,1,2,0:0:0:0:
448,192,62574,1,0,0:0:0:0:
64,192,62717,1,0,0:0:0:0:
192,192,62860,1,2,0:0:0:0:
448,192,62860,1,0,0:0:0:0:
192,192,63003,1,0,0:0:0:0:
64,192,63146,1,2,0:0:0:0:
448,192,63146,128,0,64289:0:0:0:0:
64,192,63289,1,0,0:0:0:0:
192,192,63432,1,2,0:0:0:0:
320,192,63432,1,0,0:0:0:0:
192,192,63574,1,0,0:0:0:0:
64,192,63717,1,2,0:0:0:0:
320,192,63717,1,0,0:0:0:0:
64,192,63860,1,0,0:0:0:0:
192,192,64003,1,2,0:0:0:0:
320,192,64003,1,0,0:0:0:0:
192,192,64146,1,0,0:0:0:0:
64,192,64289,1,2,0:0:0:0:
320,192,64289,128,0,65432:0:0:0:0:
64,192,64432,1,0,0:0:0:0:
192,192,64574,1,2,0:0:0:0:
448,192,64574,1,0,0:0:0:0:
448,192,64717,1,0,0:0:0:0:
64,192,64860,1,2,0:0:0:0:
192,192,64860,1,0,0:0:0:0:
64,192,65003,1,0,0:0:0:0:
192,192,65146,1,2,0:0:0:0:
448,192,65146,1,0,0:0:0:0:
448,192,65289,1,0,0:0:0:0:
64,192,65432,1,2,0:0:0:0:
192,192,65432,128,4,66574:0:0:0:0:
448,192,65432,1,0,0:0:0:100:LR_Snare Hollow.wav
64,192,65574,1,0,0:0:0:0:
320,192,65717,1,2,0:0:0:0:
448,192,65717,1,0,0:0:0:0:
448,192,65860,1,0,0:0:0:0:
64,192,66003,1,2,0:0:0:0:
320,192,66003,1,0,0:0:0:0:
64,192,66146,1,0,0:0:0:0:
320,192,66289,1,2,0:0:0:0:
448,192,66289,1,0,0:0:0:0:
448,192,66432,1,0,0:0:0:0:
64,192,66574,128,2,67717:0:0:0:0:
320,192,66574,1,0,0:0:0:0:
320,192,66717,1,0,0:0:0:0:
192,192,66860,1,2,0:0:0:0:
448,192,66860,1,0,0:0:0:0:
448,192,67003,1,0,0:0:0:0:
192,192,67146,1,2,0:0:0:0:
320,192,67146,1,0,0:0:0:0:
320,192,67289,1,0,0:0:0:0:
192,192,67432,1,2,0:0:0:0:
448,192,67432,1,0,0:0:0:0:
448,192,67574,1,0,0:0:0:0:
192,192,67717,128,2,68860:0:0:0:0:
320,192,67717,1,0,0:0:0:0:
320,192,67860,1,0,0:0:0:0:
64,192,68003,1,2,0:0:0:0:
448,192,68003,1,0,0:0:0:0:
64,192,68146,1,0,0:0:0:0:
320,192,68289,1,2,0:0:0:0:
448,192,68289,1,0,0:0:0:0:
320,192,68432,1,0,0:0:0:0:
64,192,68574,1,2,0:0:0:0:
448,192,68574,1,0,0:0:0:0:
64,192,68717,1,0,0:0:0:0:
320,192,68860,128,2,70003:0:0:0:0:
448,192,68860,1,0,0:0:0:0:
448,192,69003,1,0,0:0:0:0:
64,192,69146,1,2,0:0:0:0:
192,192,69146,1,0,0:0:0:0:
192,192,69289,1,0,0:0:0:0:
64,192,69432,1,2,0:0:0:0:
448,192,69432,1,0,0:0:0:0:
448,192,69574,1,0,0:0:0:0:
64,192,69717,1,2,0:0:0:0:
192,192,69717,1,0,0:0:0:0:
192,192,69860,1,0,0:0:0:0:
64,192,70003,1,2,0:0:0:0:
192,192,70003,1,4,0:0:0:0:
448,192,70003,128,0,74574:0:0:0:0:
64,192,70146,1,0,0:0:0:0:
192,192,70289,1,2,0:0:0:0:
320,192,70289,1,0,0:0:0:0:
320,192,70432,1,0,0:0:0:0:
64,192,70574,1,2,0:0:0:0:
192,192,70574,1,0,0:0:0:0:
64,192,70717,1,0,0:0:0:0:
192,192,70860,1,2,0:0:0:0:
320,192,70860,1,0,0:0:0:0:
320,192,71003,1,0,0:0:0:0:
64,192,71146,1,2,0:0:0:0:
192,192,71146,1,0,0:0:0:0:
64,192,71289,1,0,0:0:0:0:
192,192,71432,1,2,0:0:0:0:
320,192,71432,1,0,0:0:0:0:
320,192,71574,1,0,0:0:0:0:
64,192,71717,1,2,0:0:0:0:
192,192,71717,1,0,0:0:0:0:
64,192,71860,1,0,0:0:0:0:
192,192,72003,1,2,0:0:0:0:
320,192,72003,1,0,0:0:0:0:
320,192,72146,1,0,0:0:0:0:
64,192,72289,1,2,0:0:0:0:
192,192,72289,1,0,0:0:0:0:
192,192,72432,1,0,0:0:0:0:
64,192,72574,1,2,0:0:0:0:
320,192,72574,1,0,0:0:0:0:
320,192,72717,1,0,0:0:0:0:
64,192,72860,1,2,0:0:0:0:
192,192,72860,1,0,0:0:0:0:
192,192,73003,1,0,0:0:0:0:
64,192,73146,1,2,0:0:0:0:
320,192,73146,1,0,0:0:0:0:
320,192,73289,1,0,0:0:0:0:
64,192,73432,1,2,0:0:0:0:
192,192,73432,1,0,0:0:0:0:
192,192,73574,1,0,0:0:0:0:
64,192,73717,1,2,0:0:0:0:
320,192,73717,1,0,0:0:0:0:
64,192,73860,128,0,74217:0:0:0:0:
192,192,74003,1,2,0:0:0:0:
320,192,74003,1,0,0:0:0:0:
320,192,74146,1,0,0:0:0:0:
64,192,74289,128,8,74503:0:0:0:0:
192,192,74289,1,0,0:0:0:0:
320,192,74289,1,0,0:0:0:0:
192,192,74432,1,0,0:0:0:0:
64,192,74574,1,4,0:0:0:0:
192,192,74574,128,2,74789:0:0:0:0:
320,192,74574,128,0,74646:0:0:0:70:push_scratch.wav
320,192,74717,128,0,74789:0:0:0:0:
192,192,74860,128,8,74932:0:0:0:0:
320,192,74860,128,0,75074:0:0:0:50:hihat02.wav
448,192,74860,1,0,0:0:0:0:
192,192,75003,128,2,75074:0:0:0:0:
192,192,75146,128,0,75360:0:0:0:70:HHOpen.wav
320,192,75146,128,0,75217:0:0:0:0:
320,192,75289,128,2,75360:0:0:0:0:
64,192,75432,1,8,0:0:0:0:
192,192,75432,128,0,75503:0:0:0:50:hihat02.wav
320,192,75432,128,0,75646:0:0:0:0:
192,192,75574,128,2,75646:0:0:0:0:
64,192,75717,128,0,75789:0:0:0:70:HHOpen.wav
192,192,75717,128,0,75932:0:0:0:0:
64,192,75860,128,2,75932:0:0:0:0:
64,192,76003,128,8,76217:0:0:0:0:
192,192,76003,128,0,76074:0:0:0:50:hihat02.wav
448,192,76003,1,0,0:0:0:0:
192,192,76146,128,2,76217:0:0:0:0:
64,192,76289,128,0,76360:0:0:0:70:HHOpen.wav
192,192,76289,128,0,76503:0:0:0:0:
64,192,76432,128,2,76503:0:0:0:0:
64,192,76574,128,8,76789:0:0:0:0:
192,192,76574,128,0,76646:0:0:0:50:hihat02.wav
320,192,76574,1,0,0:0:0:0:
192,192,76717,128,0,76789:0:0:0:0:
64,192,76860,128,2,76932:0:0:0:0:
320,192,76860,128,0,77074:0:0:0:70:HHOpen.wav
64,192,77003,128,0,77074:0:0:0:0:
64,192,77146,128,8,77360:0:0:0:0:
192,192,77146,1,0,0:0:0:50:hihat02.wav
320,192,77146,128,0,77217:0:0:0:0:
320,192,77289,128,2,77360:0:0:0:0:
64,192,77432,128,0,77503:0:0:0:70:HHOpen.wav
320,192,77432,128,0,77646:0:0:0:0:
64,192,77574,128,2,77646:0:0:0:0:
64,192,77717,128,8,77932:0:0:0:0:
320,192,77717,128,0,77789:0:0:0:50:hihat02.wav
448,192,77717,1,0,0:0:0:0:
320,192,77860,128,2,77932:0:0:0:0:
192,192,78003,128,0,78074:0:0:0:70:HHOpen.wav
320,192,78003,128,0,78217:0:0:0:0:
192,192,78146,128,2,78217:0:0:0:0:
64,192,78289,1,8,0:0:0:0:
192,192,78289,128,0,78503:0:0:0:50:hihat02.wav
320,192,78289,128,0,78360:0:0:0:0:
320,192,78432,128,2,78503:0:0:0:0:
192,192,78574,128,0,78646:0:0:0:70:HHOpen.wav
320,192,78574,128,0,78789:0:0:0:0:
192,192,78717,128,2,78789:0:0:0:0:
192,192,78860,128,8,79074:0:0:0:0:
320,192,78860,128,0,78932:0:0:0:50:hihat02.wav
448,192,78860,1,0,0:0:0:0:
320,192,79003,128,0,79074:0:0:0:0:
64,192,79146,1,2,0:0:0:0:
192,192,79146,128,4,79360:0:0:0:0:
448,192,79146,128,0,79217:0:0:0:0:
448,192,79289,128,0,79360:0:0:0:0:
192,192,79432,128,8,79503:0:0:0:0:
320,192,79432,1,0,0:0:0:50:hihat02.wav
448,192,79432,128,0,79646:0:0:0:0:
192,192,79574,128,2,79646:0:0:0:0:
192,192,79717,128,0,79932:0:0:0:70:HHOpen.wav
448,192,79717,128,0,79789:0:0:0:0:
448,192,79860,128,2,79932:0:0:0:0:
64,192,80003,1,8,0:0:0:0:
192,192,80003,128,0,80074:0:0:0:50:hihat02.wav
448,192,80003,128,0,80217:0:0:0:0:
192,192,80146,128,2,80217:0:0:0:0:
192,192,80289,128,0,80503:0:0:0:70:HHOpen.wav
448,192,80289,128,0,80360:0:0:0:0:
448,192,80432,128,2,80503:0:0:0:0:
192,192,80574,128,8,80646:0:0:0:0:
320,192,80574,1,0,0:0:0:50:hihat02.wav
448,192,80574,128,0,80789:0:0:0:0:
192,192,80717,128,2,80789:0:0:0:0:
192,192,80860,128,0,81074:0:0:0:70:HHOpen.wav
448,192,80860,128,0,80932:0:0:0:0:
448,192,81003,128,2,81074:0:0:0:0:
64,192,81146,1,8,0:0:0:0:
192,192,81146,128,0,81217:0:0:0:50:hihat02.wav
448,192,81146,128,0,81360:0:0:0:0:
192,192,81289,128,2,81360:0:0:0:0:
192,192,81432,1,8,0:0:0:0:
320,192,81432,128,4,81646:0:0:0:0:
448,192,81432,128,0,81503:0:0:0:0:
448,192,81574,128,2,81646:0:0:0:0:
64,192,81717,1,8,0:0:0:0:
320,192,81717,128,0,81789:0:0:0:50:hihat02.wav
448,192,81717,128,0,81932:0:0:0:0:
320,192,81860,128,2,81932:0:0:0:0:
192,192,82003,1,8,0:0:0:0:
320,192,82003,128,0,82217:0:0:0:50:hihat02.wav
448,192,82003,128,0,82074:0:0:0:0:
448,192,82146,128,2,82217:0:0:0:0:
64,192,82289,1,8,0:0:0:0:
320,192,82289,128,0,82360:0:0:0:50:hihat02.wav
448,192,82289,128,0,82503:0:0:0:0:
320,192,82432,128,2,82503:0:0:0:0:
192,192,82574,128,8,82646:0:0:0:0:
320,192,82574,1,0,0:0:0:70:HHOpen.wav
448,192,82574,128,0,82932:0:0:0:0:
192,192,82717,128,2,82789:0:0:0:0:
192,192,82860,128,2,83074:0:0:0:0:
448,192,83003,128,0,83360:0:0:0:70:tom01.wav
192,192,83146,128,2,83217:0:0:0:0:
192,192,83289,128,2,83360:0:0:0:0:
192,192,83432,128,8,83503:0:0:0:0:
320,192,83432,1,0,0:0:0:0:
448,192,83432,128,0,83503:0:0:0:0:
192,192,83574,128,8,83646:0:0:0:0:
320,192,83574,1,0,0:0:0:0:
448,192,83574,128,0,83646:0:0:0:0:
64,192,83717,128,2,83932:0:0:0:0:
192,192,83717,1,4,0:0:0:0:
320,192,83717,128,0,83789:0:0:0:100:LR_Snare Hollow.wav
320,192,83860,128,0,83932:0:0:0:0:
64,192,84003,128,8,84074:0:0:0:0:
320,192,84003,128,0,84217:0:0:0:50:hihat02.wav
448,192,84003,1,0,0:0:0:0:
64,192,84146,128,2,84217:0:0:0:0:
64,192,84289,128,0,84503:0:0:0:70:HHOpen.wav
320,192,84289,128,0,84360:0:0:0:0:
320,192,84432,128,2,84503:0:0:0:0:
64,192,84574,128,8,84646:0:0:0:0:
192,192,84574,1,0,0:0:0:50:hihat02.wav
320,192,84574,128,0,84789:0:0:0:0:
64,192,84717,128,2,84789:0:0:0:0:
64,192,84860,128,0,85074:0:0:0:70:HHOpen.wav
192,192,84860,128,0,84932:0:0:0:0:
192,192,85003,128,2,85074:0:0:0:0:
64,192,85146,128,8,85217:0:0:0:0:
192,192,85146,128,0,85360:0:0:0:50:hihat02.wav
320,192,85146,1,0,0:0:0:0:
64,192,85289,128,2,85360:0:0:0:0:
64,192,85432,128,0,85646:0:0:0:70:HHOpen.wav
192,192,85432,128,0,85503:0:0:0:0:
192,192,85574,128,2,85646:0:0:0:0:
64,192,85717,128,8,85789:0:0:0:0:
192,192,85717,128,0,85932:0:0:0:50:hihat02.wav
448,192,85717,1,0,0:0:0:0:
64,192,85860,128,0,85932:0:0:0:0:
64,192,86003,128,2,86217:0:0:0:0:
320,192,86003,128,0,86074:0:0:0:70:HHOpen.wav
320,192,86146,128,0,86217:0:0:0:0:
64,192,86289,128,8,86360:0:0:0:0:
192,192,86289,1,0,0:0:0:50:hihat02.wav
320,192,86289,128,0,86503:0:0:0:0:
64,192,86432,128,2,86503:0:0:0:0:
64,192,86574,128,0,86789:0:0:0:70:HHOpen.wav
320,192,86574,128,0,86646:0:0:0:0:
320,192,86717,128,2,86789:0:0:0:0:
64,192,86860,128,8,86932:0:0:0:0:
320,192,86860,128,0,87074:0:0:0:50:hihat02.wav
448,192,86860,1,0,0:0:0:0:
64,192,87003,128,2,87074:0:0:0:0:
192,192,87146,128,0,87217:0:0:0:70:HHOpen.wav
448,192,87146,128,0,87360:0:0:0:0:
192,192,87289,128,2,87360:0:0:0:0:
192,192,87432,128,8,87646:0:0:0:0:
320,192,87432,1,0,0:0:0:50:hihat02.wav
448,192,87432,128,0,87503:0:0:0:0:
448,192,87574,128,2,87646:0:0:0:0:
192,192,87717,128,0,87789:0:0:0:70:HHOpen.wav
448,192,87717,128,0,87932:0:0:0:0:
192,192,87860,128,2,87932:0:0:0:0:
64,192,88003,1,8,0:0:0:0:
192,192,88003,128,0,88217:0:0:0:50:hihat02.wav
448,192,88003,128,0,88074:0:0:0:0:
448,192,88146,128,0,88217:0:0:0:0:
192,192,88289,1,4,0:0:0:0:
320,192,88289,128,2,88360:0:0:0:0:
448,192,88289,128,0,88503:0:0:0:0:
320,192,88432,128,2,88503:0:0:0:0:
192,192,88503,1,2,0:0:0:0:
64,192,88574,1,8,0:0:0:0:
320,192,88574,128,0,88789:0:0:0:50:hihat02.wav
448,192,88574,128,0,88646:0:0:0:0:
448,192,88717,128,2,88789:0:0:0:0:
64,192,88789,1,2,0:0:0:0:
192,192,88860,1,8,0:0:0:0:
320,192,88860,128,0,88932:0:0:0:70:HHOpen.wav
448,192,88860,128,0,89074:0:0:0:0:
320,192,89003,128,2,89074:0:0:0:0:
192,192,89074,1,2,0:0:0:0:
64,192,89146,1,8,0:0:0:0:
320,192,89146,128,0,89360:0:0:0:50:hihat02.wav
448,192,89146,128,0,89217:0:0:0:0:
448,192,89289,128,2,89360:0:0:0:0:
64,192,89360,1,2,0:0:0:0:
192,192,89432,1,8,0:0:0:0:
320,192,89432,128,0,89503:0:0:0:70:HHOpen.wav
448,192,89432,128,0,89646:0:0:0:0:
320,192,89574,128,2,89646:0:0:0:0:
192,192,89646,1,2,0:0:0:0:
64,192,89717,1,8,0:0:0:0:
320,192,89717,128,0,89932:0:0:0:50:hihat02.wav
448,192,89717,128,0,89789:0:0:0:0:
448,192,89860,128,2,89932:0:0:0:0:
64,192,89932,1,2,0:0:0:0:
192,192,90003,1,8,0:0:0:0:
320,192,90003,128,0,90074:0:0:0:70:HHOpen.wav
448,192,90003,128,0,90217:0:0:0:0:
320,192,90146,128,2,90217:0:0:0:0:
192,192,90217,1,2,0:0:0:0:
64,192,90289,1,8,0:0:0:0:
320,192,90289,128,0,90503:0:0:0:50:hihat02.wav
448,192,90289,128,0,90360:0:0:0:0:
448,192,90432,128,0,90503:0:0:0:0:
64,192,90503,1,0,0:0:0:0:
192,192,90574,1,2,0:0:0:0:
320,192,90574,1,0,0:0:0:0:
448,192,90574,1,0,0:0:0:0:
64,192,90646,1,0,0:0:0:0:
320,192,90717,1,8,0:0:0:0:
448,192,90717,1,0,0:0:0:0:
192,192,90789,1,0,0:0:0:0:
320,192,90860,1,8,0:0:0:0:
448,192,90860,1,0,0:0:0:50:hihat02.wav
64,192,90932,1,0,0:0:0:0:
192,192,91003,1,2,0:0:0:0:
320,192,91074,1,0,0:0:0:0:
64,192,91146,1,8,0:0:0:0:
192,192,91146,1,0,0:0:0:50:hihat02.wav
320,192,91217,1,0,0:0:0:0:
64,192,91289,1,8,0:0:0:0:
192,192,91289,1,0,0:0:0:0:
448,192,91360,1,0,0:0:0:0:
320,192,91432,1,2,0:0:0:0:
192,192,91503,1,0,0:0:0:0:
64,192,91574,1,8,0:0:0:0:
448,192,91574,1,0,0:0:0:0:
320,192,91646,1,0,0:0:0:0:
64,192,91717,1,2,0:0:0:0:
192,192,91717,1,0,0:0:0:70:HHOpen.wav
448,192,91812,1,8,0:0:0:0:
64,192,91908,1,8,0:0:0:0:
320,192,91908,1,0,0:0:0:0:
192,192,92003,1,8,0:0:0:0:
320,192,92098,1,8,0:0:0:0:
448,192,92098,1,0,0:0:0:0:
192,192,92193,1,8,0:0:0:0:
64,192,92289,1,8,0:0:0:0:
448,192,92289,1,0,0:0:0:0:
320,192,92384,1,8,0:0:0:0:
64,192,92479,1,8,0:0:0:0:
192,192,92479,1,0,0:0:0:0:
320,192,92574,1,0,0:0:0:70:tom02.wav
64,192,92670,1,0,0:0:0:70:tom03.wav
448,192,92670,1,0,0:0:0:0:
192,192,92765,1,0,0:0:0:70:tom04.wav
64,192,92860,128,2,92908:0:0:0:0:
320,192,92860,128,4,92908:0:0:0:0:
448,192,92860,1,0,0:0:0:70:push_scratch.wav
192,192,93003,1,0,0:0:0:50:hihat02.wav
64,192,93146,128,8,93193:0:0:0:0:
320,192,93146,128,0,93193:0:0:0:0:
448,192,93146,1,0,0:0:0:0:
192,192,93289,128,0,93336:0:0:0:50:hihat02.wav
448,192,93289,128,0,93336:0:0:0:0:
320,192,93432,1,2,0:0:0:0:
192,192,93574,128,0,93622:0:0:0:50:hihat02.wav
448,192,93574,128,0,93622:0:0:0:0:
64,192,93717,128,8,93765:0:0:0:0:
320,192,93717,128,0,93765:0:0:0:0:
448,192,93717,1,0,0:0:0:0:
192,192,93860,1,0,0:0:0:50:hihat02.wav
64,192,94003,128,2,94051:0:0:0:0:
320,192,94003,128,0,94051:0:0:0:0:
320,192,94146,128,0,94193:0:0:0:50:hihat02.wav
448,192,94146,128,0,94193:0:0:0:0:
64,192,94289,1,8,0:0:0:0:
192,192,94289,1,0,0:0:0:0:
448,192,94289,1,0,0:0:0:0:
320,192,94432,128,0,94479:0:0:0:50:hihat02.wav
448,192,94432,128,0,94479:0:0:0:0:
192,192,94574,128,2,94622:0:0:0:0:
320,192,94574,128,0,94622:0:0:0:0:
64,192,94717,1,0,0:0:0:50:hihat02.wav
64,192,94860,128,8,94908:0:0:0:0:
192,192,94860,128,0,94908:0:0:0:0:
320,192,94860,1,0,0:0:0:0:
448,192,95003,1,0,0:0:0:50:hihat02.wav
64,192,95146,128,2,95193:0:0:0:0:
320,192,95146,128,0,95193:0:0:0:0:
192,192,95289,1,0,0:0:0:50:hihat02.wav
64,192,95432,128,8,95479:0:0:0:0:
320,192,95432,128,0,95479:0:0:0:0:
448,192,95432,1,0,0:0:0:0:
192,192,95574,128,0,95622:0:0:0:50:hihat02.wav
448,192,95574,128,0,95622:0:0:0:0:
64,192,95717,1,2,0:0:0:0:
192,192,95717,1,0,0:0:0:0:
192,192,95860,128,0,95908:0:0:0:50:hihat02.wav
448,192,95860,128,0,95908:0:0:0:0:
64,192,96003,128,8,96051:0:0:0:0:
320,192,96003,128,0,96051:0:0:0:0:
448,192,96003,1,0,0:0:0:0:
192,192,96146,1,0,0:0:0:50:hihat02.wav
64,192,96289,128,2,96336:0:0:0:0:
192,192,96289,128,0,96336:0:0:0:0:
320,192,96432,128,0,96479:0:0:0:50:hihat02.wav
448,192,96432,128,0,96479:0:0:0:0:
64,192,96574,1,8,0:0:0:0:
192,192,96574,1,0,0:0:0:0:
320,192,96574,1,0,0:0:0:0:
320,192,96717,128,0,96765:0:0:0:50:hihat02.wav
448,192,96717,128,0,96765:0:0:0:0:
64,192,96860,128,2,96908:0:0:0:0:
192,192,96860,128,0,96908:0:0:0:0:
448,192,97003,1,0,0:0:0:50:hihat02.wav
64,192,97146,1,8,0:0:0:0:
192,192,97146,128,0,97193:0:0:0:0:
320,192,97146,128,0,97193:0:0:0:0:
320,192,97289,1,0,0:0:0:50:hihat02.wav
192,192,97432,128,2,97479:0:0:0:0:
448,192,97432,128,0,97479:0:0:0:0:
320,192,97574,1,0,0:0:0:50:hihat02.wav
64,192,97717,1,8,0:0:0:0:
192,192,97717,128,0,97765:0:0:0:0:
448,192,97717,128,0,97765:0:0:0:0:
320,192,97860,128,0,97908:0:0:0:50:hihat02.wav
448,192,97860,128,0,97908:0:0:0:0:
192,192,98003,1,2,0:0:0:0:
320,192,98146,128,0,98193:0:0:0:50:hihat02.wav
448,192,98146,128,0,98193:0:0:0:0:
64,192,98289,1,8,0:0:0:0:
192,192,98289,128,0,98336:0:0:0:0:
448,192,98289,128,0,98336:0:0:0:0:
320,192,98432,1,0,0:0:0:50:hihat02.wav
192,192,98574,128,2,98622:0:0:0:0:
448,192,98574,128,0,98622:0:0:0:0:
192,192,98717,128,0,98765:0:0:0:50:hihat02.wav
320,192,98717,128,0,98765:0:0:0:0:
64,192,98860,1,8,0:0:0:0:
192,192,98860,1,0,0:0:0:0:
448,192,98860,1,0,0:0:0:0:
192,192,99003,128,0,99051:0:0:0:50:hihat02.wav
320,192,99003,128,0,99051:0:0:0:0:
64,192,99146,128,2,99193:0:0:0:0:
320,192,99146,128,0,99193:0:0:0:0:
448,192,99289,1,0,0:0:0:50:hihat02.wav
192,192,99432,128,8,99479:0:0:0:0:
320,192,99432,1,0,0:0:0:0:
448,192,99432,128,0,99479:0:0:0:0:
64,192,99574,1,0,0:0:0:50:hihat02.wav
192,192,99717,128,2,99765:0:0:0:0:
320,192,99717,128,0,99765:0:0:0:0:
320,192,99860,1,0,0:0:0:50:hihat02.wav
64,192,100003,1,8,0:0:0:0:
192,192,100003,1,0,0:0:0:0:
448,192,100003,1,0,0:0:0:0:
64,192,100146,128,0,100193:0:0:0:50:hihat02.wav
320,192,100146,128,0,100193:0:0:0:0:
192,192,100289,1,2,0:0:0:0:
448,192,100289,1,0,0:0:0:0:
320,192,100432,1,0,0:0:0:50:hihat02.wav
64,192,100574,1,8,0:0:0:0:
192,192,100574,1,0,0:0:0:0:
448,192,100574,1,0,0:0:0:0:
64,192,100717,1,0,0:0:0:50:hihat02.wav
192,192,100860,1,8,0:0:0:0:
320,192,100860,128,0,100908:0:0:0:50:hihat02.wav
448,192,100860,128,0,100908:0:0:0:0:
320,192,101003,1,2,0:0:0:0:
192,192,101146,1,2,0:0:0:0:
64,192,101289,128,0,101336:0:0:0:70:tom03.wav
192,192,101289,128,0,101336:0:0:0:50:hihat02.wav
320,192,101432,1,2,0:0:0:0:
192,192,101574,1,2,0:0:0:0:
64,192,101717,128,0,102003:0:0:0:70:tom04.wav
448,192,101717,1,0,0:0:0:50:hihat02.wav
320,192,101860,1,2,0:0:0:0:
192,192,102003,128,4,102574:0:0:0:0:
320,192,102003,1,2,0:0:0:0:
448,192,102003,1,0,0:0:0:70:push_scratch.wav
64,192,102146,1,0,0:0:0:0:
64,192,102289,1,8,0:0:0:0:
320,192,102289,1,0,0:0:0:70:hihat13.wav
448,192,102289,1,0,0:0:0:0:
448,192,102432,1,2,0:0:0:0:
64,192,102574,1,0,0:0:0:100:LR_HiHat SClick.wav
320,192,102574,128,0,103146:0:0:0:0:
448,192,102717,1,2,0:0:0:0:
64,192,102860,1,8,0:0:0:0:
192,192,102860,1,0,0:0:0:70:hihat13.wav
448,192,102860,1,0,0:0:0:0:
64,192,103003,1,2,0:0:0:0:
192,192,103146,1,0,0:0:0:100:LR_HiHat SClick.wav
448,192,103146,128,0,103432:0:0:0:0:
320,192,103289,1,2,0:0:0:0:
64,192,103432,1,8,0:0:0:0:
192,192,103432,1,0,0:0:0:70:hihat13.wav
320,192,103432,128,0,103574:0:0:0:0:
192,192,103574,128,2,103717:0:0:0:0:
64,192,103717,1,0,0:0:0:100:LR_HiHat SClick.wav
448,192,103717,1,0,0:0:0:0:
320,192,103860,128,2,104289:0:0:0:0:
64,192,104003,1,8,0:0:0:0:
192,192,104003,1,0,0:0:0:70:hihat13.wav
448,192,104003,1,0,0:0:0:0:
64,192,104146,1,0,0:0:0:0:
192,192,104289,128,2,104860:0:0:0:0:
448,192,104289,1,0,0:0:0:100:LR_HiHat SClick.wav
64,192,104432,1,0,0:0:0:0:
64,192,104574,1,8,0:0:0:0:
320,192,104574,1,0,0:0:0:70:hihat13.wav
448,192,104574,1,0,0:0:0:0:
448,192,104717,1,2,0:0:0:0:
64,192,104860,128,0,105074:0:0:0:100:LR_HiHat SClick.wav
320,192,104860,1,0,0:0:0:0:
192,192,105003,1,2,0:0:0:0:
448,192,105074,128,0,105289:0:0:0:0:
64,192,105146,1,8,0:0:0:0:
192,192,105146,1,0,0:0:0:70:hihat13.wav
320,192,105146,1,0,0:0:0:0:
320,192,105289,128,2,105432:0:0:0:0:
192,192,105432,128,0,106003:0:0:0:100:LR_HiHat SClick.wav
448,192,105432,1,0,0:0:0:0:
64,192,105574,1,2,0:0:0:0:
64,192,105717,1,8,0:0:0:0:
320,192,105717,1,0,0:0:0:70:hihat13.wav
448,192,105717,1,0,0:0:0:0:
448,192,105860,1,2,0:0:0:0:
64,192,106003,1,0,0:0:0:100:LR_HiHat SClick.wav
320,192,106003,128,0,106574:0:0:0:0:
448,192,106146,1,2,0:0:0:0:
64,192,106289,1,8,0:0:0:0:
192,192,106289,1,0,0:0:0:70:hihat13.wav
448,192,106289,1,0,0:0:0:0:
64,192,106432,1,2,0:0:0:0:
64,192,106574,1,8,0:0:0:0:
192,192,106574,1,4,0:0:0:0:
448,192,106574,128,0,106765:0:0:0:0:
320,192,106670,128,0,106765:0:0:0:0:
192,192,106765,128,0,106860:0:0:0:0:
64,192,106860,128,8,107051:0:0:0:0:
320,192,106860,1,0,0:0:0:70:hihat13.wav
448,192,106860,1,0,0:0:0:0:
192,192,106955,128,0,107051:0:0:0:0:
320,192,107051,128,0,107146:0:0:0:0:
64,192,107146,1,8,0:0:0:0:
192,192,107146,1,0,0:0:0:100:LR_HiHat SClick.wav
448,192,107146,128,0,107336:0:0:0:0:
320,192,107241,128,0,107336:0:0:0:0:
192,192,107336,128,0,107432:0:0:0:0:
64,192,107432,128,8,107622:0:0:0:0:
320,192,107432,1,0,0:0:0:70:hihat13.wav
448,192,107432,1,0,0:0:0:0:
192,192,107527,128,0,107622:0:0:0:0:
320,192,107622,128,0,107717:0:0:0:0:
64,192,107717,1,8,0:0:0:0:
192,192,107717,1,0,0:0:0:100:LR_HiHat SClick.wav
448,192,107717,128,0,107908:0:0:0:0:
320,192,107812,128,0,107908:0:0:0:0:
64,192,107908,128,0,108003:0:0:0:0:
192,192,108003,128,8,108193:0:0:0:0:
320,192,108003,1,0,0:0:0:70:hihat13.wav
448,192,108003,1,0,0:0:0:0:
64,192,108098,128,0,108193:0:0:0:0:
448,192,108193,128,0,108289:0:0:0:0:
64,192,108289,1,8,0:0:0:0:
192,192,108289,1,0,0:0:0:100:LR_HiHat SClick.wav
320,192,108289,128,0,108479:0:0:0:0:
448,192,108384,128,0,108479:0:0:0:0:
64,192,108479,128,0,108574:0:0:0:0:
192,192,108574,128,8,108765:0:0:0:0:
320,192,108574,1,0,0:0:0:70:hihat13.wav
448,192,108574,1,0,0:0:0:0:
64,192,108670,128,0,108765:0:0:0:0:
448,192,108765,128,0,108860:0:0:0:0:
64,192,108860,128,4,108908:0:0:0:0:
192,192,108860,128,2,108908:0:0:0:0:
320,192,108860,1,0,0:0:0:0:
64,192,109003,1,8,0:0:0:0:
320,192,109003,1,0,0:0:0:0:
448,192,109003,1,0,0:0:0:0:
64,192,109146,128,8,109193:0:0:0:0:
192,192,109146,128,0,109193:0:0:0:70:hihat13.wav
448,192,109146,1,0,0:0:0:0:
192,192,109289,128,2,109336:0:0:0:0:
320,192,109289,128,0,109336:0:0:0:0:
64,192,109432,1,8,0:0:0:0:
320,192,109432,1,0,0:0:0:100:LR_HiHat SClick.wav
448,192,109432,1,0,0:0:0:0:
64,192,109574,1,8,0:0:0:0:
192,192,109574,128,0,109622:0:0:0:0:
320,192,109574,128,0,109622:0:0:0:0:
320,192,109717,128,2,109765:0:0:0:0:
448,192,109717,128,0,109765:0:0:0:70:hihat13.wav
64,192,109860,1,8,0:0:0:0:
192,192,109860,1,0,0:0:0:0:
448,192,109860,1,0,0:0:0:0:
320,192,110003,128,2,110098:0:0:0:0:
448,192,110003,128,0,110098:0:0:0:100:LR_HiHat SClick.wav
64,192,110098,128,8,110289:0:0:0:0:
192,192,110193,128,8,110289:0:0:0:0:
320,192,110193,128,0,110289:0:0:0:0:
448,192,110289,128,8,110479:0:0:0:0:
192,192,110384,128,0,110479:0:0:0:70:tom01.wav
320,192,110384,128,0,110479:0:0:0:0:
64,192,110479,128,0,110574:0:0:0:70:tom03.wav
192,192,110574,128,2,110717:0:0:0:0:
320,192,110574,128,4,110717:0:0:0:0:
448,192,110574,128,0,110717:0:0:0:70:tom04.wav
64,192,110789,128,2,110932:0:0:0:0:
192,192,110789,128,4,110932:0:0:0:0:
320,192,110789,128,0,110932:0:0:0:0:
64,192,111003,128,4,111074:0:0:0:0:
192,192,111003,128,2,111074:0:0:0:0:
448,192,111003,128,0,111074:0:0:0:0:
64,192,111146,128,2,113574:0:0:0:0:
320,192,111146,128,4,113574:0:0:0:0:
448,192,111146,128,0,113503:0:0:0:0:
448,192,113574,128,0,113717:0:0:0:0:
320,192,113717,128,0,113860:0:0:0:0:
448,192,113860,128,0,114003:0:0:0:0:
192,192,114003,128,0,114146:0:0:0:0:
448,192,114146,128,0,114289:0:0:0:0:
64,192,114289,128,0,114432:0:0:0:0:
448,192,114432,128,0,114574:0:0:0:0:
192,192,114574,128,0,114717:0:0:0:0:
448,192,114717,128,0,114860:0:0:0:0:
320,192,114860,128,0,115003:0:0:0:0:
448,192,115003,128,0,115146:0:0:0:0:
64,192,115146,128,0,115432:0:0:0:0:
192,192,115146,128,0,115432:0:0:0:0:
448,192,115289,128,0,115432:0:0:0:0:
320,192,115432,128,0,115574:0:0:0:0:
448,192,115574,128,0,115717:0:0:0:0:
64,192,115717,128,0,115860:0:0:0:0:
320,192,115860,128,0,116003:0:0:0:0:
192,192,116003,128,0,116146:0:0:0:0:
320,192,116146,128,0,116289:0:0:0:0:
448,192,116289,128,0,116432:0:0:0:0:
320,192,116432,128,0,116574:0:0:0:0:
192,192,116574,128,0,116717:0:0:0:0:
320,192,116717,128,0,116860:0:0:0:0:
64,192,116860,128,0,117003:0:0:0:0:
320,192,117003,128,0,117146:0:0:0:0:
192,192,117146,128,0,117289:0:0:0:0:
320,192,117289,128,0,117432:0:0:0:0:
64,192,117432,128,0,117574:0:0:0:0:
320,192,117574,128,0,117717:0:0:0:0:
192,192,117717,128,0,117860:0:0:0:0:
320,192,117860,128,0,118003:0:0:0:0:
64,192,118003,128,0,118289:0:0:0:0:
448,192,118003,128,0,118289:0:0:0:0:
192,192,118146,128,0,118289:0:0:0:0:
320,192,118289,128,0,118432:0:0:0:0:
192,192,118432,128,0,118574:0:0:0:0:
64,192,118574,128,0,118717:0:0:0:70:hihat02.wav
448,192,118574,128,0,118717:0:0:0:0:
192,192,118717,128,0,118860:0:0:0:0:
320,192,118860,128,0,119003:0:0:0:0:
64,192,119003,128,2,119074:0:0:0:0:
192,192,119003,128,0,119074:0:0:0:0:
320,192,119074,128,2,119146:0:0:0:0:
64,192,119146,128,8,119217:0:0:0:0:
192,192,119146,128,0,119289:0:0:0:0:
448,192,119146,128,0,119217:0:0:0:0:
320,192,119289,128,0,119432:0:0:0:70:tom01.wav
64,192,119432,128,2,119503:0:0:0:0:
192,192,119432,128,0,119574:0:0:0:0:
320,192,119574,128,0,119717:0:0:0:70:tom02.wav
448,192,119574,128,0,119646:0:0:0:0:
64,192,119717,128,2,119932:0:0:0:0:
192,192,119717,128,0,119932:0:0:0:0:
320,192,119860,128,0,120074:0:0:0:70:tom03.wav
448,192,119860,128,0,120074:0:0:0:0:
64,192,120003,128,2,120217:0:0:0:0:
192,192,120003,128,0,120217:0:0:0:0:
320,192,120146,128,8,120217:0:0:0:0:
448,192,120146,128,0,120217:0:0:0:0:
64,192,120289,128,2,121432:0:0:0:0:
192,192,120289,1,4,0:0:0:0:
448,192,120289,1,0,0:0:0:70:push_scratch.wav
320,192,120574,1,0,0:0:0:70:tom02.wav
320,192,120860,1,8,0:0:0:0:
448,192,120860,1,0,0:0:0:100:LR_HiHat SClick.wav
192,192,121146,1,0,0:0:0:70:tom02.wav
448,192,121289,1,8,0:0:0:0:
320,192,121360,1,8,0:0:0:0:
192,192,121432,128,2,122003:0:0:0:0:
448,192,121432,1,0,0:0:0:100:LR_HiHat SClick.wav
320,192,121574,1,8,0:0:0:0:
448,192,121574,1,0,0:0:0:0:
64,192,121717,1,2,0:0:0:0:
320,192,122003,128,8,122574:0:0:0:0:
448,192,122003,1,0,0:0:0:100:LR_HiHat SClick.wav
64,192,122146,1,2,0:0:0:0:
192,192,122432,1,2,0:0:0:0:
64,192,122574,1,2,0:0:0:0:
192,192,122574,1,4,0:0:0:0:
448,192,122574,128,0,123717:0:0:0:0:
192,192,122860,1,0,0:0:0:70:tom02.wav
320,192,123003,1,2,0:0:0:0:
64,192,123146,1,8,0:0:0:0:
192,192,123146,1,0,0:0:0:100:LR_HiHat SClick.wav
320,192,123289,1,2,0:0:0:0:
64,192,123574,1,8,0:0:0:0:
192,192,123646,1,8,0:0:0:0:
64,192,123717,1,2,0:0:0:0:
320,192,123717,128,0,124860:0:0:0:100:LR_HiHat SClick.wav
64,192,123860,1,8,0:0:0:0:
192,192,123860,1,0,0:0:0:0:
448,192,124003,1,2,0:0:0:0:
64,192,124289,1,8,0:0:0:0:
192,192,124289,1,0,0:0:0:100:LR_HiHat SClick.wav
448,192,124432,1,2,0:0:0:0:
192,192,124717,1,2,0:0:0:0:
64,192,124860,1,2,0:0:0:0:
192,192,124860,128,4,126003:0:0:0:0:
448,192,124860,1,0,0:0:0:0:
320,192,125146,1,0,0:0:0:70:tom02.wav
320,192,125432,1,8,0:0:0:0:
448,192,125432,1,0,0:0:0:100:LR_HiHat SClick.wav
64,192,125574,1,2,0:0:0:0:
448,192,125860,1,8,0:0:0:0:
320,192,125932,1,8,0:0:0:0:
64,192,126003,128,2,126574:0:0:0:0:
448,192,126003,1,0,0:0:0:100:LR_HiHat SClick.wav
192,192,126146,1,8,0:0:0:0:
320,192,126146,1,0,0:0:0:0:
448,192,126289,1,2,0:0:0:0:
192,192,126574,128,8,127146:0:0:0:0:
320,192,126574,1,0,0:0:0:100:LR_HiHat SClick.wav
64,192,126717,1,2,0:0:0:0:
320,192,127003,1,2,0:0:0:0:
64,192,127074,1,2,0:0:0:0:
320,192,127146,128,8,128289:0:0:0:0:
448,192,127146,1,4,0:0:0:0:
192,192,127289,1,2,0:0:0:0:
64,192,127432,1,8,0:0:0:0:
192,192,127432,1,0,0:0:0:70:tom02.wav
64,192,127574,1,2,0:0:0:0:
64,192,127717,1,8,0:0:0:0:
192,192,127717,1,0,0:0:0:70:hihat02.wav
192,192,127860,1,2,0:0:0:0:
64,192,128003,1,8,0:0:0:0:
192,192,128003,1,0,0:0:0:70:tom02.wav
64,192,128146,1,2,0:0:0:0:
192,192,128217,1,2,0:0:0:0:
64,192,128289,1,8,0:0:0:0:
448,192,128289,128,4,129360:0:0:0:0:
192,192,128432,1,0,0:0:0:70:tom01.wav
64,192,128574,128,2,129360:0:0:0:0:
192,192,128717,1,8,0:0:0:0:
320,192,128717,1,4,0:0:0:0:
192,192,128860,128,0,129360:0:0:0:70:tom01.wav
320,192,129003,1,2,0:0:0:0:
320,192,129146,128,12,129360:0:0:0:0:
192,192,129432,128,4,129646:0:0:0:0:
320,192,129432,128,2,129646:0:0:0:0:
448,192,129432,128,0,129503:0:0:0:70:push_scratch.wav
448,192,129574,128,0,129646:0:0:0:0:
192,192,129717,128,8,130217:0:0:0:0:
320,192,129717,128,0,129789:0:0:0:70:hihat13.wav
448,192,129717,128,0,129932:0:0:0:0:
320,192,129860,128,2,129932:0:0:0:0:
320,192,130003,128,0,130217:0:0:0:100:LR_HiHat SClick.wav
448,192,130003,128,0,130074:0:0:0:0:
448,192,130146,128,2,130217:0:0:0:0:
192,192,130289,128,8,130789:0:0:0:0:
320,192,130289,128,0,130360:0:0:0:70:hihat13.wav
448,192,130289,128,0,130503:0:0:0:0:
320,192,130432,128,2,130503:0:0:0:0:
320,192,130574,128,0,130789:0:0:0:100:LR_HiHat SClick.wav
448,192,130574,128,0,130646:0:0:0:0:
448,192,130717,128,2,130789:0:0:0:0:
64,192,130860,128,8,130932:0:0:0:0:
192,192,130860,128,0,131074:0:0:0:70:hihat13.wav
320,192,130860,128,0,131074:0:0:0:0:
64,192,131003,128,2,131360:0:0:0:0:
192,192,131146,128,0,131217:0:0:0:100:LR_HiHat SClick.wav
320,192,131146,128,0,131360:0:0:0:0:
192,192,131289,128,2,131360:0:0:0:0:
64,192,131432,128,8,131646:0:0:0:0:
192,192,131432,128,0,131932:0:0:0:70:hihat13.wav
320,192,131432,128,0,131503:0:0:0:0:
320,192,131574,128,0,131646:0:0:0:0:
320,192,131717,128,2,131932:0:0:0:0:
448,192,131717,128,0,131789:0:0:0:100:LR_HiHat SClick.wav
448,192,131860,128,0,131932:0:0:0:0:
192,192,132003,128,8,132217:0:0:0:0:
320,192,132003,128,0,132074:0:0:0:70:hihat13.wav
448,192,132003,128,0,132503:0:0:0:0:
320,192,132146,128,2,132360:0:0:0:0:
64,192,132289,128,0,132360:0:0:0:100:LR_HiHat SClick.wav
192,192,132289,128,0,132360:0:0:0:0:
192,192,132432,128,2,132503:0:0:0:0:
320,192,132432,128,0,132503:0:0:0:0:
64,192,132574,128,8,132646:0:0:0:0:
320,192,132574,128,0,132789:0:0:0:70:hihat13.wav
448,192,132574,128,0,132789:0:0:0:0:
64,192,132717,128,2,132789:0:0:0:0:
192,192,132717,128,0,132789:0:0:0:0:
320,192,132860,128,0,132932:0:0:0:100:LR_HiHat SClick.wav
448,192,132860,128,0,133074:0:0:0:0:
320,192,133003,128,2,133074:0:0:0:0:
192,192,133146,128,8,133217:0:0:0:0:
320,192,133146,128,0,133646:0:0:0:70:hihat13.wav
448,192,133146,128,0,133432:0:0:0:0:
192,192,133289,128,2,133360:0:0:0:0:
64,192,133432,128,0,133503:0:0:0:100:LR_HiHat SClick.wav
192,192,133432,128,0,133646:0:0:0:0:
64,192,133574,128,2,133646:0:0:0:0:
64,192,133717,128,8,133932:0:0:0:0:
192,192,133717,128,0,133789:0:0:0:70:hihat13.wav
320,192,133717,128,0,133932:0:0:0:0:
192,192,133860,128,0,133932:0:0:0:0:
64,192,134003,128,2,134217:0:0:0:0:
192,192,134003,128,4,134217:0:0:0:0:
320,192,134003,128,0,134074:0:0:0:0:
320,192,134146,128,0,134217:0:0:0:0:
64,192,134289,128,8,134789:0:0:0:0:
192,192,134289,128,0,134360:0:0:0:70:hihat13.wav
320,192,134289,128,0,134503:0:0:0:0:
192,192,134432,128,2,134503:0:0:0:0:
192,192,134574,128,0,134789:0:0:0:100:LR_HiHat SClick.wav
320,192,134574,128,0,134646:0:0:0:0:
320,192,134717,128,2,134789:0:0:0:0:
64,192,134860,128,8,135360:0:0:0:0:
192,192,134860,128,0,134932:0:0:0:70:hihat13.wav
320,192,134860,128,0,135074:0:0:0:0:
192,192,135003,128,2,135074:0:0:0:0:
192,192,135146,128,0,135360:0:0:0:100:LR_HiHat SClick.wav
320,192,135146,128,0,135217:0:0:0:0:
320,192,135289,128,2,135360:0:0:0:0:
192,192,135432,128,8,135646:0:0:0:0:
320,192,135432,128,0,135646:0:0:0:70:hihat13.wav
448,192,135432,128,0,135503:0:0:0:0:
448,192,135574,128,2,135932:0:0:0:0:
192,192,135717,128,0,135932:0:0:0:100:LR_HiHat SClick.wav
320,192,135717,128,0,135789:0:0:0:0:
320,192,135860,128,2,135932:0:0:0:0:
64,192,136003,128,8,136503:0:0:0:0:
192,192,136003,128,0,136074:0:0:0:70:hihat13.wav
320,192,136003,128,0,136217:0:0:0:0:
192,192,136146,128,0,136217:0:0:0:0:
192,192,136289,128,2,136503:0:0:0:0:
320,192,136289,128,0,136360:0:0:0:100:LR_HiHat SClick.wav
320,192,136432,128,0,136503:0:0:0:0:
192,192,136574,128,8,136646:0:0:0:0:
320,192,136574,128,0,136789:0:0:0:70:hihat13.wav
448,192,136574,128,0,137074:0:0:0:0:
192,192,136717,128,2,136789:0:0:0:0:
192,192,136860,128,0,137074:0:0:0:100:LR_HiHat SClick.wav
320,192,136860,128,0,136932:0:0:0:0:
320,192,137003,128,2,137074:0:0:0:0:
192,192,137146,128,8,137217:0:0:0:0:
320,192,137146,128,0,137360:0:0:0:70:hihat13.wav
448,192,137146,128,0,137646:0:0:0:0:
192,192,137289,128,2,137360:0:0:0:0:
192,192,137432,128,0,137646:0:0:0:100:LR_HiHat SClick.wav
320,192,137432,128,0,137503:0:0:0:0:
320,192,137574,128,2,137646:0:0:0:0:
192,192,137717,128,8,137932:0:0:0:0:
320,192,137717,128,0,137932:0:0:0:70:hihat13.wav
448,192,137717,128,0,137789:0:0:0:0:
448,192,137860,128,2,138217:0:0:0:0:
192,192,138003,128,0,138217:0:0:0:100:LR_HiHat SClick.wav
320,192,138003,128,0,138074:0:0:0:0:
320,192,138146,128,2,138217:0:0:0:0:
64,192,138289,128,8,138503:0:0:0:0:
192,192,138289,128,0,138360:0:0:0:70:hihat13.wav
320,192,138289,128,0,138503:0:0:0:0:
192,192,138432,128,0,138503:0:0:0:0:
64,192,138574,128,4,138646:0:0:0:0:
192,192,138574,128,2,138789:0:0:0:0:
320,192,138574,128,0,138789:0:0:0:0:
64,192,138717,128,0,138789:0:0:0:0:
64,192,138860,128,8,139074:0:0:0:0:
192,192,138860,128,0,138932:0:0:0:70:hihat13.wav
320,192,138860,128,0,139360:0:0:0:0:
192,192,139003,128,2,139074:0:0:0:0:
64,192,139146,128,0,139217:0:0:0:100:LR_HiHat SClick.wav
192,192,139146,128,0,139360:0:0:0:0:
64,192,139289,128,2,139360:0:0:0:0:
64,192,139432,128,8,139646:0:0:0:0:
192,192,139432,128,0,139503:0:0:0:70:hihat13.wav
320,192,139432,128,0,139932:0:0:0:0:
192,192,139574,128,2,139646:0:0:0:0:
64,192,139717,128,0,139789:0:0:0:100:LR_HiHat SClick.wav
192,192,139717,128,0,139932:0:0:0:0:
64,192,139860,128,2,139932:0:0:0:0:
64,192,140003,128,8,140503:0:0:0:0:
192,192,140003,128,0,140074:0:0:0:70:hihat13.wav
320,192,140003,128,0,140217:0:0:0:0:
192,192,140146,128,2,140217:0:0:0:0:
192,192,140289,128,0,140503:0:0:0:100:LR_HiHat SClick.wav
320,192,140289,128,0,140360:0:0:0:0:
320,192,140432,128,2,140503:0:0:0:0:
192,192,140574,128,8,140789:0:0:0:0:
320,192,140574,128,0,140789:0:0:0:70:hihat13.wav
448,192,140574,128,0,140646:0:0:0:0:
448,192,140717,128,0,140789:0:0:0:0:
192,192,140860,128,2,141074:0:0:0:0:
320,192,140860,128,4,140932:0:0:0:0:
448,192,140860,128,0,141360:0:0:0:0:
320,192,141003,128,0,141074:0:0:0:0:
192,192,141146,128,8,141217:0:0:0:0:
320,192,141146,128,0,141646:0:0:0:70:hihat13.wav
192,192,141289,128,2,141360:0:0:0:0:
64,192,141432,128,0,141503:0:0:0:100:LR_HiHat SClick.wav
192,192,141432,128,0,141646:0:0:0:0:
64,192,141574,128,2,141646:0:0:0:0:
64,192,141717,128,8,141932:0:0:0:0:
192,192,141717,128,0,141789:0:0:0:70:hihat13.wav
320,192,141717,128,0,141932:0:0:0:0:
192,192,141860,128,2,142217:0:0:0:0:
320,192,142003,128,2,142217:0:0:0:0:
448,192,142003,128,0,142074:0:0:0:100:LR_HiHat SClick.wav
448,192,142146,128,2,142217:0:0:0:0:
192,192,142289,128,8,142360:0:0:0:0:
320,192,142289,128,0,142360:0:0:0:70:hihat13.wav
448,192,142289,128,0,142789:0:0:0:0:
192,192,142432,128,2,142503:0:0:0:0:
320,192,142432,128,0,142646:0:0:0:0:
192,192,142574,128,0,142646:0:0:0:100:LR_HiHat SClick.wav
192,192,142717,128,2,142789:0:0:0:0:
320,192,142717,128,0,142789:0:0:0:0:
192,192,142860,128,8,143074:0:0:0:0:
320,192,142860,128,0,143003:0:0:0:70:hihat13.wav
448,192,142860,128,0,142932:0:0:0:0:
448,192,143003,128,2,143074:0:0:0:0:
320,192,143074,128,2,143146:0:0:0:0:
64,192,143146,128,2,143217:0:0:0:0:
192,192,143146,128,4,143289:0:0:0:0:
448,192,143146,1,0,0:0:0:0:
64,192,143289,128,2,143360:0:0:0:0:
192,192,143360,128,2,143432:0:0:0:0:
64,192,143432,1,8,0:0:0:0:
320,192,143432,128,0,143574:0:0:0:70:hihat13.wav
448,192,143432,128,0,143503:0:0:0:0:
448,192,143574,128,2,143646:0:0:0:0:
320,192,143646,128,2,143717:0:0:0:0:
64,192,143717,128,8,143789:0:0:0:0:
192,192,143717,128,0,143860:0:0:0:100:LR_HiHat SClick.wav
448,192,143717,1,0,0:0:0:0:
64,192,143860,128,2,143932:0:0:0:0:
192,192,143932,128,2,144003:0:0:0:0:
64,192,144003,1,8,0:0:0:0:
320,192,144003,128,0,144146:0:0:0:70:hihat13.wav
448,192,144003,128,0,144074:0:0:0:0:
448,192,144146,128,2,144217:0:0:0:0:
320,192,144217,128,2,144289:0:0:0:0:
64,192,144289,128,8,144360:0:0:0:0:
192,192,144289,128,0,144432:0:0:0:100:LR_HiHat SClick.wav
448,192,144289,1,0,0:0:0:0:
64,192,144432,128,2,144503:0:0:0:0:
192,192,144503,128,2,144574:0:0:0:0:
64,192,144574,1,8,0:0:0:0:
320,192,144574,128,0,144717:0:0:0:70:hihat13.wav
448,192,144574,128,0,144646:0:0:0:0:
448,192,144717,128,2,144789:0:0:0:0:
320,192,144789,128,2,144860:0:0:0:0:
64,192,144860,128,8,144932:0:0:0:0:
192,192,144860,128,0,145003:0:0:0:100:LR_HiHat SClick.wav
448,192,144860,1,0,0:0:0:0:
64,192,145003,128,2,145074:0:0:0:0:
192,192,145074,128,2,145146:0:0:0:0:
64,192,145146,1,8,0:0:0:0:
320,192,145146,128,0,145289:0:0:0:70:hihat13.wav
448,192,145146,128,0,145217:0:0:0:0:
448,192,145289,128,2,145360:0:0:0:0:
320,192,145360,128,2,145432:0:0:0:0:
64,192,145432,128,8,145765:0:0:0:0:
192,192,145432,128,4,145527:0:0:0:0:
448,192,145432,128,0,145717:0:0:0:0:
320,192,145527,128,0,145646:0:0:0:0:
192,192,145622,128,0,145765:0:0:0:0:
320,192,145717,128,2,145812:0:0:0:0:
448,192,145812,128,0,145908:0:0:0:0:
64,192,145860,128,8,146193:0:0:0:0:
192,192,145860,128,4,146098:0:0:0:0:
320,192,145908,128,0,146003:0:0:0:0:
448,192,146003,128,2,146193:0:0:0:0:
320,192,146098,128,0,146289:0:0:0:0:
192,192,146193,128,0,146384:0:0:0:0:
64,192,146289,128,4,146479:0:0:0:0:
448,192,146289,128,8,146622:0:0:0:0:
320,192,146384,128,0,146622:0:0:0:0:
192,192,146479,128,0,146670:0:0:0:0:
64,192,146574,128,2,146765:0:0:0:0:
320,192,146717,128,8,146955:0:0:0:0:
448,192,146717,128,4,147146:0:0:0:0:
192,192,146765,128,0,146860:0:0:0:0:
64,192,146860,128,2,147051:0:0:0:0:
192,192,146955,128,0,147051:0:0:0:0:
320,192,147051,128,0,147146:0:0:0:0:
64,192,147146,128,4,147241:0:0:0:0:
192,192,147146,128,8,147241:0:0:0:0:
320,192,147241,128,8,147336:0:0:0:0:
448,192,147241,128,0,147336:0:0:0:0:
64,192,147336,128,8,147432:0:0:0:0:
192,192,147336,128,0,147527:0:0:0:0:
320,192,147432,128,8,147622:0:0:0:0:
448,192,147432,128,0,147622:0:0:0:70:hihat13.wav
64,192,147527,128,0,147622:0:0:0:70:tom02.wav
192,192,147622,128,0,147717:0:0:0:70:tom03.wav
64,192,147717,128,4,147932:0:0:0:0:
320,192,147717,128,2,147932:0:0:0:0:
448,192,147717,128,0,147789:0:0:0:70:push_scratch.wav
448,192,147860,128,0,147932:0:0:0:0:
64,192,148003,128,8,148503:0:0:0:0:
320,192,148003,128,0,148074:0:0:0:70:hihat13.wav
448,192,148003,128,0,148217:0:0:0:0:
320,192,148146,128,0,148217:0:0:0:0:
320,192,148289,128,2,148503:0:0:0:0:
448,192,148289,128,0,148360:0:0:0:100:LR_HiHat SClick.wav
448,192,148432,128,0,148503:0:0:0:0:
64,192,148574,128,8,149074:0:0:0:0:
320,192,148574,128,0,148646:0:0:0:70:hihat13.wav
448,192,148574,128,0,148789:0:0:0:0:
320,192,148717,128,0,148789:0:0:0:0:
320,192,148860,128,2,149074:0:0:0:0:
448,192,148860,128,0,148932:0:0:0:100:LR_HiHat SClick.wav
448,192,149003,128,0,149074:0:0:0:0:
64,192,149146,128,8,149217:0:0:0:0:
320,192,149146,128,0,149360:0:0:0:70:hihat13.wav
448,192,149146,128,0,149360:0:0:0:0:
64,192,149289,128,0,149646:0:0:0:0:
192,192,149432,128,2,149503:0:0:0:0:
320,192,149432,128,0,149646:0:0:0:100:LR_HiHat SClick.wav
192,192,149574,128,0,149646:0:0:0:0:
64,192,149717,128,8,150217:0:0:0:0:
320,192,149717,128,0,149789:0:0:0:70:hihat13.wav
448,192,149717,128,0,149932:0:0:0:0:
320,192,149860,128,0,149932:0:0:0:0:
320,192,150003,128,2,150217:0:0:0:0:
448,192,150003,128,0,150074:0:0:0:100:LR_HiHat SClick.wav
448,192,150146,128,0,150217:0:0:0:0:
64,192,150289,128,8,150574:0:0:0:0:
320,192,150289,128,0,150360:0:0:0:70:hihat13.wav
448,192,150289,128,0,150503:0:0:0:0:
320,192,150432,128,0,150503:0:0:0:0:
320,192,150574,128,2,150789:0:0:0:0:
448,192,150574,128,0,150932:0:0:0:100:LR_HiHat SClick.wav
64,192,150717,128,0,150789:0:0:0:0:
192,192,150717,128,0,150789:0:0:0:0:
64,192,150860,128,8,151360:0:0:0:0:
192,192,150860,128,0,150932:0:0:0:70:hihat13.wav
320,192,150860,128,0,150932:0:0:0:0:
320,192,151003,128,0,151074:0:0:0:0:
448,192,151003,128,0,151074:0:0:0:0:
320,192,151146,128,2,151360:0:0:0:0:
448,192,151146,128,0,151217:0:0:0:100:LR_HiHat SClick.wav
448,192,151289,128,0,151360:0:0:0:0:
64,192,151432,128,8,151646:0:0:0:0:
192,192,151432,128,0,151503:0:0:0:70:hihat13.wav
320,192,151432,128,0,151932:0:0:0:0:
192,192,151574,128,0,151646:0:0:0:0:
64,192,151717,128,2,151789:0:0:0:0:
192,192,151717,128,0,151932:0:0:0:100:LR_HiHat SClick.wav
64,192,151860,128,0,151932:0:0:0:0:
192,192,152003,128,8,152074:0:0:0:0:
320,192,152003,128,0,152217:0:0:0:70:hihat13.wav
448,192,152003,128,0,152217:0:0:0:0:
192,192,152146,128,0,152217:0:0:0:0:
64,192,152289,128,2,152503:0:0:0:0:
320,192,152289,128,4,152360:0:0:0:0:
448,192,152289,128,0,152503:0:0:0:0:
320,192,152432,128,0,152503:0:0:0:0:
192,192,152574,128,8,152646:0:0:0:0:
320,192,152574,128,0,152789:0:0:0:70:hihat13.wav
448,192,152574,128,0,153074:0:0:0:0:
192,192,152717,128,0,152789:0:0:0:0:
192,192,152860,128,2,153074:0:0:0:0:
320,192,152860,128,0,152932:0:0:0:100:LR_HiHat SClick.wav
320,192,153003,128,0,153074:0:0:0:0:
192,192,153146,128,8,153217:0:0:0:0:
320,192,153146,128,0,153360:0:0:0:70:hihat13.wav
448,192,153146,128,0,153646:0:0:0:0:
192,192,153289,128,0,153360:0:0:0:0:
192,192,153432,128,2,153646:0:0:0:0:
320,192,153432,128,0,153503:0:0:0:100:LR_HiHat SClick.wav
320,192,153574,128,0,153646:0:0:0:0:
192,192,153717,128,8,154217:0:0:0:0:
320,192,153717,128,0,153932:0:0:0:70:hihat13.wav
448,192,153717,128,0,153789:0:0:0:0:
448,192,153860,128,0,153932:0:0:0:0:
320,192,154003,128,2,154074:0:0:0:0:
448,192,154003,128,0,154217:0:0:0:100:LR_HiHat SClick.wav
320,192,154146,128,0,154217:0:0:0:0:
64,192,154289,128,8,154360:0:0:0:0:
192,192,154289,128,0,154503:0:0:0:70:hihat13.wav
320,192,154289,128,0,154503:0:0:0:0:
64,192,154432,128,0,154789:0:0:0:0:
192,192,154574,128,2,154646:0:0:0:0:
320,192,154574,128,0,154789:0:0:0:100:LR_HiHat SClick.wav
192,192,154717,128,0,154789:0:0:0:0:
64,192,154860,128,8,155360:0:0:0:0:
192,192,154860,128,0,155074:0:0:0:70:hihat13.wav
320,192,154860,128,0,154932:0:0:0:0:
320,192,155003,128,0,155074:0:0:0:0:
192,192,155146,128,2,155217:0:0:0:0:
320,192,155146,128,0,155360:0:0:0:100:LR_HiHat SClick.wav
192,192,155289,128,0,155360:0:0:0:0:
64,192,155432,128,8,155932:0:0:0:0:
192,192,155432,128,0,155646:0:0:0:70:hihat13.wav
320,192,155432,128,0,155503:0:0:0:0:
320,192,155574,128,0,155646:0:0:0:0:
192,192,155717,128,2,155789:0:0:0:0:
320,192,155717,128,0,155932:0:0:0:100:LR_HiHat SClick.wav
192,192,155860,128,0,155932:0:0:0:0:
192,192,156003,128,8,156503:0:0:0:0:
320,192,156003,128,0,156217:0:0:0:70:hihat13.wav
448,192,156003,128,0,156074:0:0:0:0:
448,192,156146,128,0,156217:0:0:0:0:
320,192,156289,128,2,156360:0:0:0:0:
448,192,156289,128,0,156503:0:0:0:100:LR_HiHat SClick.wav
320,192,156432,128,0,156503:0:0:0:0:
64,192,156574,128,8,156789:0:0:0:0:
192,192,156574,128,0,156646:0:0:0:70:hihat13.wav
320,192,156574,128,0,156789:0:0:0:0:
192,192,156717,128,0,156789:0:0:0:0:
64,192,156860,128,4,156932:0:0:0:0:
192,192,156860,128,2,157074:0:0:0:0:
448,192,156860,128,0,157074:0:0:0:0:
64,192,157003,128,0,157074:0:0:0:0:
64,192,157146,128,8,157360:0:0:0:0:
192,192,157146,128,0,157217:0:0:0:70:hihat13.wav
448,192,157146,128,0,157646:0:0:0:0:
192,192,157289,128,2,157360:0:0:0:0:
64,192,157432,128,0,157503:0:0:0:100:LR_HiHat SClick.wav
192,192,157432,128,0,157646:0:0:0:0:
64,192,157574,128,2,157646:0:0:0:0:
64,192,157717,128,8,157932:0:0:0:0:
192,192,157717,128,0,157789:0:0:0:70:hihat13.wav
448,192,157717,128,0,158217:0:0:0:0:
192,192,157860,128,0,157932:0:0:0:0:
64,192,158003,128,2,158074:0:0:0:0:
192,192,158003,128,4,158217:0:0:0:0:
320,192,158003,128,0,158217:0:0:0:0:
64,192,158146,128,0,158217:0:0:0:0:
64,192,158289,128,8,158360:0:0:0:0:
192,192,158289,128,0,158503:0:0:0:70:hihat13.wav
448,192,158289,128,0,158789:0:0:0:0:
64,192,158432,128,2,158503:0:0:0:0:
64,192,158574,128,0,158789:0:0:0:100:LR_HiHat SClick.wav
192,192,158574,128,0,158646:0:0:0:0:
192,192,158717,128,2,158789:0:0:0:0:
192,192,158860,128,8,159074:0:0:0:0:
320,192,158860,128,0,159074:0:0:0:70:hihat13.wav
448,192,158860,128,0,158932:0:0:0:0:
448,192,159003,128,0,159074:0:0:0:0:
64,192,159146,1,2,0:0:0:0:
320,192,159146,128,4,159241:0:0:0:0:
448,192,159146,1,0,0:0:0:0:
192,192,159241,128,0,159336:0:0:0:0:
320,192,159336,128,0,159432:0:0:0:0:
64,192,159432,1,8,0:0:0:0:
192,192,159432,1,0,0:0:0:70:hihat13.wav
448,192,159432,128,0,159527:0:0:0:0:
320,192,159527,128,0,159622:0:0:0:0:
64,192,159622,128,0,159717:0:0:0:0:
192,192,159717,128,0,159812:0:0:0:100:LR_HiHat SClick.wav
448,192,159717,1,0,0:0:0:0:
320,192,159812,128,0,159908:0:0:0:0:
192,192,159908,128,0,160003:0:0:0:0:
64,192,160003,128,8,160098:0:0:0:0:
320,192,160003,1,0,0:0:0:70:hihat13.wav
448,192,160003,1,0,0:0:0:0:
192,192,160098,128,0,160193:0:0:0:0:
320,192,160193,128,0,160289:0:0:0:0:
64,192,160289,1,2,0:0:0:0:
192,192,160289,1,4,0:0:0:0:
448,192,160289,128,0,160360:0:0:0:0:
320,192,160360,128,0,160432:0:0:0:0:
192,192,160432,128,2,160503:0:0:0:0:
64,192,160503,128,0,160574:0:0:0:0:
320,192,160574,128,12,160646:0:0:0:0:
448,192,160574,128,0,160646:0:0:0:70:hihat13.wav
64,192,160646,128,0,160717:0:0:0:0:
192,192,160717,128,8,160860:0:0:0:0:
320,192,160717,128,0,160860:0:0:0:0:
448,192,160789,128,0,160860:0:0:0:0:
64,192,160860,128,2,160932:0:0:0:0:
192,192,160932,128,0,161003:0:0:0:0:
320,192,161003,128,8,161146:0:0:0:0:
448,192,161003,128,0,161146:0:0:0:0:
64,192,161074,128,0,161146:0:0:0:0:
192,192,161146,128,0,161217:0:0:0:70:tom01.wav
320,192,161217,128,0,161289:0:0:0:0:
64,192,161289,128,0,161360:0:0:0:70:tom03.wav
192,192,161289,128,0,161360:0:0:0:0:
448,192,161360,128,0,161432:0:0:0:0:
64,192,161432,1,4,0:0:0:0:
192,192,161432,1,2,0:0:0:0:
320,192,161432,1,0,0:0:0:70:push_scratch.wav
64,192,161574,1,0,0:0:0:0:
192,192,161717,1,8,0:0:0:0:
320,192,161717,1,0,0:0:0:70:hihat13.wav
448,192,161717,1,0,0:0:0:0:
448,192,161860,1,2,0:0:0:0:
64,192,162003,1,0,0:0:0:100:LR_HiHat SClick.wav
192,192,162003,1,0,0:0:0:0:
192,192,162146,1,2,0:0:0:0:
64,192,162289,1,8,0:0:0:0:
320,192,162289,1,0,0:0:0:70:hihat13.wav
448,192,162289,1,0,0:0:0:0:
64,192,162432,128,2,162503:0:0:0:0:
192,192,162503,128,0,162574:0:0:0:0:
320,192,162574,128,0,162789:0:0:0:100:LR_HiHat SClick.wav
448,192,162574,1,0,0:0:0:0:
192,192,162717,1,2,0:0:0:0:
64,192,162860,1,8,0:0:0:0:
320,192,162860,128,0,163003:0:0:0:70:hihat13.wav
448,192,162860,1,0,0:0:0:0:
192,192,163003,128,2,163289:0:0:0:0:
64,192,163146,1,0,0:0:0:100:LR_HiHat SClick.wav
320,192,163146,1,0,0:0:0:0:
448,192,163289,128,2,163432:0:0:0:0:
64,192,163432,1,8,0:0:0:0:
192,192,163432,1,0,0:0:0:70:hihat13.wav
320,192,163432,128,0,163574:0:0:0:0:
192,192,163574,128,0,163717:0:0:0:0:
64,192,163717,1,2,0:0:0:0:
320,192,163717,1,0,0:0:0:100:LR_HiHat SClick.wav
64,192,163860,1,0,0:0:0:0:
192,192,164003,1,8,0:0:0:0:
320,192,164003,1,0,0:0:0:70:hihat13.wav
448,192,164003,1,0,0:0:0:0:
448,192,164146,1,2,0:0:0:0:
64,192,164289,1,0,0:0:0:100:LR_HiHat SClick.wav
192,192,164289,1,0,0:0:0:0:
64,192,164432,1,2,0:0:0:0:
192,192,164574,1,8,0:0:0:0:
320,192,164574,1,0,0:0:0:70:hihat13.wav
448,192,164574,1,0,0:0:0:0:
192,192,164717,128,2,164789:0:0:0:0:
320,192,164789,128,0,164860:0:0:0:0:
64,192,164860,1,0,0:0:0:100:LR_HiHat SClick.wav
448,192,164860,128,0,165074:0:0:0:0:
320,192,165003,1,2,0:0:0:0:
64,192,165146,1,8,0:0:0:0:
192,192,165146,1,0,0:0:0:70:hihat13.wav
448,192,165146,128,0,165289:0:0:0:0:
320,192,165289,128,2,165503:0:0:0:0:
192,192,165432,1,0,0:0:0:100:LR_HiHat SClick.wav
320,192,165574,128,2,165717:0:0:0:0:
64,192,165717,1,8,0:0:0:0:
192,192,165717,128,0,165860:0:0:0:70:hihat13.wav
448,192,165717,1,0,0:0:0:0:
64,192,165860,128,2,166003:0:0:0:0:
192,192,166003,128,4,166074:0:0:0:0:
320,192,166003,128,8,166074:0:0:0:0:
448,192,166003,1,0,0:0:0:0:
320,192,166146,128,2,166217:0:0:0:0:
448,192,166146,128,0,166217:0:0:0:0:
64,192,166289,1,8,0:0:0:0:
192,192,166289,1,0,0:0:0:70:hihat13.wav
448,192,166289,1,0,0:0:0:0:
64,192,166432,1,2,0:0:0:0:
64,192,166574,1,8,0:0:0:0:
320,192,166574,1,0,0:0:0:100:LR_HiHat SClick.wav
448,192,166574,1,0,0:0:0:0:
448,192,166717,1,2,0:0:0:0:
64,192,166860,1,8,0:0:0:0:
192,192,166860,1,0,0:0:0:70:hihat13.wav
448,192,166860,1,0,0:0:0:0:
64,192,167003,128,2,167074:0:0:0:0:
192,192,167074,128,0,167146:0:0:0:0:
64,192,167146,1,8,0:0:0:0:
320,192,167146,1,0,0:0:0:100:LR_HiHat SClick.wav
448,192,167146,128,0,167217:0:0:0:0:
448,192,167289,1,2,0:0:0:0:
64,192,167432,1,8,0:0:0:0:
320,192,167432,128,0,167503:0:0:0:70:hihat13.wav
448,192,167432,1,0,0:0:0:0:
192,192,167574,128,2,167646:0:0:0:0:
64,192,167717,1,8,0:0:0:0:
192,192,167717,1,0,0:0:0:100:LR_HiHat SClick.wav
448,192,167717,1,0,0:0:0:0:
448,192,167860,128,2,167932:0:0:0:0:
64,192,168003,1,8,0:0:0:0:
320,192,168003,128,0,168074:0:0:0:70:hihat13.wav
448,192,168003,1,0,0:0:0:0:
192,192,168146,128,2,168217:0:0:0:0:
64,192,168289,128,8,168360:0:0:0:0:
192,192,168289,128,0,168360:0:0:0:0:
320,192,168289,128,0,168360:0:0:0:0:
192,192,168432,128,4,168503:0:0:0:0:
320,192,168432,128,2,168503:0:0:0:0:
448,192,168432,128,0,168503:0:0:0:0:
64,192,168717,128,8,168789:0:0:0:0:
192,192,168717,128,0,168789:0:0:0:0:
448,192,168717,128,0,168789:0:0:0:0:
64,192,168860,128,4,168932:0:0:0:0:
320,192,168860,128,2,168932:0:0:0:0:
448,192,168860,128,0,168932:0:0:0:0:
192,192,169146,128,8,169217:0:0:0:0:
320,192,169146,128,0,169217:0:0:0:0:
448,192,169146,128,0,169217:0:0:0:0:
64,192,169289,128,2,169360:0:0:0:0:
192,192,169289,128,4,169360:0:0:0:0:
320,192,169289,128,0,169360:0:0:0:0:
64,192,169574,128,8,169646:0:0:0:0:
320,192,169574,128,0,169646:0:0:0:0:
448,192,169574,128,0,169646:0:0:0:0:
64,192,169717,128,2,169789:0:0:0:0:
192,192,169717,128,4,169789:0:0:0:0:
448,192,169717,128,0,169789:0:0:0:0:
64,192,170003,1,2,0:0:0:0:
320,192,170003,1,4,0:0:0:0:
448,192,170003,128,0,170074:0:0:0:0:
192,192,170074,1,8,0:0:0:0:
320,192,170146,1,8,0:0:0:0:
448,192,170217,1,8,0:0:0:0:
320,192,170289,128,8,170360:0:0:0:0:
192,192,170360,1,0,0:0:0:70:tom01.wav
64,192,170432,1,0,0:0:0:70:tom02.wav
320,192,170503,1,0,0:0:0:70:tom03.wav
64,192,170569,1,4,0:0:0:0:
192,192,170569,1,2,0:0:0:0:
448,192,170569,1,0,0:0:0:70:push_scratch.wav
