osu file format v14

[General]
AudioFilename: audio.mp3
AudioLeadIn: 0
PreviewTime: 31645
Countdown: 0
SampleSet: Soft
StackLeniency: 0.7
Mode: 3
LetterboxInBreaks: 0
SpecialStyle: 0
WidescreenStoryboard: 1

[Editor]
Bookmarks: 88284,90569,91998,92855,111141,120284,127141,129427,143141,147712,161427,170569,181118,186393
DistanceSpacing: 1.6
BeatDivisor: 4
GridSize: 8
TimelineZoom: 2.3

[Metadata]
Title:- FALLEN -
TitleUnicode:- ΓΛLLΞИ -
Artist:Kaneko Chiharu
ArtistUnicode:かねこちはる
Creator:Noch Einen
Version:NOVICE
Source:
Tags:LΞGΞNDARY -Episode.1- VALLEYSTONE Bad Fennec Records Fate Apocrypha Ruler Jeanne d'Arc La Pucelle Crimson Saint Guren no Seijo riunosk murumoo famoss
BeatmapID:2223748
BeatmapSetID:1022331

[Difficulty]
HPDrainRate:7.5
CircleSize:4
OverallDifficulty:7.5
ApproachRate:5
SliderMultiplier:1.4
SliderTickRate:1

[Events]
//Background and Video events
0,0,"einen.jpg",0,0
//Break Periods
//Storyboard Layer 0 (Background)
//Storyboard Layer 1 (Fail)
//Storyboard Layer 2 (Pass)
//Storyboard Layer 3 (Foreground)
//Storyboard Layer 4 (Overlay)
//Storyboard Sound Samples
Sample,23241,0,"hihat13.wav",50
Sample,23571,0,"hihat13.wav",50
Sample,23901,0,"hihat13.wav",50
Sample,24230,0,"hihat13.wav",50
Sample,24560,0,"hihat13.wav",50
Sample,24890,0,"hihat13.wav",50
Sample,25055,0,"hihat13.wav",50
Sample,25384,0,"hihat02.wav",70
Sample,25879,0,"hihat13.wav",50
Sample,26208,0,"hihat13.wav",50
Sample,26538,0,"hihat13.wav",50
Sample,26868,0,"hihat13.wav",50
Sample,27197,0,"hihat13.wav",50
Sample,27527,0,"hihat13.wav",50
Sample,27692,0,"hihat13.wav",50
Sample,28022,0,"hihat02.wav",70
Sample,28516,0,"hihat13.wav",50
Sample,28846,0,"hihat13.wav",50
Sample,29175,0,"hihat13.wav",50
Sample,29505,0,"hihat13.wav",50
Sample,29835,0,"hihat13.wav",50
Sample,30164,0,"hihat13.wav",50
Sample,30329,0,"hihat13.wav",50
Sample,30661,0,"hihat02.wav",70
Sample,33717,0,"hihat13.wav",70
Sample,34289,0,"hihat13.wav",70
Sample,34860,0,"hihat13.wav",70
Sample,35432,0,"hihat13.wav",70
Sample,35717,0,"LR_HiHat SClick.wav",100
Sample,36003,0,"hihat13.wav",70
Sample,36574,0,"hihat13.wav",70
Sample,37146,0,"hihat13.wav",70
Sample,37717,0,"hihat13.wav",70
Sample,38289,0,"hihat13.wav",70
Sample,38860,0,"hihat13.wav",70
Sample,39432,0,"hihat13.wav",70
Sample,40003,0,"hihat13.wav",70
Sample,40289,0,"LR_HiHat SClick.wav",100
Sample,40574,0,"hihat13.wav",70
Sample,41146,0,"hihat13.wav",70
Sample,41717,0,"hihat13.wav",70
Sample,42289,0,"hihat13.wav",70
Sample,42860,0,"hihat13.wav",70
Sample,43432,0,"hihat13.wav",70
Sample,44003,0,"hihat13.wav",70
Sample,44574,0,"hihat13.wav",70
Sample,46289,0,"hihat13.wav",70
Sample,74860,0,"hihat02.wav",50
Sample,76003,0,"hihat02.wav",50
Sample,77146,0,"hihat02.wav",50
Sample,78289,0,"hihat02.wav",50
Sample,79432,0,"hihat02.wav",50
Sample,80003,0,"hihat02.wav",50
Sample,80574,0,"hihat02.wav",50
Sample,81146,0,"hihat02.wav",50
Sample,81717,0,"hihat02.wav",50
Sample,82003,0,"hihat02.wav",50
Sample,82289,0,"hihat02.wav",50
Sample,84003,0,"hihat02.wav",50
Sample,85146,0,"hihat02.wav",50
Sample,86289,0,"hihat02.wav",50
Sample,87432,0,"hihat02.wav",50
Sample,88574,0,"hihat02.wav",50
Sample,88860,0,"HHOpen.wav",70
Sample,89146,0,"hihat02.wav",50
Sample,89432,0,"HHOpen.wav",70
Sample,89717,0,"hihat02.wav",50
Sample,90003,0,"HHOpen.wav",70
Sample,90289,0,"hihat02.wav",50
Sample,90860,0,"hihat02.wav",50
Sample,91146,0,"hihat02.wav",50
Sample,91432,0,"hihat02.wav",50
Sample,102289,0,"hihat13.wav",70
Sample,102860,0,"hihat13.wav",70
Sample,103432,0,"hihat13.wav",70
Sample,104003,0,"hihat13.wav",70
Sample,104289,0,"LR_HiHat SClick.wav",100
Sample,104574,0,"hihat13.wav",70
Sample,105146,0,"hihat13.wav",70
Sample,105717,0,"hihat13.wav",70
Sample,106289,0,"hihat13.wav",70
Sample,106860,0,"hihat13.wav",70
Sample,107146,0,"LR_HiHat SClick.wav",100
Sample,107432,0,"hihat13.wav",70
Sample,108003,0,"hihat13.wav",70
Sample,108289,0,"LR_HiHat SClick.wav",100
Sample,108574,0,"hihat13.wav",70
Sample,109146,0,"hihat13.wav",70
Sample,109432,0,"LR_HiHat SClick.wav",100
Sample,109717,0,"hihat13.wav",70
Sample,110003,0,"LR_HiHat SClick.wav",100
Sample,110289,0,"hihat13.wav",70
Sample,120860,0,"LR_HiHat SClick.wav",100
Sample,121432,0,"LR_HiHat SClick.wav",100
Sample,121717,0,"tom02.wav",70
Sample,122003,0,"LR_HiHat SClick.wav",100
Sample,122432,0,"tom01.wav",70
Sample,123146,0,"LR_HiHat SClick.wav",100
Sample,123574,0,"tom01.wav",70
Sample,123717,0,"LR_HiHat SClick.wav",100
Sample,124003,0,"tom02.wav",70
Sample,124289,0,"LR_HiHat SClick.wav",100
Sample,124717,0,"tom01.wav",70
Sample,125432,0,"LR_HiHat SClick.wav",100
Sample,126003,0,"LR_HiHat SClick.wav",100
Sample,126289,0,"tom02.wav",70
Sample,126574,0,"LR_HiHat SClick.wav",100
Sample,127003,0,"tom01.wav",70
Sample,127432,0,"tom02.wav",70
Sample,127717,0,"hihat02.wav",70
Sample,128003,0,"tom02.wav",70
Sample,128574,0,"tom03.wav",70
Sample,129717,0,"hihat13.wav",70
Sample,130289,0,"hihat13.wav",70
Sample,130860,0,"hihat13.wav",70
Sample,131432,0,"hihat13.wav",70
Sample,132003,0,"hihat13.wav",70
Sample,132574,0,"hihat13.wav",70
Sample,133146,0,"hihat13.wav",70
Sample,133717,0,"hihat13.wav",70
Sample,134289,0,"hihat13.wav",70
Sample,134860,0,"hihat13.wav",70
Sample,135432,0,"hihat13.wav",70
Sample,136003,0,"hihat13.wav",70
Sample,136574,0,"hihat13.wav",70
Sample,137146,0,"hihat13.wav",70
Sample,137717,0,"hihat13.wav",70
Sample,138289,0,"hihat13.wav",70
Sample,138860,0,"hihat13.wav",70
Sample,139432,0,"hihat13.wav",70
Sample,140003,0,"hihat13.wav",70
Sample,140574,0,"hihat13.wav",70
Sample,141146,0,"hihat13.wav",70
Sample,141717,0,"hihat13.wav",70
Sample,142860,0,"hihat13.wav",70
Sample,143432,0,"hihat13.wav",70
Sample,144003,0,"hihat13.wav",70
Sample,144574,0,"hihat13.wav",70
Sample,145146,0,"hihat13.wav",70
Sample,145717,0,"hihat13.wav",70
Sample,146574,0,"LR_HiHat SClick.wav",100
Sample,146860,0,"hihat13.wav",70
Sample,147432,0,"hihat13.wav",70
Sample,148003,0,"hihat13.wav",70
Sample,148289,0,"LR_HiHat SClick.wav",100
Sample,148574,0,"hihat13.wav",70
Sample,148860,0,"LR_HiHat SClick.wav",100
Sample,149146,0,"hihat13.wav",70
Sample,149432,0,"LR_HiHat SClick.wav",100
Sample,149717,0,"hihat13.wav",70
Sample,150289,0,"hihat13.wav",70
Sample,150574,0,"LR_HiHat SClick.wav",100
Sample,150860,0,"hihat13.wav",70
Sample,151146,0,"LR_HiHat SClick.wav",100
Sample,151432,0,"hihat13.wav",70
Sample,151717,0,"LR_HiHat SClick.wav",100
Sample,152003,0,"hihat13.wav",70
Sample,152574,0,"hihat13.wav",70
Sample,152860,0,"LR_HiHat SClick.wav",100
Sample,153146,0,"hihat13.wav",70
Sample,153432,0,"LR_HiHat SClick.wav",100
Sample,153717,0,"hihat13.wav",70
Sample,154003,0,"LR_HiHat SClick.wav",100
Sample,154289,0,"hihat13.wav",70
Sample,154860,0,"hihat13.wav",70
Sample,155146,0,"LR_HiHat SClick.wav",100
Sample,155432,0,"hihat13.wav",70
Sample,155717,0,"LR_HiHat SClick.wav",100
Sample,156003,0,"hihat13.wav",70
Sample,156289,0,"LR_HiHat SClick.wav",100
Sample,156574,0,"hihat13.wav",70
Sample,157146,0,"hihat13.wav",70
Sample,157717,0,"hihat13.wav",70
Sample,159432,0,"hihat13.wav",70
Sample,160003,0,"hihat13.wav",70
Sample,161717,0,"hihat13.wav",70
Sample,162289,0,"hihat13.wav",70
Sample,162860,0,"hihat13.wav",70
Sample,163432,0,"hihat13.wav",70
Sample,164003,0,"hihat13.wav",70
Sample,164574,0,"hihat13.wav",70
Sample,165146,0,"hihat13.wav",70
Sample,165717,0,"hihat13.wav",70
Sample,166289,0,"hihat13.wav",70
Sample,166574,0,"LR_HiHat SClick.wav",100
Sample,166860,0,"hihat13.wav",70
Sample,167146,0,"LR_HiHat SClick.wav",100
Sample,167432,0,"hihat13.wav",70
Sample,167717,0,"LR_HiHat SClick.wav",100
Sample,168003,0,"hihat13.wav",70

[TimingPoints]
1974,333.333333333333,4,2,1,30,1,0
1974,-85.4700854700855,4,2,1,30,0,0
5973,319.148936170213,4,2,1,30,1,0
5973,-89.2857142857143,4,2,1,30,0,0
7249,333.333333333333,4,2,1,30,1,0
7249,-85.4700854700855,4,2,1,30,0,0
9248,383.386581469649,4,2,1,30,1,0
9248,-74.6268656716418,4,2,1,30,0,0
10014,323.450134770889,4,2,1,30,1,0
10014,-88.495575221239,4,2,1,30,0,0
11307,309.278350515464,4,2,1,30,1,0
11307,-92.5925925925926,4,2,1,30,0,0
12545,327.868852459016,4,2,1,30,1,0
12545,-86.9565217391304,4,2,1,30,0,0
16479,334.261838440111,4,2,1,30,1,0
16479,-85.4700854700855,4,2,1,30,0,0
17816,327.868852459016,4,2,1,30,1,0
17816,-86.9565217391304,4,2,1,30,0,0
21750,342.857142857143,4,2,1,30,1,0
21750,-83.3333333333333,4,2,1,30,0,0
22264,304.568527918782,4,2,1,30,1,0
22264,-93.4579439252336,4,2,1,30,0,0
22568,338.983050847458,4,2,1,30,1,0
22568,-84.0336134453782,4,2,1,30,0,0
23077,329.67032967033,4,2,1,50,1,0
23077,-86.9565217391304,4,2,1,50,0,0
30661,301.507537688442,4,2,1,50,1,0
30661,-94.3396226415094,4,2,1,50,0,0
30962,337.078651685393,4,2,1,50,1,0
30962,-84.7457627118644,4,2,1,50,0,0
31645,582.52427184466,4,2,1,50,1,0
31645,-49.0196078431373,4,2,1,50,0,0
32227,603.015075376884,4,2,1,50,1,0
32227,-47.39336492891,4,2,1,50,0,0
32836,600,4,2,1,50,1,0
32836,-47.6190476190476,4,2,1,50,0,0
33432,285.714285714286,4,2,1,70,1,0
33432,-100,4,2,1,70,0,1
47146,-100,4,2,1,70,0,0
56289,-100,4,2,1,60,0,0
111146,-100,4,2,1,30,0,0
119146,-100,4,2,1,50,0,0
124860,-100,4,2,1,60,0,0
129432,-100,4,2,1,70,0,1
170569,329.67032967033,4,2,1,70,1,0
170569,-86.9565217391304,4,2,1,70,0,0

[HitObjects]
64,192,1307,128,0,1973:0:0:0:0:
320,192,1973,1,4,0:0:0:0:
448,192,1973,128,0,3307:0:0:0:0:
192,192,3307,128,0,4473:0:0:0:0:
448,192,4640,128,0,5973:0:0:0:0:
64,192,5973,128,0,7249:0:0:0:0:
320,192,7249,128,0,9248:0:0:0:0:
448,192,7249,1,0,0:0:0:0:
64,192,9248,128,0,10014:0:0:0:0:
192,192,10014,128,0,11307:0:0:0:0:
320,192,11307,128,0,12545:0:0:0:0:
64,192,12544,1,4,0:0:0:0:
448,192,12545,1,0,0:0:0:0:
320,192,13036,1,0,0:0:0:0:
64,192,13528,1,0,0:0:0:0:
320,192,13856,1,0,0:0:0:0:
64,192,14184,128,0,14512:0:0:0:0:
320,192,14512,1,0,0:0:0:0:
64,192,14840,1,0,0:0:0:0:
448,192,15167,1,0,0:0:0:0:
192,192,15659,1,0,0:0:0:0:
448,192,16151,1,0,0:0:0:0:
192,192,16479,128,0,16813:0:0:0:0:
448,192,16813,1,0,0:0:0:0:
192,192,17147,128,0,17481:0:0:0:0:
448,192,17481,1,0,0:0:0:0:
320,192,17816,1,0,0:0:0:0:
192,192,18307,1,0,0:0:0:0:
320,192,18799,1,0,0:0:0:0:
192,192,19127,128,0,19455:0:0:0:0:
320,192,19455,1,0,0:0:0:0:
192,192,19783,128,0,20111:0:0:0:0:
320,192,20111,1,0,0:0:0:0:
320,192,20438,1,0,0:0:0:0:
448,192,20438,1,0,0:0:0:0:
64,192,20602,1,0,0:0:0:0:
64,192,21258,1,0,0:0:0:0:
448,192,21258,1,0,0:0:0:0:
192,192,21422,1,0,0:0:0:0:
320,192,21586,1,0,0:0:0:0:
64,192,21750,1,0,0:0:0:0:
192,192,21921,1,0,0:0:0:0:
448,192,22092,1,0,0:0:0:0:
64,192,22264,1,0,0:0:0:0:
320,192,22416,1,0,0:0:0:0:
192,192,22568,1,0,0:0:0:50:hihat13.wav
320,192,22652,1,0,0:0:0:50:hihat06.wav
448,192,22737,128,0,23077:0:0:0:70:hihat02.wav
192,192,23076,1,4,0:0:0:0:
64,192,23077,128,2,25384:0:0:0:0:
320,192,23241,1,2,0:0:0:0:
448,192,23571,1,2,0:0:0:0:
320,192,23901,1,2,0:0:0:0:
448,192,24230,1,2,0:0:0:0:
320,192,24560,1,2,0:0:0:0:
448,192,24890,1,2,0:0:0:0:
320,192,25055,1,2,0:0:0:0:
448,192,25219,1,0,0:0:0:50:hihat13.wav
320,192,25302,1,0,0:0:0:50:hihat06.wav
192,192,25384,1,2,0:0:0:0:
64,192,25714,1,4,0:0:0:0:
192,192,25714,128,2,28022:0:0:0:0:
320,192,25879,1,2,0:0:0:0:
448,192,26208,1,2,0:0:0:0:
320,192,26538,1,2,0:0:0:0:
448,192,26868,1,2,0:0:0:0:
320,192,27197,1,2,0:0:0:0:
448,192,27527,1,2,0:0:0:0:
320,192,27692,1,2,0:0:0:0:
448,192,27857,1,0,0:0:0:50:hihat13.wav
320,192,27939,1,0,0:0:0:50:hihat06.wav
64,192,28022,1,2,0:0:0:0:
192,192,28351,1,4,0:0:0:0:
320,192,28351,128,2,29835:0:0:0:0:
64,192,28516,1,2,0:0:0:0:
192,192,28846,1,8,0:0:0:0:
64,192,29175,1,2,0:0:0:0:
192,192,29505,1,8,0:0:0:0:
64,192,29835,128,2,30962:0:0:0:0:
448,192,30164,1,8,0:0:0:0:
320,192,30329,1,2,0:0:0:0:
448,192,30661,1,8,0:0:0:0:
192,192,30962,1,0,0:0:0:70:breaking_thunder.wav
320,192,30962,1,0,0:0:0:0:
320,192,31645,128,0,32227:0:0:0:0:
192,192,32227,128,0,32836:0:0:0:0:
64,192,32836,128,0,33432:0:0:0:0:
320,192,33432,1,4,0:0:0:0:
448,192,33432,128,2,34860:0:0:0:0:
64,192,33717,1,8,0:0:0:0:
64,192,34289,1,8,0:0:0:0:
192,192,34574,1,0,0:0:0:100:LR_HiHat SClick.wav
64,192,34860,128,8,35146:0:0:0:0:
320,192,35003,1,2,0:0:0:0:
192,192,35146,128,0,35432:0:0:0:100:LR_HiHat SClick.wav
448,192,35289,1,2,0:0:0:0:
320,192,35432,128,8,35717:0:0:0:0:
448,192,35717,128,2,37146:0:0:0:0:
64,192,36003,1,8,0:0:0:0:
64,192,36574,1,8,0:0:0:0:
192,192,36860,1,0,0:0:0:100:LR_HiHat SClick.wav
320,192,37146,128,8,37432:0:0:0:0:
192,192,37289,1,2,0:0:0:0:
64,192,37432,128,0,37717:0:0:0:100:LR_HiHat SClick.wav
448,192,37574,1,2,0:0:0:0:
320,192,37717,128,8,38003:0:0:0:0:
64,192,38003,128,2,39432:0:0:0:0:
192,192,38003,1,4,0:0:0:0:
448,192,38289,1,8,0:0:0:0:
448,192,38860,1,8,0:0:0:0:
320,192,39146,1,0,0:0:0:100:LR_HiHat SClick.wav
192,192,39432,128,8,39717:0:0:0:0:
320,192,39574,1,2,0:0:0:0:
448,192,39717,128,0,40003:0:0:0:100:LR_HiHat SClick.wav
64,192,39860,1,2,0:0:0:0:
192,192,40003,128,8,40289:0:0:0:0:
448,192,40289,128,2,41717:0:0:0:0:
192,192,40574,1,8,0:0:0:0:
192,192,41146,1,8,0:0:0:0:
64,192,41432,1,0,0:0:0:100:LR_HiHat SClick.wav
320,192,41717,128,8,42003:0:0:0:0:
64,192,41860,1,2,0:0:0:0:
192,192,42003,128,0,42289:0:0:0:100:LR_HiHat SClick.wav
448,192,42146,1,2,0:0:0:0:
64,192,42289,128,8,42574:0:0:0:0:
320,192,42574,1,4,0:0:0:0:
448,192,42574,128,2,44003:0:0:0:0:
64,192,42860,1,8,0:0:0:0:
64,192,43432,1,8,0:0:0:0:
192,192,43717,1,0,0:0:0:100:LR_HiHat SClick.wav
64,192,44003,128,8,44289:0:0:0:0:
320,192,44146,1,2,0:0:0:0:
192,192,44289,128,0,44574:0:0:0:100:LR_HiHat SClick.wav
448,192,44432,1,2,0:0:0:0:
320,192,44574,128,8,44860:0:0:0:0:
64,192,44860,1,2,0:0:0:0:
448,192,44860,128,4,46003:0:0:0:0:
192,192,45432,128,0,46003:0:0:0:100:LR_HiHat SClick.wav
64,192,46003,128,8,46289:0:0:0:0:
320,192,46003,1,4,0:0:0:0:
448,192,46289,1,8,0:0:0:0:
192,192,46432,128,8,46717:0:0:0:0:
448,192,46717,128,8,46860:0:0:0:0:
320,192,46860,128,0,47003:0:0:0:70:tom01.wav
192,192,47003,128,0,47146:0:0:0:70:tom02.wav
64,192,47146,128,6,47717:0:0:0:0:
448,192,47146,1,0,0:0:0:70:twinkling.ogg
448,192,47432,128,0,47717:0:0:0:0:
320,192,47717,128,0,48003:0:0:0:0:
192,192,48003,128,0,48289:0:0:0:0:
448,192,48289,128,0,48860:0:0:0:0:
64,192,48574,128,0,48860:0:0:0:0:
192,192,48860,128,0,49146:0:0:0:0:
320,192,49146,128,0,49432:0:0:0:0:
64,192,49432,128,0,49717:0:0:0:0:
192,192,49432,128,0,49717:0:0:0:0:
448,192,49717,128,0,50289:0:0:0:0:
64,192,50003,128,0,50289:0:0:0:0:
192,192,50289,128,0,50574:0:0:0:0:
64,192,50574,128,0,50860:0:0:0:0:
320,192,50574,128,0,50860:0:0:0:0:
448,192,50860,128,0,51146:0:0:0:0:
192,192,51146,128,0,51432:0:0:0:0:
320,192,51432,128,0,51717:0:0:0:0:
64,192,51717,128,0,52003:0:0:0:0:
448,192,51717,128,0,52003:0:0:0:0:
320,192,52003,128,0,52289:0:0:0:0:
192,192,52289,128,0,52574:0:0:0:0:
448,192,52574,128,0,52860:0:0:0:0:
320,192,52860,128,0,53432:0:0:0:0:
64,192,53146,128,0,53432:0:0:0:0:
192,192,53432,128,0,53717:0:0:0:0:
64,192,53717,128,0,54003:0:0:0:0:
320,192,54003,1,0,0:0:0:0:
448,192,54003,128,0,54146:0:0:0:0:
192,192,54146,128,0,54289:0:0:0:0:
64,192,54432,128,0,54574:0:0:0:0:
320,192,54432,1,0,0:0:0:0:
448,192,54574,128,0,54717:0:0:0:0:
64,192,54860,1,0,0:0:0:0:
320,192,54860,128,0,55003:0:0:0:0:
192,192,55003,128,0,55146:0:0:0:0:
64,192,55289,128,0,55432:0:0:0:0:
448,192,55289,1,0,0:0:0:0:
192,192,55432,128,0,55574:0:0:0:0:
64,192,55717,128,0,55860:0:0:0:0:
320,192,55717,1,0,0:0:0:0:
192,192,56003,128,0,56146:0:0:0:0:
448,192,56003,1,0,0:0:0:0:
64,192,56289,1,2,0:0:0:0:
320,192,56289,1,4,0:0:0:0:
192,192,56574,1,2,0:0:0:0:
448,192,56860,1,2,0:0:0:0:
320,192,57146,1,2,0:0:0:0:
64,192,57432,1,2,0:0:0:0:
192,192,57432,1,0,0:0:0:0:
448,192,57717,1,2,0:0:0:0:
64,192,58003,1,2,0:0:0:0:
320,192,58289,1,2,0:0:0:0:
192,192,58574,1,2,0:0:0:0:
448,192,58574,1,0,0:0:0:0:
64,192,58860,1,2,0:0:0:0:
320,192,59146,1,2,0:0:0:0:
192,192,59432,1,2,0:0:0:0:
320,192,59717,1,2,0:0:0:0:
448,192,59717,1,0,0:0:0:0:
192,192,60003,1,2,0:0:0:0:
320,192,60289,1,2,0:0:0:0:
64,192,60574,1,2,0:0:0:0:
192,192,60860,1,2,0:0:0:0:
448,192,60860,128,4,61432:0:0:0:0:
64,192,61146,1,2,0:0:0:0:
320,192,61432,1,2,0:0:0:0:
192,192,61717,1,2,0:0:0:0:
320,192,61860,1,0,0:0:0:0:
448,192,62003,1,2,0:0:0:0:
192,192,62289,1,2,0:0:0:0:
320,192,62574,1,2,0:0:0:0:
64,192,62860,1,2,0:0:0:0:
192,192,63003,1,0,0:0:0:0:
448,192,63146,128,2,63717:0:0:0:0:
192,192,63432,1,2,0:0:0:0:
64,192,63717,1,2,0:0:0:0:
320,192,63860,1,0,0:0:0:0:
192,192,64003,1,2,0:0:0:0:
448,192,64146,1,0,0:0:0:0:
320,192,64289,1,2,0:0:0:0:
192,192,64574,1,2,0:0:0:0:
320,192,64860,1,2,0:0:0:0:
64,192,65146,1,2,0:0:0:0:
320,192,65289,1,0,0:0:0:0:
192,192,65432,1,6,0:0:0:0:
448,192,65432,1,0,0:0:0:100:LR_Snare Hollow.wav
320,192,65717,1,2,0:0:0:0:
192,192,66003,1,2,0:0:0:0:
448,192,66289,1,2,0:0:0:0:
192,192,66432,1,0,0:0:0:0:
64,192,66574,1,2,0:0:0:0:
320,192,66574,1,0,0:0:0:0:
192,192,66860,1,2,0:0:0:0:
448,192,67146,1,2,0:0:0:0:
320,192,67432,1,2,0:0:0:0:
448,192,67574,1,0,0:0:0:0:
64,192,67717,1,2,0:0:0:0:
192,192,67717,1,0,0:0:0:0:
448,192,68003,1,2,0:0:0:0:
64,192,68289,1,2,0:0:0:0:
320,192,68574,1,2,0:0:0:0:
64,192,68717,1,0,0:0:0:0:
192,192,68860,1,2,0:0:0:0:
448,192,68860,1,0,0:0:0:0:
64,192,69146,1,2,0:0:0:0:
320,192,69432,1,2,0:0:0:0:
192,192,69717,1,2,0:0:0:0:
64,192,69860,1,0,0:0:0:0:
320,192,70003,128,2,70574:0:0:0:0:
448,192,70003,1,4,0:0:0:0:
64,192,70289,1,2,0:0:0:0:
448,192,70574,1,2,0:0:0:0:
192,192,70860,1,2,0:0:0:0:
320,192,71146,1,2,0:0:0:0:
64,192,71289,1,0,0:0:0:0:
448,192,71432,1,2,0:0:0:0:
192,192,71717,1,2,0:0:0:0:
320,192,72003,1,2,0:0:0:0:
192,192,72146,1,0,0:0:0:0:
64,192,72289,1,2,0:0:0:0:
320,192,72432,1,0,0:0:0:0:
448,192,72574,1,2,0:0:0:0:
320,192,72860,1,2,0:0:0:0:
64,192,73146,1,2,0:0:0:0:
448,192,73289,1,0,0:0:0:0:
320,192,73432,1,2,0:0:0:0:
192,192,73574,1,0,0:0:0:0:
64,192,73717,1,2,0:0:0:0:
192,192,74003,1,2,0:0:0:0:
64,192,74289,1,8,0:0:0:0:
448,192,74289,1,0,0:0:0:0:
192,192,74432,1,0,0:0:0:0:
320,192,74574,1,6,0:0:0:0:
448,192,74574,128,0,75432:0:0:0:70:push_scratch.wav
64,192,74860,1,8,0:0:0:0:
192,192,75146,1,0,0:0:0:70:HHOpen.wav
64,192,75432,1,8,0:0:0:0:
320,192,75432,1,0,0:0:0:50:hihat02.wav
192,192,75574,1,2,0:0:0:0:
64,192,75717,128,0,76574:0:0:0:70:HHOpen.wav
448,192,75717,1,0,0:0:0:0:
320,192,76003,1,8,0:0:0:0:
448,192,76289,1,0,0:0:0:70:HHOpen.wav
192,192,76574,1,8,0:0:0:0:
320,192,76574,1,0,0:0:0:50:hihat02.wav
448,192,76717,1,0,0:0:0:0:
64,192,76860,1,2,0:0:0:0:
320,192,76860,128,0,77717:0:0:0:70:HHOpen.wav
192,192,77146,1,8,0:0:0:0:
64,192,77432,1,0,0:0:0:70:HHOpen.wav
192,192,77717,1,8,0:0:0:0:
448,192,77717,1,0,0:0:0:50:hihat02.wav
64,192,77860,1,2,0:0:0:0:
192,192,78003,128,0,78860:0:0:0:70:HHOpen.wav
448,192,78003,1,0,0:0:0:0:
320,192,78289,1,8,0:0:0:0:
448,192,78574,1,0,0:0:0:70:HHOpen.wav
64,192,78860,1,8,0:0:0:0:
320,192,78860,1,0,0:0:0:50:hihat02.wav
192,192,79003,1,0,0:0:0:0:
320,192,79146,1,2,0:0:0:0:
448,192,79146,128,4,80003:0:0:0:0:
64,192,79432,1,8,0:0:0:0:
192,192,79717,128,0,80003:0:0:0:70:HHOpen.wav
64,192,80003,1,8,0:0:0:0:
320,192,80289,128,0,80574:0:0:0:70:HHOpen.wav
192,192,80574,1,8,0:0:0:0:
64,192,80717,1,2,0:0:0:0:
448,192,80860,1,0,0:0:0:70:HHOpen.wav
320,192,81003,1,2,0:0:0:0:
192,192,81146,1,8,0:0:0:0:
320,192,81289,1,2,0:0:0:0:
64,192,81432,1,8,0:0:0:0:
448,192,81432,1,4,0:0:0:0:
192,192,81717,128,8,82003:0:0:0:0:
320,192,81860,1,0,0:0:0:0:
448,192,82003,1,8,0:0:0:0:
320,192,82289,128,8,82574:0:0:0:0:
64,192,82574,1,8,0:0:0:0:
192,192,82574,1,0,0:0:0:70:HHOpen.wav
448,192,82717,1,2,0:0:0:0:
320,192,82860,1,2,0:0:0:0:
192,192,83003,1,0,0:0:0:70:tom01.wav
320,192,83146,1,2,0:0:0:0:
64,192,83289,1,2,0:0:0:0:
192,192,83432,1,8,0:0:0:0:
192,192,83574,1,8,0:0:0:0:
64,192,83717,128,6,84574:0:0:0:0:
320,192,83717,1,0,0:0:0:100:LR_Snare Hollow.wav
448,192,84003,1,8,0:0:0:0:
320,192,84289,1,0,0:0:0:70:HHOpen.wav
192,192,84574,1,8,0:0:0:0:
448,192,84574,1,0,0:0:0:50:hihat02.wav
192,192,84717,1,2,0:0:0:0:
64,192,84860,1,0,0:0:0:70:HHOpen.wav
320,192,84860,128,0,85717:0:0:0:0:
192,192,85146,1,8,0:0:0:0:
64,192,85432,1,0,0:0:0:70:HHOpen.wav
192,192,85717,1,8,0:0:0:0:
448,192,85717,1,0,0:0:0:50:hihat02.wav
64,192,85860,1,0,0:0:0:0:
192,192,86003,128,2,86860:0:0:0:0:
448,192,86003,1,0,0:0:0:70:HHOpen.wav
320,192,86289,1,8,0:0:0:0:
448,192,86574,1,0,0:0:0:70:HHOpen.wav
64,192,86860,1,8,0:0:0:0:
320,192,86860,1,0,0:0:0:50:hihat02.wav
320,192,87003,1,2,0:0:0:0:
192,192,87146,1,0,0:0:0:70:HHOpen.wav
448,192,87146,128,0,88003:0:0:0:0:
64,192,87432,1,8,0:0:0:0:
192,192,87717,1,0,0:0:0:70:HHOpen.wav
64,192,88003,1,8,0:0:0:0:
320,192,88003,1,0,0:0:0:50:hihat02.wav
192,192,88146,1,0,0:0:0:0:
64,192,88289,1,4,0:0:0:0:
448,192,88289,1,2,0:0:0:0:
320,192,88432,1,2,0:0:0:0:
448,192,88574,128,8,88860:0:0:0:0:
320,192,88860,1,8,0:0:0:0:
192,192,89003,1,2,0:0:0:0:
64,192,89146,128,8,89432:0:0:0:0:
192,192,89432,1,8,0:0:0:0:
448,192,89574,1,2,0:0:0:0:
320,192,89717,128,8,90003:0:0:0:0:
64,192,90003,1,8,0:0:0:0:
320,192,90146,1,2,0:0:0:0:
192,192,90289,128,8,90574:0:0:0:0:
448,192,90574,128,2,91146:0:0:0:0:
64,192,90860,128,8,91146:0:0:0:0:
192,192,91146,128,8,91717:0:0:0:0:
320,192,91432,128,2,91717:0:0:0:0:
64,192,91717,1,2,0:0:0:0:
448,192,91717,128,0,92289:0:0:0:70:HHOpen.wav
192,192,92003,1,8,0:0:0:0:
320,192,92289,128,8,92860:0:0:0:0:
192,192,92574,1,0,0:0:0:70:tom02.wav
64,192,92860,1,6,0:0:0:0:
448,192,92860,1,0,0:0:0:70:push_scratch.wav
320,192,93146,1,8,0:0:0:0:
448,192,93146,1,0,0:0:0:0:
64,192,93289,128,0,93432:0:0:0:50:hihat02.wav
192,192,93574,1,0,0:0:0:50:hihat02.wav
320,192,93717,1,8,0:0:0:0:
448,192,93717,128,0,93860:0:0:0:0:
320,192,94003,1,2,0:0:0:0:
64,192,94146,128,0,94289:0:0:0:50:hihat02.wav
192,192,94289,1,8,0:0:0:0:
448,192,94289,1,0,0:0:0:0:
320,192,94432,1,0,0:0:0:50:hihat02.wav
192,192,94574,128,2,94717:0:0:0:0:
64,192,94860,1,8,0:0:0:0:
320,192,94860,128,0,95003:0:0:0:0:
320,192,95146,128,2,95289:0:0:0:0:
64,192,95432,1,8,0:0:0:0:
192,192,95432,1,0,0:0:0:0:
448,192,95574,128,0,95717:0:0:0:50:hihat02.wav
320,192,95860,1,0,0:0:0:50:hihat02.wav
64,192,96003,128,8,96146:0:0:0:0:
192,192,96003,1,0,0:0:0:0:
192,192,96289,1,2,0:0:0:0:
448,192,96432,128,0,96574:0:0:0:50:hihat02.wav
64,192,96574,1,8,0:0:0:0:
320,192,96574,1,0,0:0:0:0:
192,192,96717,1,0,0:0:0:50:hihat02.wav
320,192,96860,128,2,97003:0:0:0:0:
192,192,97146,128,8,97289:0:0:0:0:
448,192,97146,1,0,0:0:0:0:
192,192,97432,128,2,97574:0:0:0:0:
64,192,97717,1,8,0:0:0:0:
320,192,97717,1,0,0:0:0:0:
448,192,97860,128,0,98003:0:0:0:50:hihat02.wav
192,192,98146,1,0,0:0:0:50:hihat02.wav
64,192,98289,128,8,98432:0:0:0:0:
320,192,98289,1,0,0:0:0:0:
320,192,98574,1,2,0:0:0:0:
192,192,98717,128,0,98860:0:0:0:50:hihat02.wav
64,192,98860,1,8,0:0:0:0:
448,192,98860,1,0,0:0:0:0:
192,192,99003,1,0,0:0:0:50:hihat02.wav
320,192,99146,128,2,99289:0:0:0:0:
192,192,99432,128,8,99574:0:0:0:0:
448,192,99432,1,0,0:0:0:0:
64,192,99717,128,2,99860:0:0:0:0:
320,192,99717,1,0,0:0:0:0:
192,192,100003,1,8,0:0:0:0:
448,192,100003,1,0,0:0:0:0:
320,192,100146,128,0,100289:0:0:0:50:hihat02.wav
192,192,100574,1,8,0:0:0:0:
320,192,100574,1,0,0:0:0:0:
320,192,100860,1,8,0:0:0:0:
448,192,100860,1,0,0:0:0:50:hihat02.wav
64,192,101003,1,2,0:0:0:0:
448,192,101146,1,2,0:0:0:0:
64,192,101289,1,0,0:0:0:70:tom03.wav
192,192,101289,1,0,0:0:0:50:hihat02.wav
448,192,101432,1,2,0:0:0:0:
64,192,101574,1,2,0:0:0:0:
192,192,101717,1,0,0:0:0:70:tom04.wav
320,192,101717,1,0,0:0:0:50:hihat02.wav
448,192,101860,1,2,0:0:0:0:
64,192,102003,128,6,102574:0:0:0:0:
192,192,102003,1,0,0:0:0:70:push_scratch.wav
320,192,102289,1,8,0:0:0:0:
448,192,102574,128,0,103146:0:0:0:100:LR_HiHat SClick.wav
64,192,102860,1,8,0:0:0:0:
192,192,103146,128,0,103432:0:0:0:100:LR_HiHat SClick.wav
448,192,103432,1,8,0:0:0:0:
320,192,103574,1,2,0:0:0:0:
192,192,103717,1,0,0:0:0:100:LR_HiHat SClick.wav
64,192,103860,128,2,104289:0:0:0:0:
320,192,104003,1,8,0:0:0:0:
448,192,104289,128,2,104860:0:0:0:0:
192,192,104574,1,8,0:0:0:0:
64,192,104717,1,0,0:0:0:0:
320,192,104860,128,0,105074:0:0:0:100:LR_HiHat SClick.wav
64,192,105074,128,0,105289:0:0:0:0:
192,192,105146,1,8,0:0:0:0:
320,192,105289,128,2,105432:0:0:0:0:
192,192,105432,128,0,106003:0:0:0:100:LR_HiHat SClick.wav
320,192,105717,1,8,0:0:0:0:
448,192,106003,128,0,106574:0:0:0:100:LR_HiHat SClick.wav
64,192,106146,1,2,0:0:0:0:
192,192,106289,1,0,0:0:0:0:
64,192,106574,1,8,0:0:0:0:
320,192,106574,128,4,106860:0:0:0:0:
64,192,106860,128,8,107146:0:0:0:0:
192,192,107003,1,0,0:0:0:0:
320,192,107146,128,8,107717:0:0:0:0:
64,192,107432,128,8,107717:0:0:0:0:
192,192,107717,1,8,0:0:0:0:
448,192,107717,128,0,108003:0:0:0:100:LR_HiHat SClick.wav
192,192,108003,128,8,108289:0:0:0:0:
320,192,108146,1,0,0:0:0:0:
448,192,108289,128,8,108860:0:0:0:0:
192,192,108574,128,8,108860:0:0:0:0:
64,192,108860,128,4,109146:0:0:0:0:
320,192,108860,1,2,0:0:0:0:
448,192,109146,1,8,0:0:0:0:
64,192,109289,128,2,109432:0:0:0:0:
320,192,109432,1,8,0:0:0:0:
448,192,109574,1,8,0:0:0:0:
192,192,109717,128,2,109860:0:0:0:0:
64,192,109860,1,8,0:0:0:0:
320,192,110003,128,2,110289:0:0:0:0:
192,192,110289,128,8,110574:0:0:0:0:
64,192,110574,1,6,0:0:0:0:
320,192,110574,1,0,0:0:0:70:tom04.wav
448,192,110789,1,6,0:0:0:0:
320,192,111003,1,6,0:0:0:0:
64,192,111146,128,2,113574:0:0:0:0:
192,192,111146,1,4,0:0:0:0:
448,192,113717,128,0,115146:0:0:0:0:
64,192,115146,1,0,0:0:0:0:
192,192,115146,128,0,118003:0:0:0:0:
320,192,118003,128,0,119146:0:0:0:0:
448,192,118003,1,0,0:0:0:0:
192,192,119146,1,8,0:0:0:0:
448,192,119146,1,0,0:0:0:0:
64,192,119289,1,0,0:0:0:70:tom01.wav
320,192,119432,1,2,0:0:0:0:
64,192,119574,1,0,0:0:0:70:tom02.wav
448,192,119717,1,2,0:0:0:0:
192,192,119860,1,0,0:0:0:70:tom03.wav
64,192,120003,1,2,0:0:0:0:
192,192,120146,1,8,0:0:0:0:
320,192,120289,1,6,0:0:0:0:
448,192,120289,128,0,121432:0:0:0:70:push_scratch.wav
64,192,120574,1,0,0:0:0:70:tom02.wav
192,192,120860,1,8,0:0:0:0:
64,192,121146,1,0,0:0:0:70:tom02.wav
192,192,121432,128,2,122003:0:0:0:0:
448,192,121717,1,2,0:0:0:0:
320,192,122003,1,8,0:0:0:0:
64,192,122146,1,2,0:0:0:0:
192,192,122289,1,0,0:0:0:70:tom02.wav
448,192,122432,1,2,0:0:0:0:
64,192,122574,128,2,123717:0:0:0:0:
320,192,122574,1,4,0:0:0:0:
448,192,122860,1,0,0:0:0:70:tom02.wav
320,192,123146,1,8,0:0:0:0:
448,192,123432,1,0,0:0:0:70:tom02.wav
320,192,123574,1,8,0:0:0:0:
192,192,123717,128,2,124289:0:0:0:0:
448,192,124003,1,2,0:0:0:0:
320,192,124289,1,8,0:0:0:0:
64,192,124432,1,2,0:0:0:0:
448,192,124574,1,0,0:0:0:70:tom02.wav
320,192,124717,1,2,0:0:0:0:
64,192,124860,128,2,126003:0:0:0:0:
192,192,124860,1,4,0:0:0:0:
448,192,125146,1,0,0:0:0:70:tom02.wav
320,192,125432,1,8,0:0:0:0:
448,192,125717,1,0,0:0:0:70:tom02.wav
320,192,126003,128,2,126574:0:0:0:0:
64,192,126289,1,2,0:0:0:0:
192,192,126574,1,8,0:0:0:0:
64,192,126717,1,2,0:0:0:0:
448,192,126860,1,0,0:0:0:70:tom02.wav
320,192,127003,1,2,0:0:0:0:
64,192,127146,128,8,127717:0:0:0:0:
448,192,127146,1,4,0:0:0:0:
320,192,127432,1,8,0:0:0:0:
192,192,127717,1,8,0:0:0:0:
64,192,128003,1,8,0:0:0:0:
320,192,128289,1,8,0:0:0:0:
448,192,128289,1,4,0:0:0:0:
192,192,128574,128,2,128860:0:0:0:0:
448,192,128717,1,12,0:0:0:0:
320,192,128860,128,0,129146:0:0:0:70:tom01.wav
64,192,129003,1,2,0:0:0:0:
192,192,129146,1,4,0:0:0:0:
448,192,129146,128,8,129432:0:0:0:0:
64,192,129432,1,6,0:0:0:0:
320,192,129432,1,0,0:0:0:70:push_scratch.wav
320,192,129717,1,8,0:0:0:0:
192,192,129860,1,2,0:0:0:0:
64,192,130003,128,0,130289:0:0:0:100:LR_HiHat SClick.wav
448,192,130289,1,8,0:0:0:0:
320,192,130432,1,2,0:0:0:0:
192,192,130574,1,0,0:0:0:100:LR_HiHat SClick.wav
448,192,130860,128,8,131146:0:0:0:0:
192,192,131003,1,2,0:0:0:0:
320,192,131146,128,0,131432:0:0:0:100:LR_HiHat SClick.wav
64,192,131289,1,2,0:0:0:0:
192,192,131432,128,8,131717:0:0:0:0:
64,192,131717,1,2,0:0:0:0:
448,192,131717,1,0,0:0:0:100:LR_HiHat SClick.wav
192,192,132003,1,8,0:0:0:0:
320,192,132146,1,2,0:0:0:0:
448,192,132289,1,0,0:0:0:100:LR_HiHat SClick.wav
64,192,132574,1,8,0:0:0:0:
192,192,132717,1,2,0:0:0:0:
320,192,132860,1,0,0:0:0:100:LR_HiHat SClick.wav
64,192,133146,128,8,133432:0:0:0:0:
320,192,133289,1,2,0:0:0:0:
192,192,133432,128,0,133717:0:0:0:100:LR_HiHat SClick.wav
448,192,133574,1,2,0:0:0:0:
320,192,133717,128,8,134003:0:0:0:0:
64,192,134003,1,2,0:0:0:0:
192,192,134003,1,4,0:0:0:0:
448,192,134289,1,8,0:0:0:0:
192,192,134432,1,2,0:0:0:0:
320,192,134574,128,0,134860:0:0:0:100:LR_HiHat SClick.wav
64,192,134860,1,8,0:0:0:0:
192,192,135003,1,2,0:0:0:0:
448,192,135146,1,0,0:0:0:100:LR_HiHat SClick.wav
64,192,135432,128,8,135717:0:0:0:0:
448,192,135574,1,2,0:0:0:0:
192,192,135717,128,0,136003:0:0:0:100:LR_HiHat SClick.wav
320,192,135860,1,2,0:0:0:0:
448,192,136003,128,8,136289:0:0:0:0:
64,192,136289,1,2,0:0:0:0:
320,192,136289,1,0,0:0:0:100:LR_HiHat SClick.wav
192,192,136574,1,8,0:0:0:0:
320,192,136717,1,2,0:0:0:0:
448,192,136860,128,0,137146:0:0:0:100:LR_HiHat SClick.wav
320,192,137146,1,8,0:0:0:0:
64,192,137289,1,2,0:0:0:0:
192,192,137432,1,0,0:0:0:100:LR_HiHat SClick.wav
320,192,137717,128,8,138003:0:0:0:0:
192,192,137860,1,2,0:0:0:0:
64,192,138003,128,0,138289:0:0:0:100:LR_HiHat SClick.wav
448,192,138146,1,2,0:0:0:0:
192,192,138289,128,8,138574:0:0:0:0:
320,192,138574,1,4,0:0:0:0:
448,192,138574,1,2,0:0:0:0:
64,192,138860,1,8,0:0:0:0:
320,192,139003,1,2,0:0:0:0:
192,192,139146,128,0,139432:0:0:0:100:LR_HiHat SClick.wav
448,192,139432,1,8,0:0:0:0:
320,192,139574,1,2,0:0:0:0:
64,192,139717,1,0,0:0:0:100:LR_HiHat SClick.wav
448,192,140003,128,8,140289:0:0:0:0:
64,192,140146,1,2,0:0:0:0:
320,192,140289,128,0,140574:0:0:0:100:LR_HiHat SClick.wav
192,192,140432,1,2,0:0:0:0:
64,192,140574,128,8,140860:0:0:0:0:
320,192,140860,1,2,0:0:0:0:
448,192,140860,1,4,0:0:0:0:
192,192,141146,1,8,0:0:0:0:
320,192,141289,1,2,0:0:0:0:
64,192,141432,128,0,141717:0:0:0:100:LR_HiHat SClick.wav
448,192,141717,1,8,0:0:0:0:
320,192,141860,1,2,0:0:0:0:
64,192,142003,1,2,0:0:0:0:
192,192,142003,128,0,142289:0:0:0:100:LR_HiHat SClick.wav
320,192,142289,1,8,0:0:0:0:
448,192,142289,128,0,142432:0:0:0:70:hihat13.wav
64,192,142432,128,2,142574:0:0:0:0:
320,192,142717,1,2,0:0:0:0:
192,192,142860,1,8,0:0:0:0:
448,192,143003,1,2,0:0:0:0:
64,192,143146,128,2,143717:0:0:0:0:
320,192,143146,1,4,0:0:0:0:
320,192,143432,128,8,143717:0:0:0:0:
192,192,143717,128,8,144289:0:0:0:0:
448,192,143717,1,0,0:0:0:100:LR_HiHat SClick.wav
448,192,144003,128,8,144289:0:0:0:0:
64,192,144289,1,8,0:0:0:0:
320,192,144289,128,0,144860:0:0:0:100:LR_HiHat SClick.wav
64,192,144574,128,8,144860:0:0:0:0:
192,192,144860,1,8,0:0:0:0:
448,192,144860,128,0,145432:0:0:0:100:LR_HiHat SClick.wav
192,192,145146,128,8,145432:0:0:0:0:
64,192,145432,1,8,0:0:0:0:
320,192,145432,1,4,0:0:0:0:
192,192,145717,1,2,0:0:0:0:
320,192,145860,1,8,0:0:0:0:
448,192,145860,1,4,0:0:0:0:
64,192,146146,1,2,0:0:0:0:
192,192,146289,1,4,0:0:0:0:
448,192,146289,1,8,0:0:0:0:
320,192,146574,1,2,0:0:0:0:
64,192,146717,1,8,0:0:0:0:
192,192,146717,1,4,0:0:0:0:
448,192,146860,128,2,147146:0:0:0:0:
192,192,147146,1,4,0:0:0:0:
320,192,147146,128,8,147432:0:0:0:0:
448,192,147432,128,8,147717:0:0:0:0:
64,192,147717,128,6,148574:0:0:0:0:
192,192,147717,1,0,0:0:0:70:push_scratch.wav
320,192,148003,1,8,0:0:0:0:
448,192,148289,1,2,0:0:0:0:
192,192,148574,1,8,0:0:0:0:
448,192,148717,1,0,0:0:0:0:
320,192,148860,1,2,0:0:0:0:
192,192,149003,1,0,0:0:0:0:
64,192,149146,128,8,149432:0:0:0:0:
320,192,149289,1,0,0:0:0:0:
192,192,149432,128,2,149717:0:0:0:0:
448,192,149574,1,0,0:0:0:0:
320,192,149717,128,8,150003:0:0:0:0:
192,192,149860,1,0,0:0:0:0:
64,192,150003,1,2,0:0:0:0:
448,192,150003,128,0,150574:0:0:0:100:LR_HiHat SClick.wav
192,192,150289,1,8,0:0:0:0:
320,192,150574,1,2,0:0:0:0:
64,192,150717,1,0,0:0:0:0:
448,192,150860,1,8,0:0:0:0:
192,192,151003,1,0,0:0:0:0:
64,192,151146,1,2,0:0:0:0:
320,192,151289,1,0,0:0:0:0:
448,192,151432,128,8,151717:0:0:0:0:
64,192,151574,1,0,0:0:0:0:
320,192,151717,128,2,152003:0:0:0:0:
192,192,151860,1,0,0:0:0:0:
64,192,152003,128,8,152289:0:0:0:0:
320,192,152146,1,0,0:0:0:0:
192,192,152289,128,2,153146:0:0:0:0:
448,192,152289,1,4,0:0:0:0:
320,192,152574,1,8,0:0:0:0:
448,192,152860,1,2,0:0:0:0:
64,192,153146,1,8,0:0:0:0:
448,192,153289,1,0,0:0:0:0:
320,192,153432,1,2,0:0:0:0:
64,192,153574,1,0,0:0:0:0:
192,192,153717,128,8,154003:0:0:0:0:
448,192,153860,1,0,0:0:0:0:
64,192,154003,128,2,154289:0:0:0:0:
320,192,154146,1,0,0:0:0:0:
448,192,154289,128,8,154574:0:0:0:0:
192,192,154432,1,0,0:0:0:0:
64,192,154574,1,2,0:0:0:0:
320,192,154574,128,0,155432:0:0:0:100:LR_HiHat SClick.wav
192,192,154860,1,8,0:0:0:0:
64,192,155146,1,2,0:0:0:0:
448,192,155432,1,8,0:0:0:0:
64,192,155574,1,0,0:0:0:0:
192,192,155717,1,2,0:0:0:0:
448,192,155860,1,0,0:0:0:0:
320,192,156003,128,8,156289:0:0:0:0:
64,192,156146,1,0,0:0:0:0:
448,192,156289,128,2,156574:0:0:0:0:
192,192,156432,1,0,0:0:0:0:
64,192,156574,128,8,156860:0:0:0:0:
320,192,156717,1,0,0:0:0:0:
192,192,156860,1,4,0:0:0:0:
448,192,156860,128,2,157717:0:0:0:0:
64,192,157146,1,8,0:0:0:0:
64,192,157432,1,0,0:0:0:100:LR_HiHat SClick.wav
64,192,157717,128,8,158003:0:0:0:0:
192,192,158003,1,2,0:0:0:0:
448,192,158003,1,4,0:0:0:0:
192,192,158289,128,8,158574:0:0:0:0:
448,192,158289,1,0,0:0:0:70:hihat13.wav
64,192,158574,128,0,158860:0:0:0:100:LR_HiHat SClick.wav
320,192,158574,1,0,0:0:0:0:
192,192,158860,1,8,0:0:0:0:
448,192,158860,128,0,159146:0:0:0:70:hihat13.wav
64,192,159146,1,2,0:0:0:0:
320,192,159146,128,4,159717:0:0:0:0:
64,192,159432,1,8,0:0:0:0:
64,192,159717,128,0,160003:0:0:0:100:LR_HiHat SClick.wav
192,192,159860,1,2,0:0:0:0:
448,192,160003,1,8,0:0:0:0:
320,192,160146,1,0,0:0:0:0:
192,192,160289,128,2,160574:0:0:0:0:
448,192,160289,1,4,0:0:0:0:
64,192,160574,1,12,0:0:0:0:
320,192,160574,128,0,160717:0:0:0:70:hihat13.wav
192,192,160717,1,8,0:0:0:0:
448,192,160717,128,0,160860:0:0:0:0:
64,192,161003,1,8,0:0:0:0:
320,192,161146,1,0,0:0:0:70:tom01.wav
192,192,161289,1,0,0:0:0:70:tom03.wav
320,192,161432,1,6,0:0:0:0:
448,192,161432,1,0,0:0:0:70:push_scratch.wav
192,192,161717,1,8,0:0:0:0:
448,192,161860,1,2,0:0:0:0:
192,192,162003,1,0,0:0:0:100:LR_HiHat SClick.wav
320,192,162146,1,2,0:0:0:0:
64,192,162289,1,8,0:0:0:0:
320,192,162432,128,2,162574:0:0:0:0:
64,192,162574,128,0,162717:0:0:0:100:LR_HiHat SClick.wav
448,192,162717,1,2,0:0:0:0:
320,192,162860,128,8,163003:0:0:0:0:
192,192,163003,128,2,163146:0:0:0:0:
448,192,163146,1,0,0:0:0:100:LR_HiHat SClick.wav
192,192,163289,128,2,163432:0:0:0:0:
320,192,163432,128,8,163574:0:0:0:0:
448,192,163574,128,0,163717:0:0:0:0:
192,192,163717,1,0,0:0:0:100:LR_HiHat SClick.wav
64,192,163717,1,2,0:0:0:0:
320,192,164003,1,8,0:0:0:0:
448,192,164146,1,2,0:0:0:0:
192,192,164289,1,0,0:0:0:100:LR_HiHat SClick.wav
320,192,164432,1,2,0:0:0:0:
64,192,164574,1,8,0:0:0:0:
192,192,164717,128,2,164860:0:0:0:0:
448,192,164860,128,0,165003:0:0:0:100:LR_HiHat SClick.wav
64,192,165003,1,2,0:0:0:0:
320,192,165146,128,8,165289:0:0:0:0:
192,192,165289,128,2,165432:0:0:0:0:
448,192,165432,1,0,0:0:0:100:LR_HiHat SClick.wav
64,192,165574,128,2,165717:0:0:0:0:
192,192,165717,128,8,165860:0:0:0:0:
320,192,165860,128,2,166003:0:0:0:0:
64,192,166003,1,4,0:0:0:0:
448,192,166003,1,8,0:0:0:0:
192,192,166146,1,2,0:0:0:0:
448,192,166289,1,8,0:0:0:0:
64,192,166432,1,2,0:0:0:0:
320,192,166574,1,8,0:0:0:0:
192,192,166717,1,2,0:0:0:0:
448,192,166860,1,8,0:0:0:0:
64,192,167003,128,2,167146:0:0:0:0:
320,192,167146,128,8,167289:0:0:0:0:
192,192,167289,1,2,0:0:0:0:
448,192,167432,128,8,167574:0:0:0:0:
320,192,167574,128,2,167717:0:0:0:0:
192,192,167717,1,8,0:0:0:0:
64,192,167860,128,2,168003:0:0:0:0:
320,192,168003,128,8,168146:0:0:0:0:
192,192,168146,128,2,168289:0:0:0:0:
448,192,168289,1,8,0:0:0:0:
64,192,168432,1,4,0:0:0:0:
320,192,168432,1,2,0:0:0:0:
192,192,168717,1,8,0:0:0:0:
320,192,168860,1,4,0:0:0:0:
448,192,168860,1,2,0:0:0:0:
64,192,169146,1,8,0:0:0:0:
192,192,169289,1,2,0:0:0:0:
320,192,169289,1,4,0:0:0:0:
448,192,169574,1,8,0:0:0:0:
64,192,169717,1,2,0:0:0:0:
192,192,169717,1,4,0:0:0:0:
192,192,170003,1,2,0:0:0:0:
448,192,170003,128,4,170289:0:0:0:0:
64,192,170289,1,8,0:0:0:0:
320,192,170289,128,0,170569:0:0:0:0:
64,192,170569,1,6,0:0:0:0:
192,192,170569,1,0,0:0:0:70:push_scratch.wav
