osu file format v14

[General]
AudioFilename: audio.mp3
AudioLeadIn: 0
PreviewTime: 31645
Countdown: 0
SampleSet: Soft
StackLeniency: 0.7
Mode: 3
LetterboxInBreaks: 0
SpecialStyle: 0
WidescreenStoryboard: 1

[Editor]
Bookmarks: 81432
DistanceSpacing: 1.6
BeatDivisor: 4
GridSize: 8
TimelineZoom: 2.4

[Metadata]
Title:- FALLEN -
TitleUnicode:- ΓΛLLΞИ -
Artist:Kaneko Chiharu
ArtistUnicode:かねこちはる
Creator:Noch Einen
Version:Murumo's EXHAUST
Source:
Tags:LΞGΞNDARY -Episode.1- VALLEYSTONE Bad Fennec Records Fate Apocrypha Ruler Jeanne d'Arc La Pucelle Crimson Saint Guren no Seijo riunosk murumoo famoss
BeatmapID:2149609
BeatmapSetID:1022331

[Difficulty]
HPDrainRate:8
CircleSize:4
OverallDifficulty:8
ApproachRate:5
SliderMultiplier:1.4
SliderTickRate:1

[Events]
//Background and Video events
0,0,"einen.jpg",0,0
//Break Periods
//Storyboard Layer 0 (Background)
//Storyboard Layer 1 (Fail)
//Storyboard Layer 2 (Pass)
//Storyboard Layer 3 (Foreground)
//Storyboard Layer 4 (Overlay)
//Storyboard Sound Samples
Sample,46289,0,"hihat13.wav",70
Sample,46574,0,"LR_HiHat SClick.wav",100
Sample,102289,0,"hihat13.wav",70
Sample,102860,0,"hihat13.wav",70
Sample,104574,0,"hihat13.wav",70
Sample,105717,0,"hihat13.wav",70
Sample,106289,0,"hihat13.wav",70
Sample,110289,0,"hihat13.wav",70
Sample,121289,0,"tom01.wav",70
Sample,122432,0,"tom01.wav",70
Sample,123003,0,"tom01.wav",70
Sample,123574,0,"tom01.wav",70
Sample,124717,0,"tom01.wav",70
Sample,125289,0,"tom01.wav",70
Sample,125860,0,"tom01.wav",70
Sample,127003,0,"tom01.wav",70
Sample,127574,0,"tom01.wav",70
Sample,128146,0,"tom02.wav",70
Sample,145717,0,"hihat13.wav",70
Sample,146003,0,"LR_HiHat SClick.wav",100
Sample,146574,0,"LR_HiHat SClick.wav",100
Sample,146860,0,"hihat13.wav",70
Sample,151146,0,"LR_HiHat SClick.wav",100
Sample,160860,0,"LR_HiHat SClick.wav",100

[TimingPoints]
1974,333.333333333333,4,2,1,30,1,0
1974,-85.4700854700855,4,2,1,30,0,0
5973,319.148936170213,4,2,1,30,1,0
5973,-89.2857142857143,4,2,1,30,0,0
7249,333.333333333333,4,2,1,30,1,0
7249,-85.4700854700855,4,2,1,30,0,0
9248,383.386581469649,4,2,1,30,1,0
9248,-74.6268656716418,4,2,1,30,0,0
10014,323.450134770889,4,2,1,30,1,0
10014,-88.495575221239,4,2,1,30,0,0
11307,309.278350515464,4,2,1,30,1,0
11307,-92.5925925925926,4,2,1,30,0,0
12545,327.868852459016,4,2,1,30,1,0
12545,-86.9565217391304,4,2,1,30,0,0
16479,334.261838440111,4,2,1,30,1,0
16479,-85.4700854700855,4,2,1,30,0,0
17816,327.868852459016,4,2,1,30,1,0
17816,-86.9565217391304,4,2,1,30,0,0
21750,342.857142857143,4,2,1,30,1,0
21750,-83.3333333333333,4,2,1,30,0,0
22264,304.568527918782,4,2,1,30,1,0
22264,-93.4579439252336,4,2,1,30,0,0
22568,338.983050847458,4,2,1,30,1,0
22568,-84.0336134453782,4,2,1,30,0,0
23077,329.67032967033,4,2,1,50,1,0
23077,-86.9565217391304,4,2,1,50,0,0
30661,301.507537688442,4,2,1,50,1,0
30661,-94.3396226415094,4,2,1,50,0,0
30962,337.078651685393,4,2,1,50,1,0
30962,-84.7457627118644,4,2,1,50,0,0
31645,582.52427184466,4,2,1,50,1,0
31645,-49.0196078431373,4,2,1,50,0,0
32227,603.015075376884,4,2,1,50,1,0
32227,-47.39336492891,4,2,1,50,0,0
32836,600,4,2,1,50,1,0
32836,-47.6190476190476,4,2,1,50,0,0
33432,285.714285714286,4,2,1,70,1,0
33432,-100,4,2,1,70,0,1
47146,-100,4,2,1,70,0,0
56289,-100,4,2,1,60,0,0
111146,-100,4,2,1,30,0,0
119146,-100,4,2,1,50,0,0
124860,-100,4,2,1,60,0,0
129432,-100,4,2,1,70,0,1
170569,329.67032967033,4,2,1,70,1,0
170569,-86.9565217391304,4,2,1,70,0,0

[HitObjects]
64,192,1973,128,4,3307:0:0:0:0:
320,192,1973,128,0,3307:0:0:0:0:
448,192,1973,1,0,0:0:0:0:
448,192,3307,128,0,7249:0:0:0:0:
320,192,4640,128,0,5973:0:0:0:0:
192,192,5973,128,0,7249:0:0:0:0:
64,192,7249,128,0,12545:0:0:0:0:
320,192,11307,128,0,12545:0:0:0:0:
192,192,12545,1,0,0:0:0:0:
448,192,12545,128,0,12954:0:0:0:0:
448,192,13036,128,0,13446:0:0:0:0:
448,192,13528,1,0,0:0:0:0:
192,192,13856,1,0,0:0:0:0:
320,192,14184,1,0,0:0:0:0:
64,192,14512,1,0,0:0:0:0:
192,192,14840,1,0,0:0:0:0:
64,192,15167,128,0,15577:0:0:0:0:
448,192,15167,128,0,17816:0:0:0:0:
64,192,15659,128,0,16069:0:0:0:0:
64,192,16151,1,0,0:0:0:0:
320,192,16479,1,0,0:0:0:0:
64,192,16813,1,0,0:0:0:0:
320,192,17147,1,0,0:0:0:0:
192,192,17481,1,0,0:0:0:0:
64,192,17816,128,0,20438:0:0:0:0:
320,192,17816,128,0,18225:0:0:0:0:
320,192,18307,128,0,18717:0:0:0:0:
320,192,18799,1,0,0:0:0:0:
192,192,19127,1,0,0:0:0:0:
448,192,19455,1,0,0:0:0:0:
192,192,19783,1,0,0:0:0:0:
320,192,20111,1,0,0:0:0:0:
192,192,20438,1,0,0:0:0:0:
448,192,20438,1,0,0:0:0:0:
64,192,20602,1,0,0:0:0:0:
448,192,20602,1,0,0:0:0:0:
320,192,20930,1,0,0:0:0:0:
64,192,21258,1,0,0:0:0:0:
192,192,21258,1,0,0:0:0:0:
64,192,21422,1,0,0:0:0:0:
448,192,21422,1,0,0:0:0:0:
320,192,21586,1,0,0:0:0:0:
448,192,21586,1,0,0:0:0:0:
64,192,21750,1,0,0:0:0:0:
192,192,21750,1,0,0:0:0:0:
320,192,21921,1,0,0:0:0:0:
448,192,21921,1,0,0:0:0:0:
64,192,22092,1,0,0:0:0:0:
448,192,22092,1,0,0:0:0:0:
64,192,22264,1,0,0:0:0:0:
192,192,22264,1,0,0:0:0:0:
320,192,22416,1,0,0:0:0:0:
448,192,22416,1,0,0:0:0:0:
320,192,22568,1,0,0:0:0:50:hihat13.wav
192,192,22652,1,0,0:0:0:50:hihat06.wav
64,192,22737,128,0,23077:0:0:0:70:hihat02.wav
192,192,23077,1,2,0:0:0:0:
320,192,23077,1,0,0:0:0:0:
448,192,23077,1,0,0:0:0:0:
320,192,23241,1,2,0:0:0:0:
448,192,23241,1,0,0:0:0:50:hihat13.wav
320,192,23571,1,2,0:0:0:0:
448,192,23571,1,0,0:0:0:50:hihat13.wav
320,192,23901,1,2,0:0:0:0:
448,192,23901,1,0,0:0:0:50:hihat13.wav
320,192,24230,1,2,0:0:0:0:
448,192,24230,1,0,0:0:0:50:hihat13.wav
320,192,24560,1,2,0:0:0:0:
448,192,24560,1,0,0:0:0:50:hihat13.wav
320,192,24890,1,2,0:0:0:0:
448,192,24890,1,0,0:0:0:50:hihat13.wav
320,192,25055,1,2,0:0:0:0:
448,192,25055,1,0,0:0:0:50:hihat13.wav
64,192,25219,1,0,0:0:0:50:hihat13.wav
192,192,25302,1,0,0:0:0:50:hihat06.wav
320,192,25384,1,2,0:0:0:0:
448,192,25384,1,0,0:0:0:70:hihat02.wav
64,192,25714,1,4,0:0:0:0:
192,192,25714,1,2,0:0:0:0:
448,192,25714,1,0,0:0:0:0:
64,192,25879,1,2,0:0:0:0:
192,192,25879,1,0,0:0:0:50:hihat13.wav
64,192,26208,1,2,0:0:0:0:
192,192,26208,1,0,0:0:0:50:hihat13.wav
64,192,26538,1,2,0:0:0:0:
192,192,26538,1,0,0:0:0:50:hihat13.wav
64,192,26868,1,2,0:0:0:0:
192,192,26868,1,0,0:0:0:50:hihat13.wav
64,192,27197,1,2,0:0:0:0:
192,192,27197,1,0,0:0:0:50:hihat13.wav
64,192,27527,1,2,0:0:0:0:
192,192,27527,1,0,0:0:0:50:hihat13.wav
64,192,27692,1,2,0:0:0:0:
192,192,27692,1,0,0:0:0:50:hihat13.wav
448,192,27857,1,0,0:0:0:50:hihat13.wav
320,192,27939,1,0,0:0:0:50:hihat06.wav
64,192,28022,1,2,0:0:0:0:
192,192,28022,1,0,0:0:0:70:hihat02.wav
192,192,28351,1,4,0:0:0:0:
320,192,28351,1,2,0:0:0:0:
448,192,28351,1,0,0:0:0:0:
192,192,28516,1,2,0:0:0:0:
448,192,28516,1,0,0:0:0:50:hihat13.wav
64,192,28846,1,8,0:0:0:0:
448,192,28846,1,0,0:0:0:50:hihat13.wav
192,192,29175,1,2,0:0:0:0:
448,192,29175,1,0,0:0:0:50:hihat13.wav
320,192,29340,1,0,0:0:0:50:hihat13.wav
64,192,29505,1,8,0:0:0:0:
320,192,29505,1,0,0:0:0:50:hihat13.wav
192,192,29835,1,2,0:0:0:0:
448,192,29835,1,0,0:0:0:50:hihat13.wav
192,192,30000,1,0,0:0:0:50:hihat13.wav
64,192,30164,1,8,0:0:0:0:
320,192,30164,1,0,0:0:0:50:hihat13.wav
448,192,30164,1,0,0:0:0:0:
64,192,30329,1,2,0:0:0:0:
192,192,30329,1,0,0:0:0:50:hihat13.wav
320,192,30494,1,0,0:0:0:50:hihat13.wav
64,192,30661,1,8,0:0:0:0:
192,192,30661,1,0,0:0:0:70:hihat02.wav
448,192,30661,1,0,0:0:0:0:
64,192,30962,1,0,0:0:0:70:breaking_thunder.wav
192,192,30962,1,0,0:0:0:0:
448,192,31645,128,0,33286:0:0:0:0:
320,192,32227,128,0,33286:0:0:0:0:
192,192,32836,128,0,33286:0:0:0:0:
64,192,33432,128,4,33574:0:0:0:0:
320,192,33432,1,2,0:0:0:0:
448,192,33432,1,0,0:0:0:0:
320,192,33574,128,0,33717:0:0:0:0:
64,192,33717,1,8,0:0:0:0:
448,192,33717,128,0,33860:0:0:0:70:hihat13.wav
192,192,33860,128,2,34003:0:0:0:0:
320,192,34003,128,0,34146:0:0:0:100:LR_HiHat SClick.wav
448,192,34003,1,0,0:0:0:0:
64,192,34146,128,2,34289:0:0:0:0:
192,192,34289,128,8,34432:0:0:0:0:
320,192,34289,1,0,0:0:0:70:hihat13.wav
448,192,34432,128,2,34574:0:0:0:0:
64,192,34574,1,0,0:0:0:100:LR_HiHat SClick.wav
192,192,34574,128,0,34717:0:0:0:0:
320,192,34717,128,2,34860:0:0:0:0:
64,192,34860,128,8,35432:0:0:0:0:
192,192,34860,128,0,35003:0:0:0:70:hihat13.wav
448,192,35003,128,2,35146:0:0:0:0:
192,192,35146,128,0,35432:0:0:0:100:LR_HiHat SClick.wav
320,192,35146,1,0,0:0:0:0:
448,192,35289,1,2,0:0:0:0:
320,192,35432,128,8,35574:0:0:0:0:
448,192,35432,128,0,35717:0:0:0:70:hihat13.wav
64,192,35574,128,0,35717:0:0:0:0:
192,192,35717,1,2,0:0:0:0:
320,192,35717,128,0,35860:0:0:0:100:LR_HiHat SClick.wav
192,192,35860,128,0,36003:0:0:0:0:
64,192,36003,1,8,0:0:0:0:
448,192,36003,128,0,36146:0:0:0:70:hihat13.wav
320,192,36146,128,2,36289:0:0:0:0:
64,192,36289,128,0,36432:0:0:0:100:LR_HiHat SClick.wav
192,192,36289,1,0,0:0:0:0:
320,192,36432,128,2,36574:0:0:0:0:
448,192,36432,1,0,0:0:0:0:
64,192,36574,128,8,36717:0:0:0:0:
448,192,36574,1,0,0:0:0:70:hihat13.wav
192,192,36717,128,2,36860:0:0:0:0:
320,192,36717,1,0,0:0:0:0:
64,192,36860,1,0,0:0:0:100:LR_HiHat SClick.wav
448,192,36860,1,0,0:0:0:0:
192,192,37003,1,2,0:0:0:0:
320,192,37146,128,8,37289:0:0:0:0:
448,192,37146,128,0,37717:0:0:0:70:hihat13.wav
64,192,37289,128,2,37432:0:0:0:0:
192,192,37432,1,0,0:0:0:100:LR_HiHat SClick.wav
320,192,37432,128,0,37717:0:0:0:0:
64,192,37574,1,2,0:0:0:0:
64,192,37717,128,8,38003:0:0:0:0:
192,192,37717,128,0,37860:0:0:0:70:hihat13.wav
320,192,37860,1,0,0:0:0:0:
192,192,38003,1,2,0:0:0:0:
320,192,38003,1,4,0:0:0:0:
448,192,38003,128,0,38146:0:0:0:0:
192,192,38146,128,0,38289:0:0:0:0:
64,192,38289,128,8,38432:0:0:0:0:
448,192,38289,1,0,0:0:0:70:hihat13.wav
320,192,38432,128,2,38574:0:0:0:0:
64,192,38574,1,0,0:0:0:100:LR_HiHat SClick.wav
192,192,38574,128,0,38717:0:0:0:0:
320,192,38717,128,2,38860:0:0:0:0:
192,192,38860,1,8,0:0:0:0:
448,192,38860,128,0,39003:0:0:0:70:hihat13.wav
64,192,39003,128,2,39146:0:0:0:0:
192,192,39146,128,0,39289:0:0:0:100:LR_HiHat SClick.wav
448,192,39146,1,0,0:0:0:0:
320,192,39289,128,2,39432:0:0:0:0:
64,192,39432,128,8,39574:0:0:0:0:
448,192,39432,128,0,40003:0:0:0:70:hihat13.wav
192,192,39574,128,2,39717:0:0:0:0:
64,192,39717,128,0,40003:0:0:0:100:LR_HiHat SClick.wav
320,192,39717,1,0,0:0:0:0:
192,192,39860,1,2,0:0:0:0:
192,192,40003,128,8,40289:0:0:0:0:
320,192,40003,128,0,40146:0:0:0:70:hihat13.wav
448,192,40146,128,0,40289:0:0:0:0:
64,192,40289,128,2,40432:0:0:0:0:
320,192,40289,1,0,0:0:0:100:LR_HiHat SClick.wav
192,192,40432,128,0,40574:0:0:0:0:
64,192,40574,1,8,0:0:0:0:
448,192,40574,128,0,40717:0:0:0:70:hihat13.wav
320,192,40717,128,2,40860:0:0:0:0:
192,192,40860,128,0,41003:0:0:0:100:LR_HiHat SClick.wav
448,192,40860,1,0,0:0:0:0:
64,192,41003,128,2,41146:0:0:0:0:
320,192,41146,128,8,41289:0:0:0:0:
448,192,41146,1,0,0:0:0:70:hihat13.wav
448,192,41289,128,2,41432:0:0:0:0:
64,192,41432,1,0,0:0:0:100:LR_HiHat SClick.wav
320,192,41432,128,0,41574:0:0:0:0:
192,192,41574,128,2,41717:0:0:0:0:
64,192,41717,128,8,42289:0:0:0:0:
448,192,41717,128,0,41860:0:0:0:70:hihat13.wav
320,192,41860,128,2,42003:0:0:0:0:
192,192,42003,1,0,0:0:0:100:LR_HiHat SClick.wav
448,192,42003,128,0,42289:0:0:0:0:
320,192,42146,1,2,0:0:0:0:
192,192,42289,128,8,42432:0:0:0:0:
320,192,42289,128,0,42574:0:0:0:70:hihat13.wav
64,192,42432,1,0,0:0:0:0:
64,192,42574,1,4,0:0:0:0:
192,192,42574,1,2,0:0:0:0:
448,192,42574,128,0,42717:0:0:0:0:
320,192,42717,128,0,42860:0:0:0:0:
64,192,42860,128,8,43003:0:0:0:0:
192,192,42860,1,0,0:0:0:70:hihat13.wav
320,192,43003,128,2,43146:0:0:0:0:
192,192,43146,128,0,43289:0:0:0:100:LR_HiHat SClick.wav
448,192,43146,1,0,0:0:0:0:
64,192,43289,128,2,43432:0:0:0:0:
192,192,43432,1,8,0:0:0:0:
448,192,43432,128,0,43574:0:0:0:70:hihat13.wav
320,192,43574,128,2,43717:0:0:0:0:
64,192,43717,128,0,43860:0:0:0:100:LR_HiHat SClick.wav
448,192,43717,1,0,0:0:0:0:
192,192,43860,128,2,44003:0:0:0:0:
64,192,44003,128,8,44574:0:0:0:0:
448,192,44003,128,0,44146:0:0:0:70:hihat13.wav
320,192,44146,128,2,44289:0:0:0:0:
448,192,44289,128,0,44574:0:0:0:100:LR_HiHat SClick.wav
192,192,44432,1,2,0:0:0:0:
192,192,44574,128,8,44717:0:0:0:0:
320,192,44574,128,0,44860:0:0:0:70:hihat13.wav
64,192,44717,1,0,0:0:0:0:
64,192,44860,1,2,0:0:0:0:
192,192,44860,1,4,0:0:0:0:
448,192,44860,1,0,0:0:0:0:
320,192,44955,1,0,0:0:0:0:
192,192,45051,1,0,0:0:0:0:
64,192,45146,1,8,0:0:0:0:
448,192,45146,1,0,0:0:0:70:hihat13.wav
192,192,45241,1,0,0:0:0:0:
320,192,45336,1,0,0:0:0:0:
64,192,45432,1,0,0:0:0:100:LR_HiHat SClick.wav
192,192,45432,1,0,0:0:0:0:
448,192,45527,1,0,0:0:0:0:
320,192,45622,1,0,0:0:0:0:
192,192,45717,1,8,0:0:0:0:
448,192,45717,1,0,0:0:0:70:hihat13.wav
64,192,45812,1,0,0:0:0:0:
320,192,45908,1,0,0:0:0:0:
192,192,46003,1,8,0:0:0:0:
448,192,46003,1,4,0:0:0:0:
64,192,46074,1,0,0:0:0:0:
448,192,46146,1,2,0:0:0:0:
320,192,46217,1,0,0:0:0:0:
192,192,46289,1,8,0:0:0:0:
64,192,46360,1,0,0:0:0:0:
448,192,46432,1,8,0:0:0:0:
192,192,46503,1,0,0:0:0:0:
320,192,46574,1,2,0:0:0:0:
448,192,46646,1,0,0:0:0:0:
64,192,46717,1,8,0:0:0:0:
192,192,46789,1,0,0:0:0:0:
320,192,46860,1,0,0:0:0:70:tom01.wav
448,192,46932,1,0,0:0:0:0:
192,192,47003,1,0,0:0:0:70:tom02.wav
320,192,47074,1,0,0:0:0:0:
64,192,47146,1,2,0:0:0:0:
192,192,47146,1,4,0:0:0:0:
448,192,47146,1,0,0:0:0:70:twinkling.ogg
192,192,47432,128,0,47574:0:0:0:0:
448,192,47574,128,0,47717:0:0:0:0:
192,192,47717,128,0,47860:0:0:0:0:
64,192,47860,128,0,48003:0:0:0:0:
320,192,48003,128,0,48146:0:0:0:0:
448,192,48146,128,0,48289:0:0:0:0:
64,192,48289,128,0,48432:0:0:0:0:
320,192,48432,128,0,48574:0:0:0:0:
64,192,48574,128,0,48717:0:0:0:0:
192,192,48717,128,0,48860:0:0:0:0:
448,192,48860,128,0,49003:0:0:0:0:
320,192,49003,128,0,49146:0:0:0:0:
448,192,49146,128,0,49289:0:0:0:0:
192,192,49289,128,0,49432:0:0:0:0:
64,192,49432,128,0,49717:0:0:0:0:
320,192,49432,1,0,0:0:0:0:
448,192,49717,128,0,49860:0:0:0:0:
192,192,49860,128,0,50003:0:0:0:0:
448,192,50003,128,0,50146:0:0:0:0:
320,192,50146,128,0,50289:0:0:0:0:
192,192,50289,128,0,50432:0:0:0:0:
448,192,50432,128,0,50574:0:0:0:0:
64,192,50574,128,0,50717:0:0:0:0:
192,192,50574,1,0,0:0:0:0:
320,192,50717,128,0,50860:0:0:0:0:
64,192,50860,128,0,51003:0:0:0:0:
192,192,51003,128,0,51146:0:0:0:0:
448,192,51146,128,0,51289:0:0:0:0:
320,192,51289,128,0,51432:0:0:0:0:
448,192,51432,128,0,51574:0:0:0:0:
192,192,51574,128,0,51717:0:0:0:0:
64,192,51717,128,0,52003:0:0:0:0:
320,192,51717,1,0,0:0:0:0:
448,192,51717,1,0,0:0:0:0:
192,192,51860,128,0,52003:0:0:0:0:
448,192,52003,128,0,52146:0:0:0:0:
192,192,52146,128,0,52289:0:0:0:0:
448,192,52289,128,0,52432:0:0:0:0:
320,192,52432,128,0,52574:0:0:0:0:
64,192,52574,128,0,52717:0:0:0:0:
448,192,52717,128,0,52860:0:0:0:0:
64,192,52860,128,0,53003:0:0:0:0:
320,192,53003,128,0,53146:0:0:0:0:
64,192,53146,128,0,53289:0:0:0:0:
192,192,53289,128,0,53432:0:0:0:0:
448,192,53432,128,0,53574:0:0:0:0:
64,192,53574,128,0,53717:0:0:0:0:
320,192,53717,128,0,53860:0:0:0:0:
192,192,53860,128,0,54003:0:0:0:0:
64,192,54003,1,0,0:0:0:0:
320,192,54003,128,0,54146:0:0:0:0:
448,192,54146,128,0,54289:0:0:0:0:
192,192,54289,128,0,54432:0:0:0:0:
320,192,54432,1,0,0:0:0:0:
448,192,54432,128,0,54574:0:0:0:0:
64,192,54574,128,0,54717:0:0:0:0:
320,192,54717,128,0,54860:0:0:0:0:
192,192,54860,128,0,55003:0:0:0:0:
448,192,54860,1,0,0:0:0:0:
64,192,55003,128,0,55146:0:0:0:0:
448,192,55146,128,0,55289:0:0:0:0:
64,192,55289,1,0,0:0:0:0:
192,192,55289,128,0,55432:0:0:0:0:
320,192,55432,128,0,55574:0:0:0:0:
64,192,55574,128,0,55717:0:0:0:0:
320,192,55717,128,0,55860:0:0:0:0:
192,192,55860,128,0,56003:0:0:0:0:
448,192,56003,128,0,56146:0:0:0:0:
320,192,56146,128,0,56289:0:0:0:0:
64,192,56289,1,2,0:0:0:0:
192,192,56289,1,4,0:0:0:0:
448,192,56289,1,0,0:0:0:0:
192,192,56432,1,0,0:0:0:0:
64,192,56574,1,2,0:0:0:0:
448,192,56574,1,0,0:0:0:0:
64,192,56717,1,0,0:0:0:0:
320,192,56860,1,2,0:0:0:0:
448,192,56860,1,0,0:0:0:0:
320,192,57003,1,0,0:0:0:0:
192,192,57146,1,2,0:0:0:0:
448,192,57146,1,0,0:0:0:0:
448,192,57289,1,0,0:0:0:0:
64,192,57432,1,2,0:0:0:0:
320,192,57432,1,0,0:0:0:0:
64,192,57574,1,0,0:0:0:0:
320,192,57717,1,2,0:0:0:0:
448,192,57717,1,0,0:0:0:0:
320,192,57860,1,0,0:0:0:0:
64,192,58003,1,2,0:0:0:0:
448,192,58003,1,0,0:0:0:0:
448,192,58146,1,0,0:0:0:0:
64,192,58289,1,2,0:0:0:0:
192,192,58289,1,0,0:0:0:0:
192,192,58432,1,0,0:0:0:0:
64,192,58574,1,2,0:0:0:0:
320,192,58574,1,0,0:0:0:0:
320,192,58717,1,0,0:0:0:0:
64,192,58860,1,2,0:0:0:0:
448,192,58860,1,0,0:0:0:0:
448,192,59003,1,0,0:0:0:0:
64,192,59146,1,2,0:0:0:0:
192,192,59146,1,0,0:0:0:0:
192,192,59289,1,0,0:0:0:0:
64,192,59432,1,2,0:0:0:0:
320,192,59432,1,0,0:0:0:0:
320,192,59574,1,0,0:0:0:0:
64,192,59717,1,2,0:0:0:0:
448,192,59717,1,0,0:0:0:0:
64,192,59860,1,0,0:0:0:0:
192,192,60003,1,2,0:0:0:0:
448,192,60003,1,0,0:0:0:0:
192,192,60146,1,0,0:0:0:0:
320,192,60289,1,2,0:0:0:0:
448,192,60289,1,0,0:0:0:0:
320,192,60432,1,0,0:0:0:0:
64,192,60574,1,2,0:0:0:0:
448,192,60574,1,0,0:0:0:0:
448,192,60717,1,0,0:0:0:0:
64,192,60860,1,2,0:0:0:0:
192,192,60860,1,4,0:0:0:0:
320,192,60860,1,0,0:0:0:0:
64,192,61003,1,0,0:0:0:0:
320,192,61146,1,2,0:0:0:0:
448,192,61146,1,0,0:0:0:0:
320,192,61289,1,0,0:0:0:0:
192,192,61432,1,2,0:0:0:0:
448,192,61432,1,0,0:0:0:0:
192,192,61574,1,0,0:0:0:0:
64,192,61717,1,2,0:0:0:0:
448,192,61717,1,0,0:0:0:0:
448,192,61860,1,0,0:0:0:0:
64,192,62003,1,2,0:0:0:0:
192,192,62003,1,0,0:0:0:0:
192,192,62146,1,0,0:0:0:0:
320,192,62289,1,2,0:0:0:0:
448,192,62289,1,0,0:0:0:0:
448,192,62432,1,0,0:0:0:0:
64,192,62574,1,2,0:0:0:0:
320,192,62574,1,0,0:0:0:0:
64,192,62717,1,0,0:0:0:0:
192,192,62860,1,2,0:0:0:0:
320,192,62860,1,0,0:0:0:0:
320,192,63003,1,0,0:0:0:0:
64,192,63146,1,2,0:0:0:0:
448,192,63146,1,0,0:0:0:0:
64,192,63289,1,0,0:0:0:0:
320,192,63432,1,2,0:0:0:0:
448,192,63432,1,0,0:0:0:0:
320,192,63574,1,0,0:0:0:0:
192,192,63717,1,2,0:0:0:0:
448,192,63717,1,0,0:0:0:0:
192,192,63860,1,0,0:0:0:0:
64,192,64003,1,2,0:0:0:0:
320,192,64003,1,0,0:0:0:0:
64,192,64146,1,0,0:0:0:0:
320,192,64289,1,2,0:0:0:0:
448,192,64289,1,0,0:0:0:0:
320,192,64432,1,0,0:0:0:0:
64,192,64574,1,2,0:0:0:0:
192,192,64574,1,0,0:0:0:0:
192,192,64717,1,0,0:0:0:0:
64,192,64860,1,2,0:0:0:0:
448,192,64860,1,0,0:0:0:0:
448,192,65003,1,0,0:0:0:0:
64,192,65146,1,2,0:0:0:0:
320,192,65146,1,0,0:0:0:0:
64,192,65289,1,0,0:0:0:0:
192,192,65432,1,2,0:0:0:0:
320,192,65432,1,4,0:0:0:0:
448,192,65432,128,0,66574:0:0:0:100:LR_Snare Hollow.wav
192,192,65574,1,0,0:0:0:0:
64,192,65717,1,2,0:0:0:0:
320,192,65717,1,0,0:0:0:0:
64,192,65860,1,0,0:0:0:0:
192,192,66003,1,2,0:0:0:0:
320,192,66003,1,0,0:0:0:0:
320,192,66146,1,0,0:0:0:0:
64,192,66289,1,2,0:0:0:0:
192,192,66289,1,0,0:0:0:0:
192,192,66432,1,0,0:0:0:0:
64,192,66574,1,2,0:0:0:0:
320,192,66574,128,0,67717:0:0:0:0:
64,192,66717,1,0,0:0:0:0:
192,192,66860,1,2,0:0:0:0:
448,192,66860,1,0,0:0:0:0:
192,192,67003,1,0,0:0:0:0:
64,192,67146,1,2,0:0:0:0:
448,192,67146,1,0,0:0:0:0:
64,192,67289,1,0,0:0:0:0:
192,192,67432,1,2,0:0:0:0:
448,192,67432,1,0,0:0:0:0:
448,192,67574,1,0,0:0:0:0:
64,192,67717,1,2,0:0:0:0:
192,192,67717,128,0,68860:0:0:0:0:
64,192,67860,1,0,0:0:0:0:
320,192,68003,1,2,0:0:0:0:
448,192,68003,1,0,0:0:0:0:
320,192,68146,1,0,0:0:0:0:
64,192,68289,1,2,0:0:0:0:
448,192,68289,1,0,0:0:0:0:
448,192,68432,1,0,0:0:0:0:
64,192,68574,1,2,0:0:0:0:
320,192,68574,1,0,0:0:0:0:
64,192,68717,1,0,0:0:0:0:
320,192,68860,1,2,0:0:0:0:
448,192,68860,128,0,70003:0:0:0:0:
320,192,69003,1,0,0:0:0:0:
64,192,69146,1,2,0:0:0:0:
192,192,69146,1,0,0:0:0:0:
192,192,69289,1,0,0:0:0:0:
64,192,69432,1,2,0:0:0:0:
320,192,69432,1,0,0:0:0:0:
320,192,69574,1,0,0:0:0:0:
64,192,69717,1,2,0:0:0:0:
192,192,69717,1,0,0:0:0:0:
192,192,69860,1,0,0:0:0:0:
64,192,70003,128,2,72289:0:0:0:0:
192,192,70003,1,4,0:0:0:0:
320,192,70003,1,0,0:0:0:0:
320,192,70146,1,0,0:0:0:0:
192,192,70289,1,2,0:0:0:0:
448,192,70289,1,0,0:0:0:0:
448,192,70432,1,0,0:0:0:0:
192,192,70574,1,2,0:0:0:0:
320,192,70574,1,0,0:0:0:0:
192,192,70717,1,0,0:0:0:0:
320,192,70860,1,2,0:0:0:0:
448,192,70860,1,0,0:0:0:0:
448,192,71003,1,0,0:0:0:0:
192,192,71146,1,2,0:0:0:0:
320,192,71146,1,0,0:0:0:0:
320,192,71289,1,0,0:0:0:0:
192,192,71432,1,2,0:0:0:0:
448,192,71432,1,0,0:0:0:0:
192,192,71574,1,0,0:0:0:0:
320,192,71717,1,2,0:0:0:0:
448,192,71717,1,0,0:0:0:0:
448,192,71860,1,0,0:0:0:0:
192,192,72003,1,2,0:0:0:0:
320,192,72003,1,0,0:0:0:0:
320,192,72146,1,0,0:0:0:0:
192,192,72289,128,2,73432:0:0:0:0:
448,192,72289,1,0,0:0:0:0:
448,192,72432,1,0,0:0:0:0:
64,192,72574,1,2,0:0:0:0:
320,192,72574,1,0,0:0:0:0:
320,192,72717,1,0,0:0:0:0:
64,192,72860,1,2,0:0:0:0:
448,192,72860,1,0,0:0:0:0:
64,192,73003,1,0,0:0:0:0:
320,192,73146,1,2,0:0:0:0:
448,192,73146,1,0,0:0:0:0:
320,192,73289,1,0,0:0:0:0:
64,192,73432,1,2,0:0:0:0:
448,192,73432,128,0,74003:0:0:0:0:
64,192,73574,1,0,0:0:0:0:
192,192,73717,1,2,0:0:0:0:
320,192,73717,1,0,0:0:0:0:
192,192,73860,128,0,74003:0:0:0:0:
64,192,74003,128,2,74289:0:0:0:0:
320,192,74003,1,0,0:0:0:0:
192,192,74146,128,0,74289:0:0:0:0:
320,192,74289,128,8,74503:0:0:0:0:
448,192,74289,1,0,0:0:0:0:
192,192,74432,128,0,74503:0:0:0:0:
64,192,74574,1,4,0:0:0:0:
192,192,74574,1,2,0:0:0:0:
320,192,74574,1,0,0:0:0:70:push_scratch.wav
448,192,74574,1,0,0:0:0:0:
320,192,74717,1,0,0:0:0:0:
64,192,74860,1,8,0:0:0:0:
192,192,74860,1,0,0:0:0:50:hihat02.wav
448,192,74860,1,0,0:0:0:0:
192,192,75003,1,2,0:0:0:0:
64,192,75146,1,0,0:0:0:70:HHOpen.wav
320,192,75146,1,0,0:0:0:0:
448,192,75146,1,0,0:0:0:0:
448,192,75289,1,2,0:0:0:0:
64,192,75432,1,8,0:0:0:0:
192,192,75432,1,0,0:0:0:50:hihat02.wav
320,192,75432,1,0,0:0:0:0:
64,192,75574,1,2,0:0:0:0:
192,192,75717,1,0,0:0:0:70:HHOpen.wav
320,192,75717,1,0,0:0:0:0:
448,192,75717,1,0,0:0:0:0:
448,192,75860,1,2,0:0:0:0:
64,192,76003,1,8,0:0:0:0:
192,192,76003,1,0,0:0:0:50:hihat02.wav
320,192,76003,1,0,0:0:0:0:
192,192,76146,1,2,0:0:0:0:
64,192,76289,1,0,0:0:0:70:HHOpen.wav
320,192,76289,1,0,0:0:0:0:
448,192,76289,1,0,0:0:0:0:
320,192,76432,1,2,0:0:0:0:
64,192,76574,1,8,0:0:0:0:
192,192,76574,1,0,0:0:0:50:hihat02.wav
448,192,76574,1,0,0:0:0:0:
64,192,76717,1,0,0:0:0:0:
192,192,76860,1,2,0:0:0:0:
320,192,76860,1,0,0:0:0:70:HHOpen.wav
448,192,76860,1,0,0:0:0:0:
448,192,77003,1,0,0:0:0:0:
64,192,77146,1,8,0:0:0:0:
192,192,77146,1,0,0:0:0:50:hihat02.wav
320,192,77146,1,0,0:0:0:0:
192,192,77289,1,2,0:0:0:0:
64,192,77432,1,0,0:0:0:70:HHOpen.wav
320,192,77432,1,0,0:0:0:0:
448,192,77432,1,0,0:0:0:0:
64,192,77574,1,2,0:0:0:0:
192,192,77717,1,8,0:0:0:0:
320,192,77717,1,0,0:0:0:50:hihat02.wav
448,192,77717,1,0,0:0:0:0:
448,192,77860,1,2,0:0:0:0:
64,192,78003,1,0,0:0:0:70:HHOpen.wav
192,192,78003,1,0,0:0:0:0:
320,192,78003,1,0,0:0:0:0:
192,192,78146,1,2,0:0:0:0:
64,192,78289,1,8,0:0:0:0:
320,192,78289,1,0,0:0:0:50:hihat02.wav
448,192,78289,1,0,0:0:0:0:
448,192,78432,1,2,0:0:0:0:
64,192,78574,1,0,0:0:0:70:HHOpen.wav
192,192,78574,1,0,0:0:0:0:
320,192,78574,1,0,0:0:0:0:
192,192,78717,1,2,0:0:0:0:
64,192,78860,1,8,0:0:0:0:
320,192,78860,1,0,0:0:0:50:hihat02.wav
448,192,78860,1,0,0:0:0:0:
64,192,79003,1,0,0:0:0:0:
192,192,79146,1,2,0:0:0:0:
320,192,79146,1,4,0:0:0:0:
448,192,79146,1,0,0:0:0:0:
320,192,79289,1,0,0:0:0:0:
64,192,79432,1,8,0:0:0:0:
192,192,79432,1,0,0:0:0:50:hihat02.wav
448,192,79432,1,0,0:0:0:0:
192,192,79574,1,2,0:0:0:0:
64,192,79717,1,0,0:0:0:70:HHOpen.wav
320,192,79717,1,0,0:0:0:0:
448,192,79717,1,0,0:0:0:0:
320,192,79860,1,2,0:0:0:0:
64,192,80003,1,8,0:0:0:0:
192,192,80003,1,0,0:0:0:50:hihat02.wav
448,192,80003,1,0,0:0:0:0:
448,192,80146,1,2,0:0:0:0:
64,192,80289,1,0,0:0:0:70:HHOpen.wav
192,192,80289,1,0,0:0:0:0:
320,192,80289,1,0,0:0:0:0:
192,192,80432,1,2,0:0:0:0:
64,192,80574,1,8,0:0:0:0:
320,192,80574,1,0,0:0:0:50:hihat02.wav
448,192,80574,1,0,0:0:0:0:
64,192,80717,1,2,0:0:0:0:
192,192,80860,1,0,0:0:0:70:HHOpen.wav
320,192,80860,1,0,0:0:0:0:
448,192,80860,1,0,0:0:0:0:
320,192,81003,1,2,0:0:0:0:
64,192,81146,1,8,0:0:0:0:
192,192,81146,1,0,0:0:0:50:hihat02.wav
448,192,81146,1,0,0:0:0:0:
320,192,81289,1,2,0:0:0:0:
64,192,81432,128,8,81574:0:0:0:0:
192,192,81432,1,4,0:0:0:0:
320,192,81432,1,0,0:0:0:0:
448,192,81432,1,0,0:0:0:0:
192,192,81574,128,2,81717:0:0:0:0:
320,192,81717,1,8,0:0:0:0:
448,192,81717,128,0,81860:0:0:0:50:hihat02.wav
192,192,81860,128,2,82003:0:0:0:0:
64,192,82003,128,8,82146:0:0:0:0:
448,192,82003,1,0,0:0:0:50:hihat02.wav
320,192,82146,128,2,82289:0:0:0:0:
64,192,82289,1,8,0:0:0:0:
448,192,82289,128,0,82432:0:0:0:50:hihat02.wav
192,192,82432,128,2,82574:0:0:0:0:
320,192,82574,128,8,82717:0:0:0:0:
448,192,82574,1,0,0:0:0:70:HHOpen.wav
64,192,82717,128,2,82860:0:0:0:0:
320,192,82860,128,2,83003:0:0:0:0:
64,192,83003,1,0,0:0:0:70:tom01.wav
192,192,83003,128,0,83146:0:0:0:0:
448,192,83146,128,2,83289:0:0:0:0:
192,192,83289,128,2,83432:0:0:0:0:
320,192,83432,128,8,83574:0:0:0:0:
448,192,83432,1,0,0:0:0:0:
64,192,83574,128,8,83717:0:0:0:0:
192,192,83574,1,0,0:0:0:0:
192,192,83717,1,2,0:0:0:0:
320,192,83717,1,4,0:0:0:0:
448,192,83717,1,0,0:0:0:100:LR_Snare Hollow.wav
320,192,83860,1,0,0:0:0:0:
64,192,84003,1,8,0:0:0:0:
192,192,84003,1,0,0:0:0:50:hihat02.wav
448,192,84003,1,0,0:0:0:0:
192,192,84146,1,2,0:0:0:0:
64,192,84289,1,0,0:0:0:70:HHOpen.wav
320,192,84289,1,0,0:0:0:0:
448,192,84289,1,0,0:0:0:0:
320,192,84432,1,2,0:0:0:0:
64,192,84574,1,8,0:0:0:0:
192,192,84574,1,0,0:0:0:50:hihat02.wav
448,192,84574,1,0,0:0:0:0:
448,192,84717,1,2,0:0:0:0:
64,192,84860,1,0,0:0:0:70:HHOpen.wav
192,192,84860,1,0,0:0:0:0:
320,192,84860,1,0,0:0:0:0:
192,192,85003,1,2,0:0:0:0:
64,192,85146,1,8,0:0:0:0:
320,192,85146,1,0,0:0:0:50:hihat02.wav
448,192,85146,1,0,0:0:0:0:
320,192,85289,1,2,0:0:0:0:
64,192,85432,1,0,0:0:0:70:HHOpen.wav
192,192,85432,1,0,0:0:0:0:
448,192,85432,1,0,0:0:0:0:
192,192,85574,1,2,0:0:0:0:
64,192,85717,1,8,0:0:0:0:
320,192,85717,1,0,0:0:0:50:hihat02.wav
448,192,85717,1,0,0:0:0:0:
320,192,85860,1,0,0:0:0:0:
64,192,86003,1,2,0:0:0:0:
192,192,86003,1,0,0:0:0:70:HHOpen.wav
448,192,86003,1,0,0:0:0:0:
192,192,86146,1,0,0:0:0:0:
64,192,86289,1,8,0:0:0:0:
320,192,86289,1,0,0:0:0:50:hihat02.wav
448,192,86289,1,0,0:0:0:0:
448,192,86432,1,2,0:0:0:0:
64,192,86574,1,0,0:0:0:70:HHOpen.wav
192,192,86574,1,0,0:0:0:0:
320,192,86574,1,0,0:0:0:0:
192,192,86717,1,2,0:0:0:0:
64,192,86860,1,8,0:0:0:0:
320,192,86860,1,0,0:0:0:50:hihat02.wav
448,192,86860,1,0,0:0:0:0:
320,192,87003,1,2,0:0:0:0:
64,192,87146,1,0,0:0:0:70:HHOpen.wav
192,192,87146,1,0,0:0:0:0:
448,192,87146,1,0,0:0:0:0:
64,192,87289,1,2,0:0:0:0:
192,192,87432,1,8,0:0:0:0:
320,192,87432,1,0,0:0:0:50:hihat02.wav
448,192,87432,1,0,0:0:0:0:
320,192,87574,1,2,0:0:0:0:
64,192,87717,1,0,0:0:0:70:HHOpen.wav
192,192,87717,1,0,0:0:0:0:
448,192,87717,1,0,0:0:0:0:
192,192,87860,1,2,0:0:0:0:
64,192,88003,1,8,0:0:0:0:
320,192,88003,1,0,0:0:0:50:hihat02.wav
448,192,88003,1,0,0:0:0:0:
192,192,88146,1,0,0:0:0:0:
64,192,88289,1,4,0:0:0:0:
192,192,88289,1,2,0:0:0:0:
320,192,88289,1,0,0:0:0:0:
448,192,88289,1,0,0:0:0:0:
320,192,88432,1,2,0:0:0:0:
192,192,88503,1,2,0:0:0:0:
64,192,88574,1,8,0:0:0:0:
448,192,88574,1,0,0:0:0:50:hihat02.wav
64,192,88717,1,2,0:0:0:0:
192,192,88789,1,2,0:0:0:0:
320,192,88860,1,8,0:0:0:0:
448,192,88860,1,0,0:0:0:70:HHOpen.wav
192,192,89003,1,2,0:0:0:0:
448,192,89074,1,2,0:0:0:0:
64,192,89146,1,8,0:0:0:0:
320,192,89146,1,0,0:0:0:50:hihat02.wav
192,192,89289,1,2,0:0:0:0:
64,192,89360,1,2,0:0:0:0:
320,192,89432,1,8,0:0:0:0:
448,192,89432,1,0,0:0:0:70:HHOpen.wav
64,192,89574,1,2,0:0:0:0:
320,192,89646,1,2,0:0:0:0:
192,192,89717,1,8,0:0:0:0:
448,192,89717,1,0,0:0:0:50:hihat02.wav
64,192,89860,1,2,0:0:0:0:
192,192,89932,1,2,0:0:0:0:
320,192,90003,1,8,0:0:0:0:
448,192,90003,1,0,0:0:0:70:HHOpen.wav
320,192,90146,1,2,0:0:0:0:
192,192,90217,1,2,0:0:0:0:
64,192,90289,1,8,0:0:0:0:
448,192,90289,1,0,0:0:0:50:hihat02.wav
192,192,90432,1,0,0:0:0:0:
320,192,90503,1,0,0:0:0:0:
64,192,90574,1,2,0:0:0:0:
448,192,90574,1,0,0:0:0:0:
192,192,90646,1,0,0:0:0:0:
320,192,90717,1,8,0:0:0:0:
64,192,90789,1,0,0:0:0:0:
192,192,90860,1,8,0:0:0:0:
448,192,90860,1,0,0:0:0:50:hihat02.wav
320,192,90932,1,0,0:0:0:0:
64,192,91003,1,2,0:0:0:0:
192,192,91074,1,0,0:0:0:0:
320,192,91146,1,8,0:0:0:0:
448,192,91146,1,0,0:0:0:50:hihat02.wav
192,192,91217,1,0,0:0:0:0:
64,192,91289,1,8,0:0:0:0:
448,192,91360,1,0,0:0:0:0:
64,192,91432,1,2,0:0:0:0:
320,192,91432,1,0,0:0:0:50:hihat02.wav
192,192,91503,1,0,0:0:0:0:
320,192,91574,1,8,0:0:0:0:
448,192,91646,1,0,0:0:0:0:
64,192,91717,1,2,0:0:0:0:
192,192,91717,1,0,0:0:0:70:HHOpen.wav
320,192,91812,1,8,0:0:0:0:
64,192,91908,1,8,0:0:0:0:
448,192,91908,1,0,0:0:0:0:
192,192,92003,1,8,0:0:0:0:
320,192,92098,1,8,0:0:0:0:
448,192,92098,1,0,0:0:0:0:
64,192,92193,1,8,0:0:0:0:
192,192,92289,1,8,0:0:0:0:
448,192,92289,1,0,0:0:0:0:
320,192,92384,1,8,0:0:0:0:
64,192,92479,1,8,0:0:0:0:
192,192,92479,1,0,0:0:0:0:
448,192,92574,1,0,0:0:0:70:tom02.wav
64,192,92670,1,0,0:0:0:70:tom03.wav
320,192,92670,1,0,0:0:0:0:
192,192,92765,1,0,0:0:0:70:tom04.wav
64,192,92860,1,2,0:0:0:0:
320,192,92860,1,4,0:0:0:0:
448,192,92860,1,0,0:0:0:70:push_scratch.wav
192,192,93003,1,0,0:0:0:50:hihat02.wav
64,192,93146,1,8,0:0:0:0:
448,192,93146,1,0,0:0:0:0:
192,192,93289,1,0,0:0:0:50:hihat02.wav
320,192,93289,1,0,0:0:0:0:
448,192,93432,1,2,0:0:0:0:
64,192,93574,1,0,0:0:0:50:hihat02.wav
192,192,93574,1,0,0:0:0:0:
320,192,93717,1,8,0:0:0:0:
448,192,93717,1,0,0:0:0:0:
64,192,93860,1,0,0:0:0:50:hihat02.wav
192,192,94003,1,2,0:0:0:0:
448,192,94003,1,0,0:0:0:0:
64,192,94146,1,0,0:0:0:50:hihat02.wav
320,192,94146,1,0,0:0:0:0:
64,192,94289,1,8,0:0:0:0:
448,192,94289,1,0,0:0:0:0:
192,192,94432,1,0,0:0:0:50:hihat02.wav
320,192,94574,1,2,0:0:0:0:
448,192,94574,1,0,0:0:0:0:
64,192,94717,1,0,0:0:0:50:hihat02.wav
192,192,94860,1,8,0:0:0:0:
448,192,94860,1,0,0:0:0:0:
320,192,95003,1,0,0:0:0:50:hihat02.wav
64,192,95146,1,2,0:0:0:0:
192,192,95146,1,0,0:0:0:0:
320,192,95289,1,0,0:0:0:50:hihat02.wav
64,192,95432,1,8,0:0:0:0:
448,192,95432,1,0,0:0:0:0:
192,192,95574,1,0,0:0:0:50:hihat02.wav
320,192,95574,1,0,0:0:0:0:
64,192,95717,1,2,0:0:0:0:
320,192,95860,1,0,0:0:0:50:hihat02.wav
448,192,95860,1,0,0:0:0:0:
64,192,96003,1,8,0:0:0:0:
192,192,96003,1,0,0:0:0:0:
448,192,96146,1,0,0:0:0:50:hihat02.wav
64,192,96289,1,2,0:0:0:0:
320,192,96289,1,0,0:0:0:0:
192,192,96432,1,0,0:0:0:50:hihat02.wav
448,192,96432,1,0,0:0:0:0:
64,192,96574,1,8,0:0:0:0:
448,192,96574,1,0,0:0:0:0:
320,192,96717,1,0,0:0:0:50:hihat02.wav
64,192,96860,1,2,0:0:0:0:
192,192,96860,1,0,0:0:0:0:
448,192,97003,1,0,0:0:0:50:hihat02.wav
64,192,97146,1,8,0:0:0:0:
320,192,97146,1,0,0:0:0:0:
192,192,97289,1,0,0:0:0:50:hihat02.wav
64,192,97432,1,2,0:0:0:0:
448,192,97432,1,0,0:0:0:0:
320,192,97574,1,0,0:0:0:50:hihat02.wav
64,192,97717,1,8,0:0:0:0:
192,192,97717,1,0,0:0:0:0:
320,192,97860,1,0,0:0:0:50:hihat02.wav
448,192,97860,1,0,0:0:0:0:
64,192,98003,1,2,0:0:0:0:
192,192,98146,1,0,0:0:0:50:hihat02.wav
448,192,98146,1,0,0:0:0:0:
64,192,98289,1,8,0:0:0:0:
320,192,98289,1,0,0:0:0:0:
192,192,98432,1,0,0:0:0:50:hihat02.wav
320,192,98574,1,2,0:0:0:0:
448,192,98574,1,0,0:0:0:0:
64,192,98717,1,0,0:0:0:50:hihat02.wav
448,192,98717,1,0,0:0:0:0:
64,192,98860,1,8,0:0:0:0:
192,192,98860,1,0,0:0:0:0:
320,192,99003,1,0,0:0:0:50:hihat02.wav
64,192,99146,1,2,0:0:0:0:
448,192,99146,1,0,0:0:0:0:
192,192,99289,1,0,0:0:0:50:hihat02.wav
320,192,99432,1,8,0:0:0:0:
448,192,99432,1,0,0:0:0:0:
64,192,99574,1,0,0:0:0:50:hihat02.wav
192,192,99717,1,2,0:0:0:0:
448,192,99717,128,0,100146:0:0:0:0:
320,192,99860,1,0,0:0:0:50:hihat02.wav
64,192,100003,1,8,0:0:0:0:
192,192,100146,128,0,100574:0:0:0:50:hihat02.wav
320,192,100146,1,0,0:0:0:0:
64,192,100289,1,2,0:0:0:0:
448,192,100432,1,0,0:0:0:50:hihat02.wav
64,192,100574,1,8,0:0:0:0:
320,192,100574,1,0,0:0:0:0:
192,192,100717,1,0,0:0:0:50:hihat02.wav
64,192,100860,128,8,101289:0:0:0:0:
448,192,100860,1,0,0:0:0:50:hihat02.wav
320,192,101003,1,2,0:0:0:0:
192,192,101146,1,2,0:0:0:0:
320,192,101289,1,0,0:0:0:70:tom03.wav
448,192,101289,128,0,101717:0:0:0:50:hihat02.wav
64,192,101432,1,2,0:0:0:0:
192,192,101574,1,2,0:0:0:0:
64,192,101717,128,0,102003:0:0:0:70:tom04.wav
320,192,101717,1,0,0:0:0:50:hihat02.wav
192,192,102003,1,4,0:0:0:0:
320,192,102003,1,2,0:0:0:0:
448,192,102003,128,0,102574:0:0:0:70:push_scratch.wav
64,192,102146,1,0,0:0:0:0:
192,192,102289,1,8,0:0:0:0:
320,192,102432,1,2,0:0:0:0:
64,192,102574,128,0,103146:0:0:0:100:LR_HiHat SClick.wav
192,192,102574,1,0,0:0:0:0:
448,192,102717,1,2,0:0:0:0:
192,192,102860,1,8,0:0:0:0:
320,192,103003,1,2,0:0:0:0:
192,192,103146,128,0,103432:0:0:0:100:LR_HiHat SClick.wav
448,192,103146,1,0,0:0:0:0:
64,192,103289,1,2,0:0:0:0:
320,192,103432,128,8,103574:0:0:0:0:
448,192,103432,1,0,0:0:0:70:hihat13.wav
64,192,103574,1,2,0:0:0:0:
192,192,103574,128,0,103717:0:0:0:0:
320,192,103717,1,0,0:0:0:100:LR_HiHat SClick.wav
448,192,103717,1,0,0:0:0:0:
64,192,103860,128,2,104289:0:0:0:0:
192,192,104003,1,8,0:0:0:0:
448,192,104003,1,0,0:0:0:70:hihat13.wav
320,192,104146,1,0,0:0:0:0:
192,192,104289,1,2,0:0:0:0:
448,192,104289,128,0,104860:0:0:0:100:LR_HiHat SClick.wav
320,192,104432,1,0,0:0:0:0:
64,192,104574,1,8,0:0:0:0:
320,192,104717,1,2,0:0:0:0:
64,192,104860,1,0,0:0:0:100:LR_HiHat SClick.wav
192,192,104860,128,0,105074:0:0:0:0:
448,192,105003,1,2,0:0:0:0:
320,192,105074,128,0,105289:0:0:0:0:
64,192,105146,1,8,0:0:0:0:
192,192,105146,1,0,0:0:0:70:hihat13.wav
64,192,105289,128,2,105432:0:0:0:0:
192,192,105432,128,0,105574:0:0:0:100:LR_HiHat SClick.wav
448,192,105432,128,0,106003:0:0:0:0:
64,192,105574,128,2,105717:0:0:0:0:
320,192,105717,128,8,105860:0:0:0:0:
64,192,105860,128,2,106003:0:0:0:0:
192,192,106003,128,0,106146:0:0:0:100:LR_HiHat SClick.wav
320,192,106003,128,0,106432:0:0:0:0:
448,192,106146,128,2,106289:0:0:0:0:
64,192,106289,128,8,106432:0:0:0:0:
192,192,106432,128,2,106574:0:0:0:0:
64,192,106574,128,8,106670:0:0:0:0:
320,192,106574,1,4,0:0:0:0:
448,192,106574,1,0,0:0:0:0:
192,192,106670,128,0,106765:0:0:0:0:
320,192,106765,128,0,106860:0:0:0:0:
64,192,106860,1,8,0:0:0:0:
192,192,106860,1,0,0:0:0:70:hihat13.wav
448,192,106860,128,0,106955:0:0:0:0:
320,192,106955,128,0,107051:0:0:0:0:
64,192,107051,128,0,107146:0:0:0:0:
192,192,107146,128,8,107241:0:0:0:0:
320,192,107146,1,0,0:0:0:100:LR_HiHat SClick.wav
448,192,107146,1,0,0:0:0:0:
64,192,107241,128,0,107336:0:0:0:0:
320,192,107336,128,0,107432:0:0:0:0:
64,192,107432,1,8,0:0:0:0:
192,192,107432,1,0,0:0:0:70:hihat13.wav
448,192,107432,128,0,107527:0:0:0:0:
320,192,107527,128,0,107622:0:0:0:0:
192,192,107622,128,0,107717:0:0:0:0:
64,192,107717,128,8,107812:0:0:0:0:
320,192,107717,1,0,0:0:0:100:LR_HiHat SClick.wav
448,192,107717,1,0,0:0:0:0:
192,192,107812,128,0,107908:0:0:0:0:
320,192,107908,128,0,108003:0:0:0:0:
64,192,108003,1,8,0:0:0:0:
192,192,108003,128,0,108098:0:0:0:70:hihat13.wav
448,192,108003,1,0,0:0:0:0:
320,192,108098,128,0,108193:0:0:0:0:
448,192,108193,128,0,108289:0:0:0:0:
64,192,108289,1,8,0:0:0:0:
192,192,108289,1,0,0:0:0:100:LR_HiHat SClick.wav
320,192,108289,128,0,108384:0:0:0:0:
448,192,108384,128,0,108479:0:0:0:0:
64,192,108479,128,0,108574:0:0:0:0:
192,192,108574,128,8,108670:0:0:0:0:
320,192,108574,1,0,0:0:0:70:hihat13.wav
448,192,108574,1,0,0:0:0:0:
64,192,108670,128,0,108765:0:0:0:0:
320,192,108765,128,0,108860:0:0:0:0:
64,192,108860,1,4,0:0:0:0:
192,192,108860,1,2,0:0:0:0:
448,192,108860,1,0,0:0:0:0:
64,192,109003,1,8,0:0:0:0:
320,192,109003,1,0,0:0:0:0:
192,192,109146,1,8,0:0:0:0:
320,192,109146,1,0,0:0:0:70:hihat13.wav
448,192,109146,1,0,0:0:0:0:
64,192,109289,1,2,0:0:0:0:
448,192,109289,1,0,0:0:0:0:
64,192,109432,1,8,0:0:0:0:
192,192,109432,1,0,0:0:0:100:LR_HiHat SClick.wav
320,192,109432,1,0,0:0:0:0:
192,192,109574,1,8,0:0:0:0:
448,192,109574,1,0,0:0:0:0:
64,192,109717,1,2,0:0:0:0:
320,192,109717,1,0,0:0:0:70:hihat13.wav
448,192,109717,1,0,0:0:0:0:
64,192,109860,1,8,0:0:0:0:
192,192,109860,1,0,0:0:0:0:
320,192,110003,1,2,0:0:0:0:
448,192,110003,1,0,0:0:0:100:LR_HiHat SClick.wav
192,192,110098,1,8,0:0:0:0:
64,192,110193,1,8,0:0:0:0:
320,192,110193,1,0,0:0:0:0:
448,192,110289,1,8,0:0:0:0:
64,192,110384,1,0,0:0:0:70:tom01.wav
192,192,110384,1,0,0:0:0:0:
320,192,110479,1,0,0:0:0:70:tom03.wav
192,192,110574,128,6,110717:0:0:0:0:
448,192,110574,128,0,110717:0:0:0:70:tom04.wav
192,192,110789,128,2,110932:0:0:0:0:
320,192,110789,128,4,110932:0:0:0:0:
64,192,111003,128,4,111074:0:0:0:0:
320,192,111003,128,2,111074:0:0:0:0:
64,192,111146,1,2,0:0:0:0:
192,192,111146,1,4,0:0:0:0:
448,192,111146,128,0,113574:0:0:0:0:
192,192,113574,128,0,113717:0:0:0:0:
320,192,113717,128,0,113860:0:0:0:0:
64,192,113860,128,0,114003:0:0:0:0:
448,192,114003,128,0,114146:0:0:0:0:
192,192,114146,128,0,114289:0:0:0:0:
448,192,114289,128,0,114432:0:0:0:0:
320,192,114432,128,0,114574:0:0:0:0:
448,192,114574,128,0,114717:0:0:0:0:
64,192,114717,128,0,114860:0:0:0:0:
320,192,114860,128,0,115003:0:0:0:0:
64,192,115003,128,0,115146:0:0:0:0:
320,192,115146,128,0,115289:0:0:0:0:
448,192,115146,128,0,115289:0:0:0:0:
192,192,115289,128,0,115432:0:0:0:0:
448,192,115432,128,0,115574:0:0:0:0:
64,192,115574,128,0,115717:0:0:0:0:
320,192,115717,128,0,115860:0:0:0:0:
192,192,115860,128,0,116003:0:0:0:0:
320,192,116003,128,0,116146:0:0:0:0:
448,192,116146,128,0,116289:0:0:0:0:
64,192,116289,128,0,116432:0:0:0:0:
320,192,116289,128,0,116432:0:0:0:0:
192,192,116432,128,0,116574:0:0:0:0:
448,192,116574,128,0,116717:0:0:0:0:
320,192,116717,128,0,116860:0:0:0:0:
64,192,116860,128,0,117003:0:0:0:0:
448,192,117003,128,0,117146:0:0:0:0:
192,192,117146,128,0,117289:0:0:0:0:
448,192,117289,128,0,117432:0:0:0:0:
320,192,117432,128,0,117574:0:0:0:0:
64,192,117574,128,0,117717:0:0:0:0:
192,192,117717,128,0,117860:0:0:0:0:
320,192,117860,128,0,118003:0:0:0:0:
64,192,118003,128,0,118146:0:0:0:0:
192,192,118003,128,0,118146:0:0:0:0:
448,192,118146,128,0,118289:0:0:0:0:
320,192,118289,128,0,118432:0:0:0:0:
192,192,118432,128,0,118574:0:0:0:0:
64,192,118574,128,0,118717:0:0:0:70:hihat02.wav
448,192,118574,128,0,118717:0:0:0:0:
320,192,118860,128,0,119003:0:0:0:0:
448,192,119003,1,2,0:0:0:0:
320,192,119074,1,2,0:0:0:0:
64,192,119146,128,8,119289:0:0:0:0:
192,192,119146,128,0,119289:0:0:0:0:
320,192,119289,128,0,119432:0:0:0:70:tom01.wav
192,192,119432,128,2,119574:0:0:0:0:
448,192,119432,128,0,119574:0:0:0:0:
64,192,119574,128,0,119717:0:0:0:70:tom02.wav
320,192,119717,128,2,119860:0:0:0:0:
448,192,119717,128,0,119860:0:0:0:0:
192,192,119860,128,0,120003:0:0:0:70:tom03.wav
64,192,120003,128,2,120146:0:0:0:0:
448,192,120003,128,0,120146:0:0:0:0:
320,192,120146,128,8,120289:0:0:0:0:
64,192,120289,1,2,0:0:0:0:
192,192,120289,1,4,0:0:0:0:
448,192,120289,1,0,0:0:0:70:push_scratch.wav
64,192,120574,1,0,0:0:0:70:tom02.wav
320,192,120574,1,0,0:0:0:0:
192,192,120860,1,8,0:0:0:0:
448,192,120860,1,0,0:0:0:100:LR_HiHat SClick.wav
192,192,121146,1,0,0:0:0:70:tom02.wav
320,192,121146,1,0,0:0:0:0:
448,192,121289,1,8,0:0:0:0:
320,192,121360,1,8,0:0:0:0:
64,192,121432,1,2,0:0:0:0:
192,192,121432,1,0,0:0:0:100:LR_HiHat SClick.wav
320,192,121574,1,8,0:0:0:0:
64,192,121717,1,2,0:0:0:0:
448,192,121717,1,0,0:0:0:70:tom02.wav
192,192,122003,1,8,0:0:0:0:
448,192,122003,1,0,0:0:0:100:LR_HiHat SClick.wav
320,192,122146,1,2,0:0:0:0:
64,192,122289,1,0,0:0:0:70:tom02.wav
192,192,122432,1,2,0:0:0:0:
64,192,122574,1,2,0:0:0:0:
320,192,122574,1,4,0:0:0:0:
448,192,122574,1,0,0:0:0:0:
192,192,122717,1,2,0:0:0:0:
448,192,122860,1,0,0:0:0:70:tom02.wav
320,192,123003,1,2,0:0:0:0:
64,192,123146,1,8,0:0:0:0:
192,192,123146,1,0,0:0:0:100:LR_HiHat SClick.wav
448,192,123146,1,0,0:0:0:0:
320,192,123289,1,2,0:0:0:0:
64,192,123432,1,0,0:0:0:70:tom02.wav
192,192,123574,1,8,0:0:0:0:
320,192,123646,1,8,0:0:0:0:
64,192,123717,1,2,0:0:0:0:
448,192,123717,1,0,0:0:0:100:LR_HiHat SClick.wav
192,192,123860,1,8,0:0:0:0:
320,192,124003,1,2,0:0:0:0:
448,192,124003,1,0,0:0:0:70:tom02.wav
64,192,124146,1,0,0:0:0:70:tom01.wav
192,192,124289,1,8,0:0:0:0:
448,192,124289,1,0,0:0:0:100:LR_HiHat SClick.wav
320,192,124432,1,2,0:0:0:0:
192,192,124574,1,0,0:0:0:70:tom02.wav
448,192,124717,1,2,0:0:0:0:
64,192,124860,1,2,0:0:0:0:
192,192,124860,1,4,0:0:0:0:
320,192,124860,1,0,0:0:0:0:
448,192,125003,1,2,0:0:0:0:
192,192,125146,1,0,0:0:0:70:tom02.wav
320,192,125289,1,2,0:0:0:0:
64,192,125432,1,8,0:0:0:0:
192,192,125432,1,0,0:0:0:100:LR_HiHat SClick.wav
448,192,125432,1,0,0:0:0:0:
320,192,125574,1,2,0:0:0:0:
192,192,125717,1,0,0:0:0:70:tom02.wav
64,192,125860,1,8,0:0:0:0:
192,192,125932,1,8,0:0:0:0:
320,192,126003,1,2,0:0:0:0:
448,192,126003,1,0,0:0:0:100:LR_HiHat SClick.wav
192,192,126146,1,8,0:0:0:0:
64,192,126289,1,2,0:0:0:0:
448,192,126289,1,0,0:0:0:70:tom02.wav
320,192,126432,1,0,0:0:0:70:tom01.wav
192,192,126574,1,8,0:0:0:0:
448,192,126574,1,0,0:0:0:100:LR_HiHat SClick.wav
64,192,126717,1,2,0:0:0:0:
192,192,126860,1,0,0:0:0:70:tom02.wav
320,192,126860,1,0,0:0:0:0:
448,192,127003,1,2,0:0:0:0:
320,192,127074,1,2,0:0:0:0:
64,192,127146,1,8,0:0:0:0:
192,192,127146,1,4,0:0:0:0:
448,192,127146,1,0,0:0:0:0:
192,192,127289,1,2,0:0:0:0:
64,192,127432,1,8,0:0:0:0:
320,192,127432,1,0,0:0:0:70:tom02.wav
448,192,127432,1,0,0:0:0:0:
320,192,127574,1,2,0:0:0:0:
64,192,127717,1,8,0:0:0:0:
192,192,127717,1,0,0:0:0:70:hihat02.wav
448,192,127717,1,0,0:0:0:0:
320,192,127860,1,2,0:0:0:0:
64,192,128003,1,8,0:0:0:0:
192,192,128003,1,0,0:0:0:70:tom02.wav
448,192,128003,1,0,0:0:0:0:
320,192,128146,1,2,0:0:0:0:
192,192,128217,1,2,0:0:0:0:
64,192,128289,1,8,0:0:0:0:
320,192,128289,1,4,0:0:0:0:
448,192,128289,1,0,0:0:0:0:
192,192,128432,1,0,0:0:0:70:tom01.wav
320,192,128574,1,2,0:0:0:0:
448,192,128574,128,0,128860:0:0:0:70:tom03.wav
64,192,128717,1,8,0:0:0:0:
192,192,128717,1,4,0:0:0:0:
64,192,128860,128,0,129360:0:0:0:70:tom01.wav
320,192,129003,1,2,0:0:0:0:
192,192,129146,128,4,129360:0:0:0:0:
448,192,129146,1,8,0:0:0:0:
64,192,129432,1,4,0:0:0:0:
192,192,129432,1,2,0:0:0:0:
320,192,129432,1,0,0:0:0:70:push_scratch.wav
448,192,129432,1,0,0:0:0:0:
192,192,129574,1,0,0:0:0:0:
64,192,129717,1,8,0:0:0:0:
320,192,129717,1,0,0:0:0:70:hihat13.wav
448,192,129717,1,0,0:0:0:0:
192,192,129860,1,2,0:0:0:0:
448,192,129860,1,0,0:0:0:0:
320,192,130003,1,0,0:0:0:100:LR_HiHat SClick.wav
64,192,130146,1,2,0:0:0:0:
192,192,130146,1,0,0:0:0:0:
64,192,130289,1,8,0:0:0:0:
320,192,130289,1,0,0:0:0:70:hihat13.wav
448,192,130289,1,0,0:0:0:0:
192,192,130432,1,2,0:0:0:0:
64,192,130574,1,0,0:0:0:100:LR_HiHat SClick.wav
448,192,130574,1,0,0:0:0:0:
192,192,130717,1,2,0:0:0:0:
448,192,130717,1,0,0:0:0:0:
64,192,130860,1,8,0:0:0:0:
192,192,130860,1,0,0:0:0:70:hihat13.wav
320,192,130860,1,0,0:0:0:0:
320,192,131003,1,2,0:0:0:0:
64,192,131146,1,0,0:0:0:100:LR_HiHat SClick.wav
192,192,131146,1,0,0:0:0:0:
448,192,131146,1,0,0:0:0:0:
448,192,131289,1,2,0:0:0:0:
64,192,131432,1,8,0:0:0:0:
192,192,131432,1,0,0:0:0:70:hihat13.wav
320,192,131432,1,0,0:0:0:0:
192,192,131574,1,0,0:0:0:0:
64,192,131717,1,2,0:0:0:0:
320,192,131717,1,0,0:0:0:100:LR_HiHat SClick.wav
448,192,131717,1,0,0:0:0:0:
320,192,131860,1,0,0:0:0:0:
64,192,132003,1,8,0:0:0:0:
192,192,132003,1,0,0:0:0:70:hihat13.wav
448,192,132003,1,0,0:0:0:0:
320,192,132146,1,2,0:0:0:0:
448,192,132146,1,0,0:0:0:0:
64,192,132289,1,0,0:0:0:100:LR_HiHat SClick.wav
192,192,132289,1,0,0:0:0:0:
64,192,132432,1,2,0:0:0:0:
448,192,132432,1,0,0:0:0:0:
320,192,132574,1,8,0:0:0:0:
448,192,132574,1,0,0:0:0:70:hihat13.wav
192,192,132717,1,2,0:0:0:0:
320,192,132860,1,0,0:0:0:100:LR_HiHat SClick.wav
448,192,132860,1,0,0:0:0:0:
64,192,133003,1,2,0:0:0:0:
448,192,133003,1,0,0:0:0:0:
64,192,133146,1,8,0:0:0:0:
192,192,133146,1,0,0:0:0:70:hihat13.wav
320,192,133146,1,0,0:0:0:0:
192,192,133289,1,2,0:0:0:0:
64,192,133432,1,0,0:0:0:100:LR_HiHat SClick.wav
320,192,133432,1,0,0:0:0:0:
448,192,133432,1,0,0:0:0:0:
64,192,133574,1,2,0:0:0:0:
192,192,133717,1,8,0:0:0:0:
320,192,133717,1,0,0:0:0:70:hihat13.wav
448,192,133717,1,0,0:0:0:0:
320,192,133860,1,0,0:0:0:0:
64,192,134003,1,2,0:0:0:0:
192,192,134003,1,4,0:0:0:0:
448,192,134003,1,0,0:0:0:0:
192,192,134146,1,0,0:0:0:0:
64,192,134289,1,8,0:0:0:0:
320,192,134289,1,0,0:0:0:70:hihat13.wav
448,192,134289,1,0,0:0:0:0:
64,192,134432,1,2,0:0:0:0:
192,192,134432,1,0,0:0:0:0:
448,192,134574,1,0,0:0:0:100:LR_HiHat SClick.wav
64,192,134717,1,2,0:0:0:0:
320,192,134717,1,0,0:0:0:0:
64,192,134860,1,8,0:0:0:0:
192,192,134860,1,0,0:0:0:70:hihat13.wav
448,192,134860,1,0,0:0:0:0:
320,192,135003,1,2,0:0:0:0:
192,192,135146,1,0,0:0:0:100:LR_HiHat SClick.wav
64,192,135289,1,2,0:0:0:0:
320,192,135289,1,0,0:0:0:0:
192,192,135432,1,8,0:0:0:0:
320,192,135432,1,0,0:0:0:70:hihat13.wav
448,192,135432,1,0,0:0:0:0:
192,192,135574,1,2,0:0:0:0:
64,192,135717,1,0,0:0:0:100:LR_HiHat SClick.wav
320,192,135717,1,0,0:0:0:0:
448,192,135717,1,0,0:0:0:0:
64,192,135860,1,2,0:0:0:0:
192,192,136003,1,8,0:0:0:0:
320,192,136003,1,0,0:0:0:70:hihat13.wav
448,192,136003,1,0,0:0:0:0:
320,192,136146,1,0,0:0:0:0:
64,192,136289,1,2,0:0:0:0:
192,192,136289,1,0,0:0:0:100:LR_HiHat SClick.wav
448,192,136289,1,0,0:0:0:0:
192,192,136432,1,0,0:0:0:0:
64,192,136574,1,8,0:0:0:0:
320,192,136574,1,0,0:0:0:70:hihat13.wav
448,192,136574,1,0,0:0:0:0:
64,192,136717,1,2,0:0:0:0:
192,192,136717,1,0,0:0:0:0:
320,192,136860,1,0,0:0:0:100:LR_HiHat SClick.wav
448,192,136860,1,0,0:0:0:0:
64,192,137003,1,2,0:0:0:0:
448,192,137003,1,0,0:0:0:0:
64,192,137146,1,8,0:0:0:0:
192,192,137146,1,0,0:0:0:70:hihat13.wav
320,192,137289,1,2,0:0:0:0:
64,192,137432,1,0,0:0:0:100:LR_HiHat SClick.wav
192,192,137432,1,0,0:0:0:0:
64,192,137574,1,2,0:0:0:0:
448,192,137574,1,0,0:0:0:0:
192,192,137717,1,8,0:0:0:0:
320,192,137717,1,0,0:0:0:70:hihat13.wav
448,192,137717,1,0,0:0:0:0:
320,192,137860,1,2,0:0:0:0:
64,192,138003,1,0,0:0:0:100:LR_HiHat SClick.wav
192,192,138003,1,0,0:0:0:0:
448,192,138003,1,0,0:0:0:0:
448,192,138146,1,2,0:0:0:0:
64,192,138289,1,8,0:0:0:0:
192,192,138289,1,0,0:0:0:70:hihat13.wav
320,192,138289,1,0,0:0:0:0:
192,192,138432,1,0,0:0:0:0:
64,192,138574,1,4,0:0:0:0:
320,192,138574,1,2,0:0:0:0:
448,192,138574,1,0,0:0:0:0:
320,192,138717,1,0,0:0:0:0:
64,192,138860,1,8,0:0:0:0:
192,192,138860,1,0,0:0:0:70:hihat13.wav
448,192,138860,1,0,0:0:0:0:
64,192,139003,1,2,0:0:0:0:
320,192,139003,1,0,0:0:0:0:
192,192,139146,1,0,0:0:0:100:LR_HiHat SClick.wav
320,192,139289,1,2,0:0:0:0:
448,192,139289,1,0,0:0:0:0:
64,192,139432,1,8,0:0:0:0:
192,192,139432,1,0,0:0:0:70:hihat13.wav
448,192,139432,1,0,0:0:0:0:
320,192,139574,1,2,0:0:0:0:
64,192,139717,1,0,0:0:0:100:LR_HiHat SClick.wav
448,192,139717,1,0,0:0:0:0:
64,192,139860,1,2,0:0:0:0:
320,192,139860,1,0,0:0:0:0:
192,192,140003,1,8,0:0:0:0:
320,192,140003,1,0,0:0:0:70:hihat13.wav
448,192,140003,1,0,0:0:0:0:
192,192,140146,1,2,0:0:0:0:
64,192,140289,1,0,0:0:0:100:LR_HiHat SClick.wav
320,192,140289,1,0,0:0:0:0:
448,192,140289,1,0,0:0:0:0:
64,192,140432,1,2,0:0:0:0:
192,192,140574,1,8,0:0:0:0:
320,192,140574,1,0,0:0:0:70:hihat13.wav
448,192,140574,1,0,0:0:0:0:
320,192,140717,1,0,0:0:0:0:
64,192,140860,1,2,0:0:0:0:
192,192,140860,1,4,0:0:0:0:
448,192,140860,1,0,0:0:0:0:
192,192,141003,1,0,0:0:0:0:
64,192,141146,1,8,0:0:0:0:
320,192,141146,1,0,0:0:0:70:hihat13.wav
448,192,141146,1,0,0:0:0:0:
192,192,141289,1,2,0:0:0:0:
448,192,141289,1,0,0:0:0:0:
320,192,141432,1,0,0:0:0:100:LR_HiHat SClick.wav
64,192,141574,1,2,0:0:0:0:
192,192,141574,1,0,0:0:0:0:
64,192,141717,1,8,0:0:0:0:
320,192,141717,1,0,0:0:0:70:hihat13.wav
448,192,141717,1,0,0:0:0:0:
192,192,141860,1,2,0:0:0:0:
64,192,142003,1,2,0:0:0:0:
448,192,142003,1,0,0:0:0:100:LR_HiHat SClick.wav
192,192,142146,1,2,0:0:0:0:
448,192,142146,1,0,0:0:0:0:
64,192,142289,1,8,0:0:0:0:
192,192,142289,1,0,0:0:0:70:hihat13.wav
320,192,142289,1,0,0:0:0:0:
320,192,142432,1,2,0:0:0:0:
64,192,142574,1,0,0:0:0:100:LR_HiHat SClick.wav
192,192,142574,1,0,0:0:0:0:
448,192,142574,1,0,0:0:0:0:
448,192,142717,1,2,0:0:0:0:
64,192,142860,1,8,0:0:0:0:
192,192,142860,1,0,0:0:0:70:hihat13.wav
320,192,142860,1,0,0:0:0:0:
192,192,143003,1,2,0:0:0:0:
64,192,143146,1,2,0:0:0:0:
320,192,143146,128,4,143289:0:0:0:0:
448,192,143146,1,0,0:0:0:0:
192,192,143289,128,2,143432:0:0:0:0:
64,192,143432,1,8,0:0:0:0:
320,192,143432,1,0,0:0:0:70:hihat13.wav
448,192,143432,128,0,143574:0:0:0:0:
64,192,143574,128,2,143717:0:0:0:0:
192,192,143717,128,8,143860:0:0:0:0:
320,192,143717,1,0,0:0:0:100:LR_HiHat SClick.wav
448,192,143717,1,0,0:0:0:0:
320,192,143860,128,2,144003:0:0:0:0:
64,192,144003,128,8,144146:0:0:0:0:
192,192,144003,1,0,0:0:0:70:hihat13.wav
448,192,144003,1,0,0:0:0:0:
448,192,144146,128,2,144289:0:0:0:0:
64,192,144289,1,8,0:0:0:0:
192,192,144289,128,0,144432:0:0:0:100:LR_HiHat SClick.wav
320,192,144289,1,0,0:0:0:0:
320,192,144432,128,2,144574:0:0:0:0:
64,192,144574,128,8,144717:0:0:0:0:
192,192,144574,1,0,0:0:0:70:hihat13.wav
448,192,144574,1,0,0:0:0:0:
192,192,144717,128,2,144860:0:0:0:0:
64,192,144860,1,8,0:0:0:0:
320,192,144860,1,0,0:0:0:100:LR_HiHat SClick.wav
448,192,144860,128,0,145003:0:0:0:0:
320,192,145003,128,2,145146:0:0:0:0:
64,192,145146,1,8,0:0:0:0:
192,192,145146,128,0,145289:0:0:0:70:hihat13.wav
448,192,145146,1,0,0:0:0:0:
320,192,145289,128,2,145432:0:0:0:0:
64,192,145432,1,8,0:0:0:0:
192,192,145432,128,4,145527:0:0:0:0:
448,192,145432,1,0,0:0:0:0:
320,192,145527,128,0,145622:0:0:0:0:
448,192,145622,128,0,145717:0:0:0:0:
192,192,145717,128,2,145812:0:0:0:0:
320,192,145812,128,0,145908:0:0:0:0:
64,192,145860,1,8,0:0:0:0:
448,192,145860,1,4,0:0:0:0:
192,192,145908,128,0,146003:0:0:0:0:
64,192,146003,128,2,146098:0:0:0:0:
320,192,146098,128,0,146193:0:0:0:0:
192,192,146193,128,0,146289:0:0:0:0:
64,192,146289,1,4,0:0:0:0:
320,192,146289,128,8,146384:0:0:0:0:
448,192,146289,1,0,0:0:0:0:
192,192,146384,128,0,146479:0:0:0:0:
64,192,146479,128,0,146574:0:0:0:0:
448,192,146574,128,2,146670:0:0:0:0:
320,192,146670,128,0,146765:0:0:0:0:
64,192,146717,1,8,0:0:0:0:
192,192,146717,1,4,0:0:0:0:
448,192,146765,128,0,146860:0:0:0:0:
64,192,146860,128,2,146955:0:0:0:0:
192,192,146955,128,0,147051:0:0:0:0:
320,192,147051,128,0,147146:0:0:0:0:
64,192,147146,1,4,0:0:0:0:
448,192,147146,1,8,0:0:0:0:
192,192,147241,1,8,0:0:0:0:
320,192,147241,1,0,0:0:0:0:
448,192,147336,1,8,0:0:0:0:
64,192,147432,1,8,0:0:0:0:
192,192,147432,1,0,0:0:0:70:hihat13.wav
320,192,147527,1,0,0:0:0:70:tom02.wav
448,192,147527,1,0,0:0:0:0:
192,192,147622,1,0,0:0:0:70:tom03.wav
64,192,147717,1,4,0:0:0:0:
320,192,147717,1,2,0:0:0:0:
448,192,147717,128,0,149146:0:0:0:70:push_scratch.wav
192,192,147860,1,0,0:0:0:0:
64,192,148003,1,8,0:0:0:0:
320,192,148003,1,0,0:0:0:70:hihat13.wav
320,192,148146,1,0,0:0:0:0:
64,192,148289,1,2,0:0:0:0:
192,192,148289,1,0,0:0:0:100:LR_HiHat SClick.wav
192,192,148432,1,0,0:0:0:0:
64,192,148574,1,8,0:0:0:0:
320,192,148574,1,0,0:0:0:70:hihat13.wav
64,192,148717,1,0,0:0:0:0:
192,192,148860,1,2,0:0:0:0:
320,192,148860,1,0,0:0:0:100:LR_HiHat SClick.wav
64,192,149003,1,0,0:0:0:0:
192,192,149146,128,8,149432:0:0:0:0:
320,192,149146,1,0,0:0:0:70:hihat13.wav
64,192,149289,1,0,0:0:0:0:
320,192,149432,1,2,0:0:0:0:
448,192,149432,128,0,149717:0:0:0:100:LR_HiHat SClick.wav
64,192,149574,128,0,149717:0:0:0:0:
192,192,149717,128,8,150003:0:0:0:0:
320,192,149717,1,0,0:0:0:70:hihat13.wav
320,192,149860,1,0,0:0:0:0:
64,192,150003,128,2,151432:0:0:0:0:
448,192,150003,1,0,0:0:0:100:LR_HiHat SClick.wav
448,192,150146,1,0,0:0:0:0:
192,192,150289,1,8,0:0:0:0:
320,192,150289,1,0,0:0:0:70:hihat13.wav
320,192,150432,1,0,0:0:0:0:
192,192,150574,1,2,0:0:0:0:
448,192,150574,1,0,0:0:0:100:LR_HiHat SClick.wav
192,192,150717,1,0,0:0:0:0:
320,192,150717,1,0,0:0:0:0:
320,192,150860,1,8,0:0:0:0:
448,192,150860,1,0,0:0:0:70:hihat13.wav
192,192,151003,1,0,0:0:0:0:
448,192,151003,1,0,0:0:0:0:
320,192,151146,1,2,0:0:0:0:
192,192,151289,1,0,0:0:0:0:
320,192,151432,128,8,151717:0:0:0:0:
448,192,151432,1,0,0:0:0:70:hihat13.wav
448,192,151574,1,0,0:0:0:0:
64,192,151717,1,2,0:0:0:0:
192,192,151717,128,0,152003:0:0:0:100:LR_HiHat SClick.wav
448,192,151860,128,0,152003:0:0:0:0:
64,192,152003,1,8,0:0:0:0:
320,192,152003,128,0,152289:0:0:0:70:hihat13.wav
192,192,152146,1,0,0:0:0:0:
64,192,152289,1,2,0:0:0:0:
192,192,152289,1,4,0:0:0:0:
448,192,152289,128,0,153717:0:0:0:0:
64,192,152432,1,0,0:0:0:0:
192,192,152574,1,8,0:0:0:0:
320,192,152574,1,0,0:0:0:70:hihat13.wav
320,192,152717,1,0,0:0:0:0:
64,192,152860,1,2,0:0:0:0:
192,192,152860,1,0,0:0:0:100:LR_HiHat SClick.wav
192,192,153003,1,0,0:0:0:0:
64,192,153146,1,8,0:0:0:0:
320,192,153146,1,0,0:0:0:70:hihat13.wav
64,192,153289,1,0,0:0:0:0:
192,192,153432,1,2,0:0:0:0:
320,192,153432,1,0,0:0:0:100:LR_HiHat SClick.wav
64,192,153574,1,0,0:0:0:0:
192,192,153717,128,8,154003:0:0:0:0:
320,192,153717,1,0,0:0:0:70:hihat13.wav
64,192,153860,1,0,0:0:0:0:
320,192,154003,128,2,154289:0:0:0:0:
448,192,154003,1,0,0:0:0:100:LR_HiHat SClick.wav
64,192,154146,128,0,154289:0:0:0:0:
192,192,154289,128,8,154574:0:0:0:0:
448,192,154289,1,0,0:0:0:70:hihat13.wav
320,192,154432,1,0,0:0:0:0:
64,192,154574,128,2,156003:0:0:0:0:
448,192,154574,1,0,0:0:0:100:LR_HiHat SClick.wav
192,192,154717,1,0,0:0:0:0:
320,192,154860,1,8,0:0:0:0:
448,192,154860,1,0,0:0:0:70:hihat13.wav
320,192,155003,1,0,0:0:0:0:
192,192,155146,1,2,0:0:0:0:
448,192,155146,1,0,0:0:0:100:LR_HiHat SClick.wav
192,192,155289,1,0,0:0:0:0:
320,192,155432,1,8,0:0:0:0:
448,192,155432,1,0,0:0:0:70:hihat13.wav
448,192,155574,1,0,0:0:0:0:
192,192,155717,1,2,0:0:0:0:
320,192,155717,1,0,0:0:0:100:LR_HiHat SClick.wav
320,192,155860,1,0,0:0:0:0:
192,192,156003,1,8,0:0:0:0:
448,192,156003,128,0,156289:0:0:0:70:hihat13.wav
64,192,156146,1,0,0:0:0:0:
192,192,156289,128,2,156574:0:0:0:0:
320,192,156289,1,0,0:0:0:100:LR_HiHat SClick.wav
64,192,156432,128,0,156574:0:0:0:0:
320,192,156574,128,8,156860:0:0:0:0:
448,192,156574,1,0,0:0:0:70:hihat13.wav
192,192,156717,1,0,0:0:0:0:
64,192,156860,1,4,0:0:0:0:
192,192,156860,1,2,0:0:0:0:
448,192,156860,1,0,0:0:0:0:
192,192,157003,1,0,0:0:0:0:
320,192,157074,1,0,0:0:0:0:
64,192,157146,1,8,0:0:0:0:
448,192,157146,1,0,0:0:0:70:hihat13.wav
192,192,157217,1,0,0:0:0:0:
320,192,157289,1,2,0:0:0:0:
64,192,157360,1,0,0:0:0:0:
192,192,157432,1,0,0:0:0:100:LR_HiHat SClick.wav
448,192,157432,1,0,0:0:0:0:
320,192,157574,1,2,0:0:0:0:
64,192,157646,1,0,0:0:0:0:
192,192,157717,1,8,0:0:0:0:
448,192,157717,1,0,0:0:0:70:hihat13.wav
320,192,157789,1,0,0:0:0:0:
64,192,157860,1,0,0:0:0:0:
192,192,157932,1,0,0:0:0:0:
64,192,158003,1,2,0:0:0:0:
320,192,158003,1,4,0:0:0:0:
448,192,158003,1,0,0:0:0:0:
192,192,158146,1,0,0:0:0:0:
320,192,158217,1,0,0:0:0:0:
64,192,158289,1,8,0:0:0:0:
192,192,158289,1,0,0:0:0:70:hihat13.wav
448,192,158360,1,0,0:0:0:0:
320,192,158432,1,2,0:0:0:0:
192,192,158503,1,0,0:0:0:0:
64,192,158574,1,0,0:0:0:100:LR_HiHat SClick.wav
448,192,158574,1,0,0:0:0:0:
320,192,158717,1,2,0:0:0:0:
448,192,158717,1,0,0:0:0:0:
192,192,158789,1,0,0:0:0:0:
64,192,158860,1,8,0:0:0:0:
320,192,158860,1,0,0:0:0:70:hihat13.wav
448,192,158932,1,0,0:0:0:0:
192,192,159003,1,0,0:0:0:0:
320,192,159074,1,0,0:0:0:0:
64,192,159146,1,2,0:0:0:0:
192,192,159146,1,4,0:0:0:0:
448,192,159146,1,0,0:0:0:0:
320,192,159241,1,0,0:0:0:0:
192,192,159336,1,0,0:0:0:0:
64,192,159432,1,8,0:0:0:0:
448,192,159432,1,0,0:0:0:70:hihat13.wav
320,192,159503,1,0,0:0:0:0:
192,192,159574,1,2,0:0:0:0:
64,192,159646,1,0,0:0:0:0:
320,192,159717,1,0,0:0:0:100:LR_HiHat SClick.wav
448,192,159717,1,0,0:0:0:0:
192,192,159860,1,2,0:0:0:0:
320,192,159932,1,0,0:0:0:0:
64,192,160003,1,8,0:0:0:0:
448,192,160003,1,0,0:0:0:70:hihat13.wav
192,192,160074,1,0,0:0:0:0:
448,192,160146,1,0,0:0:0:0:
320,192,160193,1,0,0:0:0:0:
192,192,160241,1,0,0:0:0:0:
64,192,160289,1,2,0:0:0:0:
448,192,160289,1,4,0:0:0:0:
320,192,160360,1,0,0:0:0:0:
192,192,160432,1,2,0:0:0:0:
448,192,160503,1,0,0:0:0:0:
64,192,160574,1,12,0:0:0:0:
320,192,160574,1,0,0:0:0:70:hihat13.wav
192,192,160646,1,0,0:0:0:0:
64,192,160717,1,8,0:0:0:0:
448,192,160717,1,0,0:0:0:0:
320,192,160789,1,0,0:0:0:0:
192,192,160860,1,2,0:0:0:0:
320,192,160932,1,0,0:0:0:0:
64,192,161003,1,8,0:0:0:0:
448,192,161003,1,0,0:0:0:0:
192,192,161074,1,0,0:0:0:0:
320,192,161146,1,0,0:0:0:70:tom01.wav
64,192,161217,1,0,0:0:0:0:
192,192,161289,1,0,0:0:0:70:tom03.wav
320,192,161360,1,0,0:0:0:0:
64,192,161432,1,4,0:0:0:0:
192,192,161432,1,2,0:0:0:0:
448,192,161432,1,0,0:0:0:70:push_scratch.wav
320,192,161574,1,0,0:0:0:0:
64,192,161717,1,8,0:0:0:0:
448,192,161717,1,0,0:0:0:70:hihat13.wav
192,192,161860,1,2,0:0:0:0:
64,192,162003,1,0,0:0:0:100:LR_HiHat SClick.wav
320,192,162003,1,0,0:0:0:0:
192,192,162146,1,2,0:0:0:0:
320,192,162289,1,8,0:0:0:0:
448,192,162289,1,0,0:0:0:70:hihat13.wav
320,192,162432,1,2,0:0:0:0:
192,192,162503,1,0,0:0:0:0:
64,192,162574,1,0,0:0:0:100:LR_HiHat SClick.wav
448,192,162574,1,0,0:0:0:0:
448,192,162717,1,2,0:0:0:0:
64,192,162860,1,8,0:0:0:0:
192,192,162860,1,0,0:0:0:70:hihat13.wav
320,192,163003,1,2,0:0:0:0:
448,192,163003,1,0,0:0:0:0:
64,192,163146,1,0,0:0:0:100:LR_HiHat SClick.wav
192,192,163289,1,2,0:0:0:0:
448,192,163289,1,0,0:0:0:0:
64,192,163432,1,8,0:0:0:0:
320,192,163432,1,0,0:0:0:70:hihat13.wav
192,192,163574,1,0,0:0:0:0:
448,192,163574,1,0,0:0:0:0:
64,192,163717,1,2,0:0:0:0:
320,192,163717,1,0,0:0:0:100:LR_HiHat SClick.wav
192,192,163860,1,0,0:0:0:0:
64,192,164003,1,8,0:0:0:0:
448,192,164003,1,0,0:0:0:70:hihat13.wav
320,192,164146,1,2,0:0:0:0:
64,192,164289,1,0,0:0:0:100:LR_HiHat SClick.wav
192,192,164289,1,0,0:0:0:0:
448,192,164432,1,2,0:0:0:0:
192,192,164574,1,8,0:0:0:0:
320,192,164574,1,0,0:0:0:70:hihat13.wav
192,192,164717,1,2,0:0:0:0:
64,192,164789,1,0,0:0:0:0:
320,192,164860,1,0,0:0:0:100:LR_HiHat SClick.wav
448,192,164860,1,0,0:0:0:0:
192,192,165003,1,2,0:0:0:0:
64,192,165146,1,8,0:0:0:0:
448,192,165146,1,0,0:0:0:70:hihat13.wav
192,192,165289,1,2,0:0:0:0:
320,192,165289,1,0,0:0:0:0:
64,192,165432,1,0,0:0:0:100:LR_HiHat SClick.wav
320,192,165574,1,2,0:0:0:0:
448,192,165574,1,0,0:0:0:0:
64,192,165717,1,8,0:0:0:0:
192,192,165717,1,0,0:0:0:70:hihat13.wav
320,192,165860,1,2,0:0:0:0:
448,192,165860,1,0,0:0:0:0:
64,192,166003,1,4,0:0:0:0:
192,192,166003,1,8,0:0:0:0:
448,192,166003,1,0,0:0:0:0:
64,192,166146,1,2,0:0:0:0:
192,192,166289,1,8,0:0:0:0:
320,192,166289,1,0,0:0:0:70:hihat13.wav
448,192,166289,1,0,0:0:0:0:
192,192,166432,1,2,0:0:0:0:
64,192,166574,1,8,0:0:0:0:
320,192,166574,1,0,0:0:0:100:LR_HiHat SClick.wav
448,192,166574,1,0,0:0:0:0:
320,192,166717,1,2,0:0:0:0:
64,192,166860,1,8,0:0:0:0:
192,192,166860,1,0,0:0:0:70:hihat13.wav
448,192,166860,1,0,0:0:0:0:
448,192,167003,1,2,0:0:0:0:
320,192,167074,1,0,0:0:0:0:
64,192,167146,1,8,0:0:0:0:
192,192,167146,1,0,0:0:0:100:LR_HiHat SClick.wav
192,192,167289,1,2,0:0:0:0:
64,192,167432,1,8,0:0:0:0:
320,192,167432,1,0,0:0:0:70:hihat13.wav
448,192,167432,1,0,0:0:0:0:
448,192,167574,1,2,0:0:0:0:
64,192,167717,1,8,0:0:0:0:
192,192,167717,1,0,0:0:0:100:LR_HiHat SClick.wav
320,192,167717,1,0,0:0:0:0:
320,192,167860,1,2,0:0:0:0:
64,192,168003,1,8,0:0:0:0:
192,192,168003,1,0,0:0:0:70:hihat13.wav
448,192,168003,1,0,0:0:0:0:
192,192,168146,1,2,0:0:0:0:
320,192,168289,1,8,0:0:0:0:
448,192,168289,1,0,0:0:0:0:
64,192,168432,1,4,0:0:0:0:
192,192,168432,1,2,0:0:0:0:
448,192,168432,1,0,0:0:0:0:
64,192,168717,1,8,0:0:0:0:
320,192,168717,1,0,0:0:0:0:
64,192,168860,1,4,0:0:0:0:
192,192,168860,1,2,0:0:0:0:
448,192,168860,1,0,0:0:0:0:
64,192,169146,1,8,0:0:0:0:
448,192,169146,1,0,0:0:0:0:
192,192,169289,1,2,0:0:0:0:
320,192,169289,1,4,0:0:0:0:
448,192,169289,1,0,0:0:0:0:
192,192,169574,1,8,0:0:0:0:
448,192,169574,1,0,0:0:0:0:
64,192,169717,1,2,0:0:0:0:
192,192,169717,1,4,0:0:0:0:
320,192,169717,1,0,0:0:0:0:
64,192,170003,1,2,0:0:0:0:
448,192,170003,1,4,0:0:0:0:
320,192,170074,1,8,0:0:0:0:
192,192,170146,1,8,0:0:0:0:
448,192,170217,1,8,0:0:0:0:
64,192,170289,1,8,0:0:0:0:
192,192,170360,1,0,0:0:0:70:tom01.wav
320,192,170432,1,0,0:0:0:70:tom02.wav
448,192,170503,1,0,0:0:0:70:tom03.wav
64,192,170569,128,6,173123:0:0:0:0:
192,192,170569,1,0,0:0:0:70:push_scratch.wav
192,192,171928,128,0,173123:0:0:0:0:
448,192,173247,128,0,175761:0:0:0:0:
320,192,174566,128,0,175761:0:0:0:0:
64,192,175843,1,0,0:0:0:0:
320,192,175843,1,0,0:0:0:0:
448,192,175843,128,0,180788:0:0:0:0:
64,192,176008,1,0,0:0:0:0:
192,192,176118,1,0,0:0:0:0:
320,192,176228,1,0,0:0:0:0:
192,192,176338,1,0,0:0:0:0:
64,192,176448,1,0,0:0:0:0:
320,192,176558,1,0,0:0:0:0:
192,192,176667,1,0,0:0:0:0:
64,192,176777,1,0,0:0:0:0:
320,192,176832,1,0,0:0:0:0:
64,192,176997,1,0,0:0:0:0:
192,192,177079,1,0,0:0:0:0:
320,192,177162,1,0,0:0:0:0:
64,192,177656,128,0,177821:0:0:0:0:
192,192,177821,128,0,179840:0:0:0:0:
320,192,178522,128,0,179840:0:0:0:0:
64,192,179840,128,0,181118:0:0:0:0:
320,192,180953,128,0,181118:0:0:0:0:
192,192,181118,1,0,0:0:0:0:
448,192,181118,128,0,182601:0:0:0:0:
320,192,182601,128,0,183920:0:0:0:0:
448,192,183920,128,0,186393:0:0:0:0:
64,192,185239,128,0,186393:0:0:0:0:
192,192,186228,128,0,186393:0:0:0:0:
