osu file format v14

[General]
AudioFilename: audio.mp3
AudioLeadIn: 0
PreviewTime: 31299
Countdown: 0
SampleSet: Soft
StackLeniency: 0.2
Mode: 0
LetterboxInBreaks: 0
WidescreenStoryboard: 0

[Editor]
Bookmarks: 123569,138284,146569
DistanceSpacing: 0.1
BeatDivisor: 4
GridSize: 4
TimelineZoom: 2.4

[Metadata]
Title:- FALLEN -
TitleUnicode:- ΓΛLLΞИ -
Artist:Kaneko Chiharu
ArtistUnicode:かねこちはる
Creator:ItsWinter
Version:- LEGENDARY -
Source:
Tags:LΞGΞNDARY -Episode.1- Bad Fennec Records TY
BeatmapID:1702194
BeatmapSetID:811454

[Difficulty]
HPDrainRate:5
CircleSize:4
OverallDifficulty:9.8
ApproachRate:9.8
SliderMultiplier:2.4
SliderTickRate:1

[Events]
//Background and Video events
0,0,"65817725_p0.jpg",0,0
//Break Periods
2,47712,48948
2,51912,53519
2,113427,117519
//Storyboard Layer 0 (Background)
//Storyboard Layer 1 (Fail)
//Storyboard Layer 2 (Pass)
//Storyboard Layer 3 (Foreground)
//Storyboard Sound Samples

[TimingPoints]
1974,333.333333333333,4,2,25,70,1,0
1974,-250,4,2,25,70,0,0
3223,-250,4,2,25,5,0,0
3307,-250,4,2,25,70,0,0
4557,-250,4,2,25,5,0,0
4641,-250,4,2,25,70,0,0
5890,-250,4,2,25,5,0,0
5973,319.148936170213,4,2,25,70,1,0
5973,-300,4,2,25,70,0,0
5974,-250,4,2,25,70,0,0
7249,333.333333333333,4,2,1,40,1,0
9248,383.386581469649,4,2,1,40,1,0
10014,323.450134770889,4,2,1,40,1,0
11307,309.278350515464,4,2,1,40,1,0
12389,-100,4,2,1,5,0,0
12466,-250,4,2,1,5,0,0
12545,327.868852459016,4,2,1,40,1,0
12545,-200,4,2,1,40,0,0
16479,334.261838440111,4,2,1,40,1,0
17816,327.868852459016,4,2,1,40,1,0
20602,-200,4,2,1,40,0,0
21750,342.857142857143,4,2,1,40,1,0
21921,-200,4,2,1,40,0,0
22264,304.568527918782,4,2,1,40,1,0
22568,338.983050847458,4,2,1,60,1,0
22568,-200,4,2,1,60,0,0
22991,-100,4,2,20,5,0,0
23077,329.67032967033,4,2,1,60,1,0
25219,-200,4,2,1,60,0,0
25631,-200,4,2,20,5,0,0
25714,-200,4,2,1,60,0,0
28269,-200,4,2,20,5,0,0
28351,-200,4,2,1,60,0,0
30661,301.507537688442,4,2,1,60,1,0
30962,337.078651685393,4,2,5,70,1,0
31636,582.52427184466,4,2,1,30,1,0
31636,-200,4,2,1,30,0,0
32072,-166.666666666667,4,2,20,5,0,0
32218,609.137055837563,4,2,1,40,1,0
32218,-100,4,2,1,40,0,0
32674,-166.666666666667,4,2,20,5,0,0
32827,600,4,2,1,50,1,0
32827,-50,4,2,1,50,0,0
33277,-166.666666666667,4,2,20,5,0,1
33427,285.714285714286,4,2,1,80,1,1
33712,-100,4,2,10,80,0,1
33855,-100,4,2,1,80,0,1
34284,-100,4,2,10,80,0,1
34427,-100,4,2,1,80,0,1
34855,-100,4,2,10,80,0,1
35069,-100,4,2,20,5,0,1
35141,-83.3333333333333,4,2,1,80,0,1
35355,-100,4,2,20,5,0,1
35427,-71.4285714285714,4,2,10,80,0,1
35641,-100,4,2,20,5,0,1
35712,-62.5,4,2,1,80,0,1
35927,-100,4,2,1,80,0,1
35998,-100,4,2,10,80,0,1
36141,-100,4,2,1,80,0,1
36284,-100,4,2,1,80,0,1
36319,-100,4,2,1,15,0,1
36427,-100,4,2,1,80,0,1
36462,-100,4,2,1,15,0,1
36569,-100,4,2,10,80,0,1
36604,-100,4,2,10,80,0,1
36605,-100,4,2,1,15,0,1
36712,-100,4,2,1,80,0,1
36747,-100,4,2,1,80,0,1
36748,-100,4,2,1,15,0,1
36855,-100,4,2,1,80,0,1
37141,-71.4285714285714,4,2,10,80,0,1
37355,-100,4,2,20,5,0,1
37427,-62.5,4,2,1,80,0,1
37641,-100,4,2,20,5,0,1
37712,-55.5555555555556,4,2,10,80,0,1
37927,-100,4,2,20,5,0,1
37998,-50,4,2,1,80,0,1
38212,-100,4,2,20,5,0,1
38284,-50,4,2,10,80,0,1
38427,-50,4,2,1,80,0,1
38855,-50,4,2,10,80,0,1
38998,-50,4,2,1,80,0,1
39427,-55.5555555555556,4,2,10,80,0,1
39641,-100,4,2,20,5,0,1
39712,-62.5,4,2,1,80,0,1
39927,-100,4,2,20,5,0,1
39998,-71.4285714285714,4,2,10,80,0,1
40212,-100,4,2,1,5,0,1
40284,-83.3333333333333,4,2,1,80,0,1
40498,-100,4,2,20,5,0,1
40569,-83.3333333333333,4,2,10,80,0,1
40712,-83.3333333333333,4,2,1,80,0,1
41141,-83.3333333333333,4,2,10,80,0,1
41284,-83.3333333333333,4,2,1,80,0,1
41712,-83.3333333333333,4,2,10,80,0,1
41927,-100,4,2,20,5,0,1
41998,-100,4,2,1,80,0,1
42212,-100,4,2,20,5,0,1
42284,-125,4,2,10,80,0,1
42498,-100,4,2,20,5,0,1
42569,-166.666666666667,4,2,1,80,0,1
42784,-100,4,2,20,5,0,1
42855,-166.666666666667,4,2,10,80,0,1
42998,-166.666666666667,4,2,1,80,0,1
43427,-166.666666666667,4,2,10,80,0,1
43569,-166.666666666667,4,2,1,80,0,1
43998,-111.111111111111,4,2,10,80,0,1
44212,-100,4,2,20,5,0,1
44284,-90.9090909090909,4,2,1,80,0,1
44498,-100,4,2,20,5,0,1
44569,-76.9230769230769,4,2,10,80,0,1
44784,-100,4,2,20,5,0,1
44855,-76.9230769230769,4,2,10,80,0,1
44927,-76.9230769230769,4,2,1,80,0,1
45141,-76.9230769230769,4,2,10,80,0,1
45212,-76.9230769230769,4,2,1,80,0,1
47141,-100,4,2,1,80,0,0
51855,-100,4,2,0,80,0,0
51998,-100,4,2,1,80,0,0
53998,-100,4,2,0,80,0,0
54141,-100,4,2,0,65,0,0
54284,-100,4,2,0,60,0,0
54427,-100,4,2,0,65,0,0
54569,-100,4,2,0,60,0,0
54712,-100,4,2,0,55,0,0
54855,-100,4,2,0,60,0,0
54998,-100,4,2,0,55,0,0
55141,-100,4,2,0,50,0,0
55284,-100,4,2,0,55,0,0
55427,-100,4,2,0,50,0,0
55569,-100,4,2,0,45,0,0
55712,-100,4,2,0,50,0,0
55998,-100,4,2,0,45,0,0
56284,-100,4,2,0,60,0,0
65427,-100,4,2,1,60,0,0
74569,-83.3333333333333,4,2,2,80,0,0
74784,-83.3333333333333,4,2,20,5,0,0
74855,-83.3333333333333,4,2,2,80,0,0
74998,-83.3333333333333,4,2,1,80,0,0
75141,-83.3333333333333,4,2,2,80,0,0
75284,-83.3333333333333,4,2,1,80,0,0
75427,-83.3333333333333,4,2,2,80,0,0
75569,-83.3333333333333,4,2,1,80,0,0
75712,-83.3333333333333,4,2,2,80,0,0
75927,-83.3333333333333,4,2,20,5,0,0
75998,-83.3333333333333,4,2,2,80,0,0
76141,-83.3333333333333,4,2,1,80,0,0
76284,-83.3333333333333,4,2,2,80,0,0
76427,-83.3333333333333,4,2,1,80,0,0
76569,-83.3333333333333,4,2,2,80,0,0
77069,-83.3333333333333,4,2,20,5,0,0
77141,-83.3333333333333,4,2,2,80,0,0
77284,-83.3333333333333,4,2,1,80,0,0
77427,-83.3333333333333,4,2,2,80,0,0
77569,-83.3333333333333,4,2,1,80,0,0
77712,-83.3333333333333,4,2,2,80,0,0
77855,-83.3333333333333,4,2,1,80,0,0
77998,-83.3333333333333,4,2,2,80,0,0
78212,-83.3333333333333,4,2,20,5,0,0
78284,-83.3333333333333,4,2,2,80,0,0
78427,-83.3333333333333,4,2,1,80,0,0
78569,-83.3333333333333,4,2,2,80,0,0
78712,-83.3333333333333,4,2,1,80,0,0
78855,-83.3333333333333,4,2,2,80,0,0
79284,-83.3333333333333,4,2,1,80,0,0
79427,-83.3333333333333,4,2,2,80,0,0
79569,-83.3333333333333,4,2,1,80,0,0
79712,-83.3333333333333,4,2,2,80,0,0
79855,-83.3333333333333,4,2,1,80,0,0
79998,-83.3333333333333,4,2,2,80,0,0
80141,-83.3333333333333,4,2,1,80,0,0
80284,-83.3333333333333,4,2,2,80,0,0
80427,-83.3333333333333,4,2,1,80,0,0
80569,-83.3333333333333,4,2,2,80,0,0
80712,-83.3333333333333,4,2,1,80,0,0
80855,-83.3333333333333,4,2,2,80,0,0
80998,-83.3333333333333,4,2,1,80,0,0
81141,-83.3333333333333,4,2,2,80,0,0
81284,-83.3333333333333,4,2,1,80,0,0
83712,-83.3333333333333,4,2,1,80,0,0
83998,-83.3333333333333,4,2,10,80,0,0
84141,-83.3333333333333,4,2,1,80,0,0
84569,-83.3333333333333,4,2,10,80,0,0
84712,-83.3333333333333,4,2,1,80,0,0
84855,-83.3333333333333,4,2,10,80,0,0
84998,-83.3333333333333,4,2,1,80,0,0
85141,-83.3333333333333,4,2,10,80,0,0
85284,-83.3333333333333,4,2,1,80,0,0
85712,-83.3333333333333,4,2,10,80,0,0
85855,-83.3333333333333,4,2,1,80,0,0
85998,-83.3333333333333,4,2,10,80,0,0
86141,-83.3333333333333,4,2,1,80,0,0
86284,-83.3333333333333,4,2,10,80,0,0
86427,-83.3333333333333,4,2,1,80,0,0
86855,-83.3333333333333,4,2,10,80,0,0
86998,-83.3333333333333,4,2,1,80,0,0
87141,-83.3333333333333,4,2,10,80,0,0
87284,-83.3333333333333,4,2,1,80,0,0
87427,-83.3333333333333,4,2,10,80,0,0
87569,-83.3333333333333,4,2,1,80,0,0
87998,-83.3333333333333,4,2,10,80,0,0
88141,-83.3333333333333,4,2,1,80,0,0
92855,-83.3333333333333,4,2,3,80,0,1
99712,-90.9090909090909,4,2,3,80,0,1
100141,-100,4,2,3,80,0,1
100855,-111.111111111111,4,2,1,80,0,1
101212,-250,4,2,1,5,0,1
101284,-142.857142857143,4,2,1,80,0,1
101641,-250,4,2,1,5,0,1
101712,-111.111111111111,4,2,1,80,0,1
101927,-250,4,2,20,5,0,1
101998,-90.9090909090909,4,2,1,80,0,1
102284,-90.9090909090909,4,2,10,80,0,1
102427,-90.9090909090909,4,2,1,80,0,1
102855,-90.9090909090909,4,2,10,80,0,1
102998,-90.9090909090909,4,2,1,80,0,1
103141,-90.9090909090909,4,2,10,80,0,1
103355,-90.9090909090909,4,2,20,5,0,1
103427,-90.9090909090909,4,2,10,80,0,1
103569,-90.9090909090909,4,2,1,80,0,1
103998,-90.9090909090909,4,2,10,80,0,1
104141,-90.9090909090909,4,2,1,80,0,1
104284,-90.9090909090909,4,2,10,80,0,1
104498,-90.9090909090909,4,2,20,5,0,1
104569,-90.9090909090909,4,2,10,80,0,1
104712,-90.9090909090909,4,2,1,80,0,1
105141,-90.9090909090909,4,2,10,80,0,1
105284,-90.9090909090909,4,2,1,80,0,1
105427,-90.9090909090909,4,2,10,80,0,1
105569,-90.9090909090909,4,2,1,80,0,1
105712,-90.9090909090909,4,2,10,80,0,1
105855,-90.9090909090909,4,2,1,80,0,1
105998,-90.9090909090909,4,2,10,80,0,1
106141,-90.9090909090909,4,2,1,80,0,1
106284,-90.9090909090909,4,2,10,80,0,1
106427,-90.9090909090909,4,2,1,80,0,1
109998,-71.4285714285714,4,2,1,80,0,1
111141,-90.9090909090909,4,2,1,80,0,0
120284,-90.9090909090909,4,2,10,80,0,0
120427,-90.9090909090909,4,2,1,80,0,0
120855,-90.9090909090909,4,2,10,80,0,0
120998,-90.9090909090909,4,2,1,80,0,0
121427,-90.9090909090909,4,2,10,80,0,0
121569,-90.9090909090909,4,2,1,80,0,0
121998,-90.9090909090909,4,2,10,80,0,0
122141,-90.9090909090909,4,2,1,80,0,0
122569,-90.9090909090909,4,2,10,80,0,0
122712,-90.9090909090909,4,2,1,80,0,0
123141,-90.9090909090909,4,2,10,80,0,0
123284,-90.9090909090909,4,2,1,80,0,0
123712,-90.9090909090909,4,2,10,80,0,0
123855,-90.9090909090909,4,2,1,80,0,0
124284,-90.9090909090909,4,2,10,80,0,0
124427,-90.9090909090909,4,2,1,80,0,0
124855,-90.9090909090909,4,2,10,80,0,0
124998,-90.9090909090909,4,2,1,80,0,0
125427,-90.9090909090909,4,2,10,80,0,0
125569,-90.9090909090909,4,2,1,80,0,0
125998,-90.9090909090909,4,2,10,80,0,0
126141,-90.9090909090909,4,2,1,80,0,0
126569,-90.9090909090909,4,2,10,80,0,0
126712,-90.9090909090909,4,2,1,80,0,0
128284,-90.9090909090909,4,2,2,80,0,0
128427,-90.9090909090909,4,2,1,80,0,0
128569,-62.5,4,2,1,80,0,1
128784,-62.5,4,2,20,5,0,1
128855,-55.5555555555556,4,2,1,80,0,1
129069,-62.5,4,2,20,5,0,1
129141,-50,4,2,1,80,0,1
129355,-62.5,4,2,20,5,0,1
129427,-45.4545454545455,4,2,1,80,0,1
129641,-62.5,4,2,1,80,0,1
129712,-62.5,4,2,10,80,0,1
129713,-45.4545454545455,4,2,10,80,0,1
129855,-45.4545454545455,4,2,1,80,0,1
130284,-45.4545454545455,4,2,10,80,0,1
130427,-45.4545454545455,4,2,1,80,0,1
130855,-50,4,2,10,80,0,1
131069,-62.5,4,2,20,5,0,1
131141,-45.4545454545455,4,2,1,80,0,1
131355,-62.5,4,2,20,5,0,1
131427,-41.6666666666667,4,2,10,80,0,1
131641,-62.5,4,2,20,5,0,1
131712,-38.4615384615385,4,2,1,80,0,1
131927,-62.5,4,2,1,80,0,1
131998,-38.4615384615385,4,2,10,80,0,1
132141,-38.4615384615385,4,2,1,80,0,1
132284,-66.6666666666667,4,2,1,80,0,1
132319,-62.5,4,2,1,15,0,1
132427,-66.6666666666667,4,2,1,80,0,1
132462,-62.5,4,2,1,15,0,1
132569,-66.6666666666667,4,2,10,80,0,1
132604,-62.5,4,2,10,80,0,1
132605,-62.5,4,2,1,15,0,1
132712,-66.6666666666667,4,2,1,80,0,1
132747,-62.5,4,2,1,80,0,1
132748,-62.5,4,2,1,15,0,1
132855,-66.6666666666667,4,2,1,80,0,1
133141,-45.4545454545455,4,2,10,80,0,1
133355,-62.5,4,2,20,5,0,1
133427,-41.6666666666667,4,2,1,80,0,1
133641,-62.5,4,2,20,5,0,1
133712,-38.4615384615385,4,2,10,80,0,1
133927,-62.5,4,2,20,5,0,1
133998,-35.7142857142857,4,2,1,80,0,1
134212,-62.5,4,2,1,80,0,1
134284,-35.7142857142857,4,2,10,80,0,1
134427,-35.7142857142857,4,2,1,80,0,1
134855,-35.7142857142857,4,2,10,80,0,1
134998,-35.7142857142857,4,2,1,80,0,1
135427,-41.6666666666667,4,2,10,80,0,1
135641,-62.5,4,2,20,5,0,1
135712,-45.4545454545455,4,2,1,80,0,1
135927,-62.5,4,2,20,5,0,1
135998,-50,4,2,10,80,0,1
136212,-62.5,4,2,20,5,0,1
136284,-55.5555555555556,4,2,1,80,0,1
136498,-62.5,4,2,1,80,0,1
136569,-55.5555555555556,4,2,10,80,0,1
136712,-55.5555555555556,4,2,1,80,0,1
137141,-55.5555555555556,4,2,10,80,0,1
137284,-55.5555555555556,4,2,1,80,0,1
137712,-55.5555555555556,4,2,10,80,0,1
137927,-62.5,4,2,20,5,0,1
137998,-62.5,4,2,1,80,0,1
138212,-62.5,4,2,20,5,0,1
138284,-71.4285714285714,4,2,10,80,0,1
138498,-62.5,4,2,20,5,0,1
138569,-83.3333333333333,4,2,1,80,0,1
138784,-62.5,4,2,1,80,0,1
138855,-83.3333333333333,4,2,10,80,0,1
138998,-83.3333333333333,4,2,1,80,0,1
139427,-83.3333333333333,4,2,10,80,0,1
139569,-83.3333333333333,4,2,1,80,0,1
139998,-83.3333333333333,4,2,10,80,0,1
140212,-62.5,4,2,20,5,0,1
140284,-76.9230769230769,4,2,1,80,0,1
140498,-62.5,4,2,20,5,0,1
140569,-71.4285714285714,4,2,10,80,0,1
140784,-62.5,4,2,20,5,0,1
140855,-76.9230769230769,4,2,1,80,0,1
141069,-62.5,4,2,1,80,0,1
141141,-76.9230769230769,4,2,10,80,0,1
141284,-76.9230769230769,4,2,1,80,0,1
141641,-62.5,4,2,1,80,0,1
141712,-76.9230769230769,4,2,10,80,0,1
141855,-76.9230769230769,4,2,1,80,0,1
141998,-76.9230769230769,4,2,4,80,0,1
142141,-76.9230769230769,4,2,1,80,0,1
142212,-62.5,4,2,1,80,0,1
142284,-76.9230769230769,4,2,10,80,0,1
142427,-76.9230769230769,4,2,1,80,0,1
142855,-76.9230769230769,4,2,10,80,0,1
142998,-76.9230769230769,4,2,1,80,0,1
146284,-76.9230769230769,4,2,2,80,0,1
146379,-76.9230769230769,4,2,1,80,0,1
147069,-76.9230769230769,4,2,20,5,0,1
147141,-66.6666666666667,4,2,1,80,0,1
147355,-66.6666666666667,4,2,20,5,0,1
147427,-66.6666666666667,4,2,1,80,0,1
147641,-66.6666666666667,4,2,20,5,0,1
147712,-66.6666666666667,4,2,3,80,0,1
147927,-76.9230769230769,4,2,3,80,0,1
147998,-66.6666666666667,4,2,13,80,0,1
148141,-66.6666666666667,4,2,3,80,0,1
148569,-66.6666666666667,4,2,13,80,0,1
148712,-66.6666666666667,4,2,3,80,0,1
149141,-62.5,4,2,13,80,0,1
149355,-76.9230769230769,4,2,20,5,0,1
149427,-55.5555555555556,4,2,3,80,0,1
149641,-76.9230769230769,4,2,20,5,0,1
149712,-50,4,2,13,80,0,1
149927,-76.9230769230769,4,2,20,5,0,1
149998,-45.4545454545455,4,2,3,80,0,1
150212,-76.9230769230769,4,2,3,80,0,1
150284,-45.4545454545455,4,2,13,80,0,1
150427,-45.4545454545455,4,2,3,80,0,1
150569,-62.5,4,2,3,80,0,1
150605,-76.9230769230769,4,2,3,15,0,1
150712,-62.5,4,2,3,80,0,1
150748,-76.9230769230769,4,2,3,15,0,1
150855,-62.5,4,2,13,80,0,1
150891,-76.9230769230769,4,2,3,15,0,1
150998,-62.5,4,2,3,80,0,1
151034,-76.9230769230769,4,2,3,15,0,1
151141,-62.5,4,2,3,80,0,1
151427,-50,4,2,13,80,0,1
151641,-76.9230769230769,4,2,20,5,0,1
151712,-45.4545454545455,4,2,3,80,0,1
151927,-76.9230769230769,4,2,20,5,0,1
151998,-41.6666666666667,4,2,13,80,0,1
152212,-76.9230769230769,4,2,20,5,0,1
152284,-38.4615384615385,4,2,3,80,0,1
152498,-76.9230769230769,4,2,3,80,0,1
152569,-38.4615384615385,4,2,13,80,0,1
152712,-38.4615384615385,4,2,3,80,0,1
153141,-38.4615384615385,4,2,13,80,0,1
153284,-38.4615384615385,4,2,3,80,0,1
153712,-35.7142857142857,4,2,13,80,0,1
153927,-76.9230769230769,4,2,20,5,0,1
153998,-38.4615384615385,4,2,3,80,0,1
154212,-76.9230769230769,4,2,20,5,0,1
154284,-41.6666666666667,4,2,13,80,0,1
154498,-76.9230769230769,4,2,20,5,0,1
154569,-45.4545454545455,4,2,3,80,0,1
154784,-76.9230769230769,4,2,3,80,0,1
154855,-45.4545454545455,4,2,13,80,0,1
154998,-45.4545454545455,4,2,3,80,0,1
155427,-45.4545454545455,4,2,13,80,0,1
155569,-45.4545454545455,4,2,3,80,0,1
155998,-41.6666666666667,4,2,13,80,0,1
156212,-76.9230769230769,4,2,20,5,0,1
156284,-45.4545454545455,4,2,3,80,0,1
156498,-76.9230769230769,4,2,20,5,0,1
156569,-50,4,2,13,80,0,1
156784,-76.9230769230769,4,2,20,5,0,1
156855,-55.5555555555556,4,2,1,80,0,1
157069,-76.9230769230769,4,2,1,80,0,1
157141,-55.5555555555556,4,2,10,80,0,1
157284,-55.5555555555556,4,2,1,80,0,1
157712,-55.5555555555556,4,2,10,80,0,1
157855,-55.5555555555556,4,2,1,80,0,1
157998,-55.5555555555556,4,2,2,80,0,1
158141,-55.5555555555556,4,2,1,80,0,1
158284,-55.5555555555556,4,2,10,80,0,1
158498,-76.9230769230769,4,2,20,5,0,1
158569,-50,4,2,1,80,0,1
158784,-76.9230769230769,4,2,20,5,0,1
158855,-45.4545454545455,4,2,10,80,0,1
159069,-76.9230769230769,4,2,20,5,0,1
159141,-45.4545454545455,4,2,1,80,0,1
159427,-45.4545454545455,4,2,10,80,0,1
159498,-45.4545454545455,4,2,1,80,0,1
159712,-45.4545454545455,4,2,10,80,0,1
159784,-45.4545454545455,4,2,1,80,0,1
159998,-45.4545454545455,4,2,10,80,0,1
160069,-45.4545454545455,4,2,1,80,0,1
161427,-55.5555555555556,4,2,1,80,0,1
161712,-55.5555555555556,4,2,10,80,0,1
161998,-55.5555555555556,4,2,1,80,0,1
162284,-55.5555555555556,4,2,10,80,0,1
162427,-55.5555555555556,4,2,1,80,0,1
162569,-55.5555555555556,4,2,10,80,0,1
162712,-55.5555555555556,4,2,1,80,0,1
162855,-55.5555555555556,4,2,10,80,0,1
162998,-55.5555555555556,4,2,1,80,0,1
163427,-55.5555555555556,4,2,10,80,0,1
163569,-55.5555555555556,4,2,1,80,0,1
163998,-55.5555555555556,4,2,10,80,0,1
164284,-55.5555555555556,4,2,1,80,0,1
164569,-55.5555555555556,4,2,10,80,0,1
164712,-55.5555555555556,4,2,1,80,0,1
164855,-55.5555555555556,4,2,10,80,0,1
164998,-55.5555555555556,4,2,1,80,0,1
165141,-55.5555555555556,4,2,10,80,0,1
165284,-55.5555555555556,4,2,1,80,0,1
165712,-55.5555555555556,4,2,10,80,0,1
165855,-55.5555555555556,4,2,1,80,0,1
170569,329.67032967033,4,2,6,80,1,0

[Colours]
Combo1 : 255,255,255
Combo2 : 231,184,24
Combo3 : 128,0,0
Combo4 : 128,64,0
Combo5 : 128,128,128
Combo6 : 255,128,0

[HitObjects]
27,24,1974,6,2,B|101:71|129:13|191:52|191:52|222:145|343:137,1,360,6|0,0:0|0:0,0:0:0:0:
346,125,3307,6,0,B|411:100|488:151|488:151|426:260|489:356,1,360,0|0,0:0|0:0,0:0:0:0:
508,353,4640,6,0,B|376:407|313:340|313:340|259:276|164:315,1,360,0|0,0:0|0:0,0:0:0:0:
147,309,5973,6,0,P|16:292|104:174,1,320,0|0,0:0|0:0,0:0:0:0:
256,192,7332,12,0,12466,0:0:0:0:
69,223,12545,6,0,L|191:255,1,120,4|0,0:0|0:0,0:0:0:0:
306,305,13036,2,0,L|438:247,1,120,0|0,0:0|0:0,0:0:0:0:
69,223,13528,5,0,0:0:0:0:
306,305,13856,1,0,0:0:0:0:
128,243,14184,37,0,0:0:0:0:
246,284,14512,1,0,0:0:0:0:
143,34,15167,6,0,L|229:146,1,120,0|0,0:0|0:0,0:0:0:0:
356,127,15659,2,0,L|294:235,1,120,0|0,0:0|0:0,0:0:0:0:
143,34,16151,5,0,0:0:0:0:
356,127,16479,1,0,0:0:0:0:
143,34,16813,53,0,0:0:0:0:
356,127,17147,1,0,0:0:0:0:
216,129,17481,1,0,0:0:0:0:
348,360,17816,5,0,0:0:0:0:
112,196,18307,1,0,0:0:0:0:
348,360,18799,5,0,0:0:0:0:
112,196,19127,1,0,0:0:0:0:
285,320,19455,5,0,0:0:0:0:
180,246,19783,1,0,0:0:0:0:
233,284,20111,1,0,0:0:0:0:
363,84,20438,5,0,0:0:0:0:
376,98,20602,2,0,L|455:215,1,120,0|0,0:0|0:0,0:0:0:0:
410,322,21258,1,0,0:0:0:0:
291,48,21586,5,0,0:0:0:0:
276,71,21750,1,0,0:0:0:0:
261,94,21921,2,0,L|200:144,1,60,0|0,0:0|0:0,0:0:0:0:
71,66,22264,1,0,0:0:0:0:
200,303,22568,5,2,0:3:0:0:
212,313,22652,1,2,0:3:0:0:
224,323,22737,2,0,L|296:340,1,60,2|0,0:3|0:0,0:0:0:0:
504,358,23076,37,4,0:2:0:0:
413,118,23241,1,0,0:0:0:0:
404,102,23571,1,0,0:0:0:0:
396,87,23901,1,0,0:0:0:0:
387,72,24230,1,0,0:0:0:0:
378,57,24560,1,0,0:0:0:0:
369,42,24890,1,0,0:0:0:0:
326,209,25055,1,0,0:0:0:0:
196,303,25219,5,2,0:3:0:0:
184,313,25302,1,2,0:3:0:0:
172,323,25384,2,0,L|101:363,1,60,2|0,0:3|0:0,0:0:0:0:
24,205,25714,1,4,0:2:0:0:
332,292,25879,5,0,0:0:0:0:
342,305,26208,1,0,0:0:0:0:
353,318,26538,1,0,0:0:0:0:
365,331,26868,1,0,0:0:0:0:
376,344,27197,1,0,0:0:0:0:
387,357,27527,1,0,0:0:0:0:
222,277,27692,1,0,0:0:0:0:
91,145,27857,5,2,0:3:0:0:
85,130,27939,1,2,0:3:0:0:
79,115,28022,2,0,L|24:65,1,60,2|0,0:3|0:0,0:0:0:0:
239,33,28351,1,4,0:2:0:0:
81,231,28516,1,0,0:2:0:0:
374,337,28846,5,8,0:2:0:0:
374,337,29011,1,0,0:0:0:0:
136,337,29175,1,0,0:2:0:0:
256,192,29505,1,8,0:2:0:0:
374,47,29835,5,0,0:2:0:0:
136,47,30000,1,0,0:0:0:0:
374,47,30164,1,8,0:2:0:0:
136,47,30329,1,0,0:2:0:0:
374,47,30494,1,0,0:2:0:0:
256,192,30659,1,8,0:2:0:0:
44,343,30962,6,0,L|21:378,1,40,8|0,0:2|0:0,0:0:0:0:
142,17,31636,6,0,L|142:130,1,90,0|0,0:0|0:0,0:0:0:0:
214,17,32218,2,0,L|214:248,1,180,0|0,0:0|0:0,0:0:0:0:
286,17,32827,2,0,L|286:384,1,360,0|0,0:0|0:0,0:0:0:0:
358,17,33427,6,0,B|358:83|358:83|397:174,1,120,4|0,0:2|0:0,0:0:0:0:
505,199,33712,1,8,0:2:0:0:
235,170,33855,5,2,0:0:0:0:
479,171,33998,1,2,0:3:0:0:
178,236,34141,5,2,0:0:0:0:
456,147,34284,1,8,0:2:0:0:
122,308,34427,5,2,0:0:0:0:
440,129,34569,1,2,0:3:0:0:
71,372,34712,5,0,0:0:0:0:
72,205,34855,2,0,L|280:111,1,180,8|0,0:2|0:0,0:0:0:0:
74,90,35141,2,0,L|170:297,1,215.999993408203,2|0,0:3|0:0,0:0:0:0:
9,156,35427,2,0,L|257:46,1,251.999992309571,8|0,0:2|0:0,0:0:0:0:
0,83,35712,2,0,L|131:381,1,288,2|0,0:3|0:0,0:0:0:0:
214,294,35998,1,8,0:2:0:0:
103,69,36141,1,2,0:2:0:0:
214,294,36284,6,0,L|200:334,1,30,2|0,0:3|0:0,0:0:0:0:
294,154,36427,2,0,L|280:194,1,30,2|0,0:2|0:0,0:0:0:0:
341,306,36569,2,0,L|322:358,1,30,8|0,0:2|0:0,0:0:0:0:
445,123,36712,2,0,L|426:175,1,30,2|0,0:2|0:0,0:0:0:0:
488,309,36855,1,2,0:3:0:0:
347,81,36998,1,0,0:0:0:0:
413,231,37141,6,0,B|335:214|335:214|310:248|267:264|227:251|227:251|186:239|159:203|158:160,1,251.999992309571,8|0,0:2|0:0,0:0:0:0:
389,256,37427,2,0,P|258:323|103:222,1,288,2|0,0:3|0:0,0:0:0:0:
413,231,37712,2,0,B|322:213|322:213|311:164|271:127|221:122|221:122|171:117|125:144|120:164,1,323.999990112305,8|0,0:2|0:0,0:0:0:0:
385,189,37998,2,0,P|273:65|86:98,1,360,4|0,0:2|0:0,0:0:0:0:
227,208,38284,5,8,0:2:0:0:
317,353,38427,1,2,0:0:0:0:
287,145,38569,1,2,0:3:0:0:
230,327,38712,1,2,0:2:0:0:
200,121,38855,1,8,0:2:0:0:
314,246,38998,1,2,0:2:0:0:
271,61,39141,1,2,0:3:0:0:
227,208,39284,1,2,0:2:0:0:
371,22,39427,6,0,P|383:152|546:127,1,323.999990112305,8|0,0:2|0:0,0:0:0:0:
454,81,39712,2,0,P|395:210|557:250,1,288,2|0,0:3|0:0,0:0:0:0:
489,175,39998,2,0,P|397:278|466:372,1,251.999992309571,8|0,0:2|0:0,0:0:0:0:
497,275,40284,2,0,L|215:229,1,215.999993408203,2|0,0:3|0:0,0:0:0:0:
137,217,40569,5,8,0:2:0:0:
256,119,40712,1,2,0:2:0:0:
77,116,40855,1,2,0:3:0:0:
210,268,40998,1,2,0:2:0:0:
171,125,41141,1,8,0:2:0:0:
118,300,41284,1,2,0:2:0:0:
257,194,41427,1,2,0:3:0:0:
53,233,41569,1,2,0:2:0:0:
280,305,41712,6,0,B|361:301|361:301|484:200,1,215.999993408203,8|0,0:2|0:0,0:0:0:0:
297,236,41998,2,0,B|366:295|366:295|375:419,1,180,2|0,0:3|0:0,0:0:0:0:
377,222,42284,2,0,B|365:290|365:290|285:372,1,144,8|0,0:2|0:0,0:0:0:0:
422,266,42569,2,0,B|373:285|373:285|303:266,1,107.999996704102,4|0,0:2|0:0,0:0:0:0:
170,212,42855,5,8,0:2:0:0:
253,301,42998,1,2,0:2:0:0:
215,150,43141,1,2,0:3:0:0:
162,293,43284,1,2,0:2:0:0:
136,131,43427,1,8,0:2:0:0:
260,224,43569,1,2,0:2:0:0:
189,82,43712,1,2,0:3:0:0:
170,212,43855,1,2,0:2:0:0:
309,24,43998,6,0,P|299:125|345:182,1,161.999995056153,8|0,0:2|0:0,0:0:0:0:
444,292,44284,2,0,P|464:189|395:116,1,198.000006042481,2|0,0:3|0:0,0:0:0:0:
309,24,44569,2,0,P|299:125|415:206,1,233.999989288331,8|0,0:2|0:0,0:0:0:0:
444,292,44855,5,4,0:2:0:0:
459,265,44950,1,0,0:0:0:0:
467,235,45046,1,0,0:0:0:0:
467,204,45141,1,8,0:2:0:0:
458,174,45236,1,0,0:0:0:0:
441,148,45331,1,0,0:0:0:0:
408,122,45427,5,2,0:3:0:0:
360,141,45522,1,0,0:0:0:0:
309,135,45617,1,0,0:0:0:0:
267,106,45712,1,8,0:2:0:0:
246,59,45807,1,0,0:0:0:0:
209,24,45903,1,0,0:0:0:0:
155,12,45998,5,12,0:2:0:0:
256,223,46141,1,2,0:2:0:0:
38,199,46284,1,8,0:2:0:0:
340,45,46427,1,8,0:2:0:0:
158,295,46569,1,2,0:2:0:0:
165,131,46712,1,8,0:2:0:0:
251,356,46855,1,4,0:3:0:0:
267,106,46998,1,4,0:3:0:0:
60,355,47141,1,4,0:2:0:0:
255,192,49427,5,2,0:2:0:0:
255,95,50569,1,0,0:0:0:0:
256,7,51712,1,6,0:2:0:0:
372,4,53998,5,2,0:0:0:0:
386,107,54141,1,2,0:0:0:0:
400,210,54284,1,2,0:0:0:0:
447,153,54427,5,2,0:0:0:0:
344,167,54569,1,2,0:0:0:0:
241,181,54712,1,2,0:0:0:0:
286,120,54855,5,2,0:0:0:0:
300,223,54998,1,2,0:0:0:0:
314,326,55141,1,2,0:0:0:0:
361,269,55284,5,2,0:0:0:0:
258,283,55427,1,2,0:0:0:0:
155,297,55569,1,2,0:0:0:0:
216,344,55712,5,2,0:0:0:0:
200,241,55855,1,2,0:0:0:0:
185,139,55998,1,2,0:0:0:0:
120,200,56141,1,2,0:0:0:0:
242,70,56284,6,0,B|285:106|343:115|343:115|406:86|471:123,1,240,6|0,3:2|3:0,0:0:0:0:
512,305,56712,1,0,0:0:0:0:
218,195,56855,2,0,L|335:228,1,120,0|0,3:0|0:0,0:0:0:0:
512,346,57141,2,0,L|395:313,1,120,0|0,3:0|0:0,0:0:0:0:
162,7,57427,6,0,B|171:53|151:82|151:82|156:131|156:131|112:184|151:259,1,240,2|0,3:2|3:0,0:0:0:0:
247,368,57855,1,0,0:0:0:0:
315,115,57998,2,0,P|340:206|306:263,1,120,0|0,3:0|0:0,0:0:0:0:
221,384,58284,2,0,P|196:293|230:236,1,120,0|0,3:0|0:0,0:0:0:0:
512,125,58569,6,0,B|434:118|434:118|401:108|401:108|369:113|369:113|274:107,1,240,2|0,3:2|3:0,0:0:0:0:
59,153,58998,1,0,0:0:0:0:
333,226,59141,2,0,B|302:252|302:252|176:243,1,120,0|0,3:0|0:0,0:0:0:0:
47,122,59427,2,0,B|78:96|78:96|204:105,1,120,0|0,3:0|0:0,0:0:0:0:
437,15,59712,6,0,B|397:136|472:119|433:253,1,240,2|0,3:2|3:0,0:0:0:0:
337,361,60141,1,0,0:0:0:0:
356,113,60284,2,0,B|355:154|355:154|368:182|368:182|369:237,1,120,0|0,3:0|0:0,0:0:0:0:
291,384,60569,2,0,B|292:343|292:343|278:314|278:314|280:258,1,120,0|0,3:0|0:0,0:0:0:0:
189,25,60855,6,0,P|286:79|242:-7,1,240,6|0,3:2|3:0,0:0:0:0:
89,66,61284,1,0,0:0:0:0:
388,132,61427,2,0,L|248:166,1,120,0|0,3:0|0:0,0:0:0:0:
37,88,61712,2,0,L|177:122,1,120,0|0,3:0|0:0,0:0:0:0:
371,172,61998,2,0,L|231:206,1,120,0|0,3:0|0:0,0:0:0:0:
20,128,62284,2,0,L|160:162,1,120,0|0,3:0|0:0,0:0:0:0:
354,212,62569,2,0,L|214:246,1,120,0|0,3:0|0:0,0:0:0:0:
3,168,62855,2,0,L|143:202,1,120,0|0,3:0|0:0,0:0:0:0:
354,212,63141,6,0,B|394:237|394:237|498:244,1,120,2|0,3:2|0:0,0:0:0:0:
251,258,63427,2,0,B|210:232|210:232|106:225,1,120,0|0,3:0|0:0,0:0:0:0:
355,255,63712,2,0,B|395:280|395:280|499:287,1,120,0|0,3:0|0:0,0:0:0:0:
252,302,63998,2,0,B|211:276|211:276|107:269,1,120,0|0,3:0|0:0,0:0:0:0:
8,98,64284,6,0,P|84:88|152:139,1,120,2|0,3:2|0:0,0:0:0:0:
320,179,64569,2,0,P|244:189|176:138,1,120,0|0,3:0|0:0,0:0:0:0:
25,61,64855,2,0,P|101:51|169:102,1,120,0|0,3:0|0:0,0:0:0:0:
337,142,65141,2,0,P|261:152|193:101,1,120,0|0,3:0|0:0,0:0:0:0:
347,23,65427,6,0,L|334:192,1,120,6|0,3:2|0:0,0:0:0:0:
278,356,65712,2,0,L|287:236,1,120,0|0,3:0|0:0,0:0:0:0:
366,33,65998,2,0,L|353:202,1,120,0|0,3:0|0:0,0:0:0:0:
297,366,66284,2,0,L|306:246,1,120,0|0,3:0|0:0,0:0:0:0:
33,102,66569,6,0,B|86:83|86:83|202:89,1,120,2|0,3:2|0:0,0:0:0:0:
366,33,66855,2,0,B|321:46|321:46|246:42,1,120,0|0,3:0|0:0,0:0:0:0:
23,132,67141,2,0,B|76:113|76:113|192:119,1,120,0|0,3:0|0:0,0:0:0:0:
356,63,67427,2,0,B|311:76|311:76|236:72,1,120,0|0,3:0|0:0,0:0:0:0:
137,333,67712,6,0,P|133:237|176:184,1,120,2|0,3:2|0:0,0:0:0:0:
237,72,67998,2,0,P|241:168|198:221,1,120,0|0,3:0|0:0,0:0:0:0:
116,345,68284,2,0,P|112:249|155:196,1,120,0|0,3:0|0:0,0:0:0:0:
216,84,68569,2,0,P|220:180|177:233,1,120,0|0,3:0|0:0,0:0:0:0:
426,276,68855,6,0,B|381:279|381:279|350:262|350:262|255:265,1,120,2|0,3:2|0:0,0:0:0:0:
116,345,69141,2,0,B|160:341|160:341|191:358|191:358|286:355,1,120,0|0,3:0|0:0,0:0:0:0:
431,253,69427,2,0,B|386:256|386:256|355:239|355:239|260:242,1,120,0|0,3:0|0:0,0:0:0:0:
121,322,69712,2,0,B|165:318|165:318|196:335|196:335|291:332,1,120,0|0,3:0|0:0,0:0:0:0:
317,0,69998,6,0,P|325:102|282:158,1,120,6|0,3:2|0:0,0:0:0:0:
426,276,70284,2,0,P|418:174|461:118,1,120,0|0,3:0|0:0,0:0:0:0:
341,17,70569,2,0,P|349:119|306:175,1,120,0|0,3:0|0:0,0:0:0:0:
450,293,70855,2,0,P|442:191|485:135,1,120,0|0,3:0|0:0,0:0:0:0:
365,34,71141,2,0,P|373:136|330:192,1,120,0|0,3:0|0:0,0:0:0:0:
474,310,71427,2,0,P|466:208|509:152,1,120,0|0,3:0|0:0,0:0:0:0:
389,51,71712,2,0,P|397:153|354:209,1,120,0|0,3:0|0:0,0:0:0:0:
498,327,71998,2,0,P|490:225|533:169,1,120,0|0,3:0|0:0,0:0:0:0:
30,84,72284,6,0,L|200:95,1,120,2|0,3:2|0:0,0:0:0:0:
364,154,72569,2,0,L|194:165,1,120,0|0,3:0|0:0,0:0:0:0:
41,117,72855,2,0,L|211:128,1,120,0|0,3:0|0:0,0:0:0:0:
375,187,73141,2,0,L|205:198,1,120,0|0,3:0|0:0,0:0:0:0:
52,150,73427,2,0,L|222:161,1,120,2|0,3:2|0:0,0:0:0:0:
386,220,73712,1,0,3:0:0:0:
29,291,73855,6,0,B|81:319|127:279|127:279|156:307|156:307|226:247|317:306,1,300
424,353,74284,1,8,3:2:0:0:
350,92,74569,6,0,B|329:175|329:175|425:355,1,287.999991210938,4|10,0:2|0:2,0:0:0:0:
505,213,74998,1,2,0:0:0:0:
313,339,75141,1,2,0:2:0:0:
419,155,75284,1,2,0:0:0:0:
424,353,75427,1,10,0:2:0:0:
335,147,75569,1,2,0:0:0:0:
283,384,75712,6,0,B|245:326|245:326|259:98,1,287.999991210938,2|10,0:2|0:2,0:0:0:0:
319,6,76141,1,2,0:0:0:0:
341,167,76284,1,2,0:2:0:0:
205,50,76427,1,2,0:0:0:0:
234,266,76569,1,10,0:2:0:0:
332,61,76712,1,0,0:0:0:0:
414,336,76855,6,0,B|475:282|475:282|446:62,1,287.999991210938,2|10,0:2|0:2,0:0:0:0:
319,6,77284,1,2,0:0:0:0:
293,220,77427,1,2,0:2:0:0:
410,45,77569,1,2,0:0:0:0:
391,263,77712,1,10,0:2:0:0:
287,90,77855,1,2,0:0:0:0:
287,332,77998,6,0,B|217:275|217:275|207:55,1,287.999991210938,2|10,0:2|0:2,0:0:0:0:
352,22,78427,1,2,0:0:0:0:
216,222,78569,1,2,0:2:0:0:
299,84,78712,1,2,0:0:0:0:
347,299,78855,1,10,0:2:0:0:
240,139,78998,1,0,0:0:0:0:
74,313,79141,6,0,B|141:349|141:349|369:294,1,287.999991210938,4|10,0:2|0:2,0:0:0:0:
446,178,79569,1,2,0:0:0:0:
299,84,79712,1,2,0:2:0:0:
368,237,79855,1,2,0:0:0:0:
378,38,79998,1,10,0:2:0:0:
356,169,80141,1,2,0:0:0:0:
464,20,80284,5,2,0:2:0:0:
467,252,80427,1,2,0:0:0:0:
420,94,80569,1,10,0:2:0:0:
390,311,80712,1,2,0:0:0:0:
258,92,80855,1,2,0:2:0:0:
476,167,80998,1,2,0:0:0:0:
312,274,81141,1,10,0:2:0:0:
352,79,81284,1,2,0:0:0:0:
97,115,81427,37,12,0:2:0:0:
341,200,81569,1,2,0:2:0:0:
74,122,81712,5,8,0:2:0:0:
349,191,81855,1,2,0:2:0:0:
51,133,81998,5,8,0:2:0:0:
358,183,82141,1,2,0:2:0:0:
29,148,82284,5,8,0:2:0:0:
364,173,82427,1,2,0:2:0:0:
23,272,82569,6,0,B|29:309|29:309|137:335,1,143.999995605469,8|2,0:2|0:2,0:0:0:0:
318,294,82855,1,2,0:2:0:0:
192,223,82998,1,4,0:3:0:0:
304,384,83141,1,2,0:2:0:0:
287,177,83284,1,2,0:2:0:0:
226,339,83427,1,8,0:2:0:0:
51,133,83569,1,8,0:2:0:0:
183,47,83712,38,0,B|317:40|317:40|445:131,1,287.999991210938,6|8,0:2|0:2,0:0:0:0:
433,332,84141,1,0,0:0:0:0:
503,125,84284,1,2,0:3:0:0:
381,255,84427,1,2,0:2:0:0:
436,32,84569,1,8,0:2:0:0:
492,279,84712,1,0,0:0:0:0:
401,113,84855,6,0,B|353:66|353:66|125:39,1,287.999991210938,2|8,0:2|0:2,0:0:0:0:
47,125,85284,1,2,0:2:0:0:
323,157,85427,1,2,0:3:0:0:
186,305,85569,1,2,0:2:0:0:
167,98,85712,1,8,0:2:0:0:
219,377,85855,1,0,0:0:0:0:
280,103,85998,6,0,B|323:156|323:156|292:374,1,287.999991210938,2|8,0:2|0:2,0:0:0:0:
444,346,86427,1,2,0:2:0:0:
441,121,86569,1,2,0:3:0:0:
369,363,86712,1,2,0:2:0:0:
344,71,86855,1,8,0:2:0:0:
444,346,86998,1,0,0:0:0:0:
232,224,87141,6,0,B|292:275|292:275|520:303,1,287.999991210938,2|8,0:2|0:2,0:0:0:0:
207,350,87569,1,2,0:2:0:0:
280,158,87712,1,2,0:3:0:0:
137,289,87855,1,2,0:2:0:0:
235,74,87998,1,8,0:2:0:0:
286,295,88141,1,0,0:0:0:0:
135,64,88284,1,6,0:2:0:0:
91,227,88427,5,2,0:2:0:0:
49,253,88498,1,2,0:2:0:0:
0,264,88569,1,10,0:2:0:0:
169,288,88712,5,2,0:2:0:0:
153,335,88784,1,2,0:2:0:0:
124,375,88855,1,10,0:2:0:0:
269,283,88998,5,2,0:2:0:0:
287,329,89069,1,2,0:2:0:0:
290,379,89141,1,10,0:2:0:0:
343,214,89284,53,2,0:2:0:0:
386,237,89355,1,2,0:2:0:0:
421,274,89427,1,10,0:2:0:0:
320,118,89569,5,2,0:2:0:0:
346,75,89641,1,2,0:2:0:0:
383,43,89712,1,10,0:2:0:0:
221,99,89855,5,2,0:2:0:0:
213,50,89927,1,2,0:2:0:0:
222,0,89998,1,10,0:2:0:0:
135,148,90141,5,2,0:2:0:0:
98,116,90212,1,2,0:2:0:0:
72,73,90284,1,10,0:2:0:0:
0,9,90569,5,2,0:2:0:0:
44,32,90640,1,0,0:0:0:0:
72,73,90711,1,2,0:2:0:0:
78,122,90783,1,0,0:0:0:0:
60,169,90854,1,8,0:2:0:0:
36,220,90926,1,0,0:0:0:0:
43,276,90997,1,2,0:2:0:0:
80,319,91069,1,0,0:0:0:0:
135,335,91140,1,8,0:2:0:0:
189,318,91212,1,0,0:0:0:0:
230,269,91283,1,8,0:2:0:0:
234,206,91355,1,0,0:0:0:0:
204,142,91426,5,2,0:2:0:0:
214,72,91497,1,0,0:0:0:0:
262,19,91569,1,8,0:2:0:0:
331,3,91640,1,0,0:0:0:0:
398,29,91712,1,8,0:2:0:0:
438,87,91783,1,8,0:2:0:0:
439,158,91854,1,8,0:2:0:0:
400,217,91926,1,8,0:2:0:0:
319,242,91998,6,0,P|236:208|220:180,2,95.9999970703126,8|0|0,0:2|0:0|0:0,0:0:0:0:
383,302,92284,5,4,0:3:0:0:
400,310,92379,5,0,0:0:0:0:
418,315,92474,5,0,0:0:0:0:
437,316,92569,5,8,0:3:0:0:
456,313,92664,5,0,0:0:0:0:
474,307,92760,5,0,0:0:0:0:
491,269,92855,6,0,P|420:337|329:311,1,143.999995605469,6|0,0:2|0:0,0:0:0:0:
255,188,93141,1,10,0:2:0:0:
19,269,93284,6,0,P|90:337|181:311,1,143.999995605469,2|0,0:2|0:0,0:0:0:0:
255,188,93569,1,2,0:2:0:0:
3,121,93712,6,0,L|170:136,1,143.999995605469,10|0,0:2|0:0,0:0:0:0:
369,267,93998,1,2,0:2:0:0:
509,121,94141,6,0,L|342:136,1,143.999995605469,2|8,0:2|0:2,0:0:0:0:
143,267,94427,1,2,0:2:0:0:
297,11,94569,6,0,L|294:201,1,143.999995605469,2|0,0:2|0:0,0:0:0:0:
215,373,94855,2,0,L|218:183,1,143.999995605469,10|0,0:2|0:0,0:0:0:0:
26,79,95141,6,0,P|63:122|190:111,1,143.999995605469,2|0,0:2|0:0,0:0:0:0:
378,27,95427,1,10,0:2:0:0:
486,79,95569,6,0,P|449:122|322:111,1,143.999995605469,2|0,0:2|0:0,0:0:0:0:
134,27,95855,1,2,0:2:0:0:
43,212,95998,6,0,B|74:305|199:283,1,143.999995605469,10|0,0:2|0:0,0:0:0:0:
371,185,96284,1,2,0:2:0:0:
469,212,96427,6,0,B|438:305|313:283,1,143.999995605469,2|8,0:2|0:2,0:0:0:0:
141,185,96712,1,2,0:2:0:0:
5,85,96855,6,0,L|164:87,1,143.999995605469,2|0,0:2|0:0,0:0:0:0:
507,299,97141,2,0,L|348:297,1,143.999995605469,10|0,0:2|0:0,0:0:0:0:
61,151,97427,6,0,L|56:324,1,143.999995605469,2|0,0:2|0:0,0:0:0:0:
255,377,97712,1,10,0:2:0:0:
451,233,97855,6,0,L|456:60,1,143.999995605469,2|0,0:2|0:0,0:0:0:0:
257,7,98141,1,2,0:2:0:0:
479,315,98284,6,0,L|311:323,1,143.999995605469,10|0,0:2|0:0,0:0:0:0:
128,230,98569,1,2,0:2:0:0:
33,315,98712,6,0,L|201:323,1,143.999995605469,2|8,0:2|0:2,0:0:0:0:
384,230,98998,1,0,0:0:0:0:
0,87,99141,6,0,B|71:60|151:108|151:108|226:147|294:100,1,287.999991210938,2|10,0:2|0:2,0:0:0:0:
512,297,99712,6,0,B|343:321|406:222|223:273,1,264.000008056641,2|8,0:2|0:2,0:0:0:0:
32,328,100141,6,0,B|89:313|155:350|155:350|217:383|310:343,1,240,2|0,0:2|0:0,0:0:0:0:
504,194,100569,2,0,B|436:175|449:224|360:191,1,120,8|0,0:2|0:0,0:0:0:0:
10,172,100855,6,0,P|162:125|135:68,1,269.999991760254,10|0,3:2|0:0,0:0:0:0:
79,126,101284,6,0,L|283:253,1,209.999993591309,10|0,3:2|0:0,0:0:0:0:
384,350,101712,6,0,L|241:264,1,161.999995056153,2|0,3:2|0:0,0:0:0:0:
37,237,101998,6,0,L|184:239,1,132.00000402832,6|0,0:2|0:0,0:0:0:0:
464,207,102284,1,10,0:2:0:0:
257,138,102427,1,2,0:0:0:0:
319,384,102569,6,0,L|347:217,1,132.00000402832,2|2,0:3|0:0,0:0:0:0:
361,26,102855,1,10,0:2:0:0:
496,173,102998,1,2,0:2:0:0:
126,119,103141,6,2,L|286:142,1,132.00000402832,2|0,0:2|0:0,0:0:0:0:
42,241,103427,1,10,0:2:0:0:
216,323,103569,6,2,L|376:346,1,132.00000402832,2|2,0:0|0:3,0:0:0:0:
365,154,103855,6,2,L|495:172,1,132.00000402832,2|10,0:0|0:2,0:0:0:0:
126,119,104141,1,2,0:0:0:0:
92,26,104284,6,0,B|76:68|76:68|74:208,1,132.00000402832,2|0,0:2|0:0,0:0:0:0:
116,352,104569,1,10,0:2:0:0:
249,260,104712,1,2,0:0:0:0:
189,25,104855,6,0,B|173:67|173:67|171:207,1,132.00000402832,2|2,0:3|0:2,0:0:0:0:
251,345,105069,6,0,B|267:303|267:303|269:163,1,132.00000402832,2|0,0:2|0:0,0:0:0:0:
282,64,105284,1,2,0:2:0:0:
423,348,105427,2,0,B|384:194|470:233|410:53,1,264.000008056641,2|10,0:2|0:2,0:0:0:0:
282,64,105855,1,2,0:2:0:0:
186,361,105998,2,0,B|147:207|233:246|173:66,1,264.000008056641,2|10,0:2|0:2,0:0:0:0:
90,13,106427,1,2,0:2:0:0:
107,185,106569,5,14,0:2:0:0:
100,219,106665,1,2,0:2:0:0:
101,254,106760,1,2,0:2:0:0:
112,287,106855,1,10,0:2:0:0:
131,317,106950,1,2,0:2:0:0:
156,341,107046,1,2,0:2:0:0:
230,312,107141,5,10,0:2:0:0:
261,353,107236,1,2,0:2:0:0:
306,380,107331,1,2,0:2:0:0:
358,388,107427,1,10,0:2:0:0:
409,376,107522,1,2,0:2:0:0:
451,344,107617,1,2,0:2:0:0:
422,268,107712,5,10,0:2:0:0:
400,210,107807,1,2,0:2:0:0:
401,149,107903,1,2,0:2:0:0:
424,92,107998,1,10,0:2:0:0:
467,49,108093,1,2,0:2:0:0:
512,24,108188,1,2,0:2:0:0:
510,114,108284,5,10,0:2:0:0:
430,150,108379,1,2,0:2:0:0:
344,145,108474,1,2,0:2:0:0:
269,100,108569,2,0,L|245:142,1,33.0000010070801,10|0,0:2|0:0,0:0:0:0:
224,26,108665,1,2,0:2:0:0:
137,16,108760,1,2,0:2:0:0:
72,75,108855,5,6,0:2:0:0:
275,255,108998,1,8,0:2:0:0:
29,166,109141,1,8,0:2:0:0:
269,100,109284,1,2,0:2:0:0:
90,325,109427,1,8,0:2:0:0:
224,26,109569,1,8,0:2:0:0:
192,306,109712,1,10,0:2:0:0:
63,72,109855,1,2,0:2:0:0:
275,255,109998,6,0,B|268:334|268:334|229:399,2,111.999996582031
200,133,110284,6,0,B|207:54|207:54|246:-11,2,111.999996582031
341,302,110569,5,8,0:2:0:0:
496,24,110784,1,8,0:2:0:0:
180,25,110998,1,8,0:2:0:0:
461,242,111141,5,6,0:2:0:0:
307,33,118569,5,0,0:0:0:0:
316,42,118998,1,0,3:0:0:0:
316,42,119069,1,0,3:0:0:0:
316,42,119141,1,8,3:2:0:0:
405,128,119284,1,4,3:0:0:0:
407,18,119427,5,2,3:2:0:0:
318,138,119569,1,2,3:2:0:0:
480,58,119712,1,2,2:0:0:0:
437,206,119855,1,0,0:0:0:0:
316,42,119998,1,2,2:0:0:0:
354,217,120141,1,8,0:2:0:0:
224,9,120284,6,0,B|225:59|225:59|211:99|211:99|212:183,1,132.00000402832,12|2,0:2|0:0,0:0:0:0:
243,379,120569,2,0,B|242:329|242:329|256:289|256:289|255:205,1,132.00000402832,2|0,0:3|0:0,0:0:0:0:
186,14,120855,2,0,B|187:64|187:64|173:104|173:104|174:188,1,132.00000402832,8|0,0:0|0:0,0:0:0:0:
205,384,121141,2,0,B|204:334|204:334|218:294|218:294|217:210,1,132.00000402832,2|0,0:3|3:0,0:0:0:0:
80,30,121427,5,8,0:0:0:0:
121,203,121569,1,10,0:0:0:0:
186,14,121712,2,0,L|231:157,1,132.00000402832,2|0,0:0|0:0,0:0:0:0:
280,297,121998,5,8,0:0:0:0:
308,62,122141,2,0,L|353:205,1,132.00000402832,2|2,0:0|0:3,0:0:0:0:
476,249,122427,1,2,0:0:0:0:
417,23,122569,6,0,P|417:111|484:178,1,132.00000402832,6|2,0:0|0:0,0:0:0:0:
403,361,122855,2,0,P|403:273|336:206,1,132.00000402832,2|2,0:3|0:0,0:0:0:0:
376,42,123141,2,0,P|376:130|443:197,1,132.00000402832,8|2,0:2|0:2,0:0:0:0:
362,380,123427,2,0,P|362:292|295:225,1,132.00000402832,2|0,0:3|3:0,0:0:0:0:
220,22,123712,5,8,0:2:0:0:
299,180,123855,1,8,0:2:0:0:
127,77,123998,2,0,P|142:152|185:216,1,132.00000402832,2|0,0:3|0:0,0:0:0:0:
286,310,124284,5,8,0:2:0:0:
62,213,124427,2,0,P|135:231|211:219,1,132.00000402832,2|2,0:0|0:3,0:0:0:0:
351,147,124712,1,2,0:0:0:0:
416,362,124855,6,0,B|406:308|406:308|427:216,1,132.00000402832,4|2,0:0|0:0,0:0:0:0:
358,17,125141,2,0,B|368:71|368:71|347:163,1,132.00000402832,2|2,0:3|0:0,0:0:0:0:
384,383,125427,2,0,B|374:329|374:329|395:237,1,132.00000402832,8|2,0:0|0:0,0:0:0:0:
326,38,125712,1,2,0:3:0:0:
326,214,125855,5,0,3:0:0:0:
326,214,125927,1,0,3:0:0:0:
326,214,125998,1,8,0:2:0:0:
262,112,126141,1,8,0:2:0:0:
258,352,126284,2,0,B|231:301|231:301|231:214,1,132.00000402832,2|0,0:3|0:0,0:0:0:0:
326,38,126569,1,8,0:0:0:0:
353,339,126712,2,0,B|326:288|326:288|326:201,1,132.00000402832,2|2,0:0|0:3,0:0:0:0:
430,37,126998,1,2,0:0:0:0:
430,37,127069,1,0,0:0:0:0:
430,37,127141,5,12,0:2:0:0:
461,208,127284,1,2,0:2:0:0:
306,24,127427,5,8,0:2:0:0:
376,278,127569,1,2,0:2:0:0:
195,37,127712,5,8,0:2:0:0:
300,334,127855,1,2,0:2:0:0:
98,41,127998,5,8,0:2:0:0:
212,384,128141,1,2,0:2:0:0:
212,384,128212,1,0,0:0:0:0:
213,384,128284,2,0,L|168:251,1,132.00000402832,6|0,0:2|3:0,0:0:0:0:
98,41,128569,6,0,B|200:60|200:60|232:78|232:78|270:70|270:70|440:99,1,288,2|0,0:2|0:0,0:0:0:0:
476,67,128855,2,0,P|376:190|279:62,1,323.999990112305,2|0,0:2|0:0,0:0:0:0:
446,244,129141,2,0,B|337:284|256:207|256:207|184:130|79:173,1,360,2|0,0:2|0:0,0:0:0:0:
0,359,129427,6,0,B|147:375|147:375|216:342|216:342|407:347,1,396.000012084961,6|0,0:2|0:0,0:0:0:0:
464,333,129712,5,8,0:2:0:0:
349,88,129855,1,2,0:0:0:0:
390,279,129998,1,2,0:3:0:0:
451,47,130141,1,2,0:0:0:0:
472,255,130284,1,8,0:2:0:0:
431,134,130427,1,2,0:0:0:0:
398,361,130569,1,2,0:3:0:0:
501,184,130712,1,0,0:0:0:0:
264,187,130855,6,0,P|317:317|348:178,1,360,8|0,0:2|0:0,0:0:0:0:
63,252,131141,2,0,B|171:275|171:275|188:334|237:379|298:385|298:385|359:391|414:361|432:321,1,396.000012084961,2|0,0:3|0:0,0:0:0:0:
364,114,131427,2,0,P|182:183|248:370,1,431.999986816407,8|0,0:2|0:0,0:0:0:0:
439,297,131712,2,0,P|366:116|170:222,1,467.999978576661,2|0,0:3|0:0,0:0:0:0:
314,242,131998,1,8,0:2:0:0:
238,27,132141,1,2,0:2:0:0:
20,292,132284,6,0,L|-5:361,1,45.0000017166138,2|0,0:3|0:0,0:0:0:0:
115,125,132427,2,0,L|90:193,1,45.0000017166138,2|0,0:2|0:0,0:0:0:0:
170,306,132569,2,0,L|147:367,1,45.0000017166138,8|0,0:2|0:0,0:0:0:0:
295,88,132712,2,0,L|272:149,1,45.0000017166138,2|0,0:2|0:0,0:0:0:0:
288,334,132855,1,2,0:3:0:0:
221,159,132998,1,0,0:0:0:0:
497,193,133141,6,0,B|385:174|346:250|346:250|254:197|229:304|119:181,1,396.000012084961,8|0,0:2|0:0,0:0:0:0:
214,40,133427,2,0,B|339:107|347:250|347:250|381:176|503:192,1,431.999986816407,2|0,0:3|0:0,0:0:0:0:
317,364,133712,6,0,P|336:185|54:24,1,467.999978576661,8|0,0:2|0:0,0:0:0:0:
142,205,133998,2,0,P|319:228|239:-25,1,503.999984619141,4|0,0:0|0:0,0:0:0:0:
128,17,134284,5,8,0:0:0:0:
389,105,134427,1,2,0:0:0:0:
54,131,134569,1,2,0:3:0:0:
290,0,134712,1,2,0:0:0:0:
229,309,134855,1,8,0:2:0:0:
208,44,134998,1,2,0:0:0:0:
381,266,135141,1,2,0:3:0:0:
153,109,135284,1,2,0:0:0:0:
329,353,135427,6,0,P|312:193|481:280,1,431.999986816407,8|0,0:2|0:0,0:0:0:0:
381,266,135712,2,0,P|327:132|517:162,1,396.000012084961,2|0,0:3|0:0,0:0:0:0:
419,175,135998,2,0,P|287:104|452:14,1,360,8|0,0:0|0:0,0:0:0:0:
385,84,136284,2,0,B|293:75|225:118|225:118|158:162|47:120,1,323.999990112305,2|0,0:3|0:0,0:0:0:0:
21,52,136569,5,8,0:2:0:0:
213,222,136712,1,2,0:2:0:0:
143,23,136855,1,2,0:3:0:0:
105,281,136998,1,2,0:2:0:0:
256,43,137141,1,8,0:2:0:0:
281,323,137284,1,2,0:2:0:0:
176,124,137427,1,2,0:3:0:0:
188,328,137569,1,0,0:0:0:0:
73,128,137712,6,0,P|262:182|235:39,1,323.999990112305,8|0,0:2|0:0,0:0:0:0:
176,124,137998,2,0,B|72:132|72:132|86:187|126:266|257:205,1,288,2|0,0:3|0:0,0:0:0:0:
279,120,138284,2,0,P|172:20|72:127,1,251.999992309571,8|0,0:2|0:0,0:0:0:0:
176,124,138569,2,0,B|319:232|319:232|292:164,1,215.999993408203,4|0,0:0|0:0,0:0:0:0:
279,120,138855,5,8,0:2:0:0:
299,303,138998,1,2,0:0:0:0:
205,206,139141,1,2,0:3:0:0:
399,277,139284,1,2,0:0:0:0:
379,111,139427,1,8,0:2:0:0:
305,197,139569,1,2,0:0:0:0:
325,23,139712,1,2,0:3:0:0:
279,120,139855,1,0,0:0:0:0:
112,25,139998,6,0,B|209:42|209:42|337:20,1,215.999993408203,8|0,0:2|0:0,0:0:0:0:
279,120,140284,2,0,B|209:136|209:136|27:100,1,233.999989288331,2|0,0:3|0:0,0:0:0:0:
103,211,140569,2,0,B|209:233|209:233|368:190,1,251.999992309571,8|0,0:2|0:0,0:0:0:0:
503,116,140855,2,0,B|412:117|412:117|386:102|386:102|357:117|357:117|266:120,1,233.999989288331,6|0,0:2|0:0,0:0:0:0:
170,131,141141,5,8,0:2:0:0:
347,195,141284,1,2,0:2:0:0:
74,287,141427,2,0,B|164:285|164:285|191:301|191:301|219:285|219:285|310:282,1,233.999989288331,2|0,0:3|0:0,0:0:0:0:
407,272,141712,1,8,0:2:0:0:
208,197,141855,1,2,0:2:0:0:
502,134,141998,6,0,B|437:130|437:130|382:157|339:127|339:127|266:123,1,233.999989288331,6|0,0:2|0:0,0:0:0:0:
83,42,142284,2,0,L|242:48,1,155.999992858887,8|2,0:2|0:0,0:0:0:0:
389,60,142569,1,2,0:3:0:0:
88,186,142712,2,0,L|247:192,1,155.999992858887,2|8,0:0|0:2,0:0:0:0:
438,243,142998,5,2,0:0:0:0:
460,248,143069,1,0,0:0:0:0:
483,253,143140,1,4,0:2:0:0:
438,141,143284,5,2,0:2:0:0:
460,135,143355,1,2,0:2:0:0:
483,130,143426,1,10,0:2:0:0:
309,254,143569,5,2,0:2:0:0:
333,264,143640,1,2,0:2:0:0:
356,274,143711,1,10,0:2:0:0:
309,151,143855,5,2,0:2:0:0:
332,141,143926,1,2,0:2:0:0:
356,130,143997,1,10,0:2:0:0:
169,260,144141,5,2,0:2:0:0:
196,276,144212,1,2,0:2:0:0:
221,292,144283,1,10,0:2:0:0:
170,144,144427,5,2,0:2:0:0:
196,128,144498,1,2,0:2:0:0:
221,111,144569,1,10,0:2:0:0:
48,261,144712,5,2,0:2:0:0:
73,282,144783,1,2,0:2:0:0:
98,306,144854,1,10,0:2:0:0:
48,143,144998,5,2,0:2:0:0:
72,120,145069,1,2,0:2:0:0:
98,97,145140,1,10,0:2:0:0:
7,203,145284,5,2,0:2:0:0:
84,203,145355,1,0,0:0:0:0:
162,204,145427,2,0,P|218:200|275:224,2,103.999995239258,6|2|2,0:2|0:2|0:2,0:0:0:0:
235,90,145712,2,0,P|285:114|322:163,2,103.999995239258,2|2|2,0:2|0:2|0:2,0:0:0:0:
363,52,145998,2,0,P|394:98|402:159,2,103.999995239258,2|2|2,0:2|0:2|0:2,0:0:0:0:
506,82,146284,2,0,P|510:138|486:195,2,103.999995239258,6|2|2,0:2|0:2|0:2,0:0:0:0:
442,16,146569,1,2,0:2:0:0:
309,202,146712,1,0,0:0:0:0:
424,340,146855,6,0,B|448:245|400:188|400:188|402:227|369:272,1,233.999989288331,2|0,0:2|0:0,0:0:0:0:
314,327,147141,1,6,0:2:0:0:
277,266,147236,1,0,0:0:0:0:
309,202,147331,1,0,0:0:0:0:
332,159,147427,1,2,0:2:0:0:
338,136,147522,1,0,0:0:0:0:
335,124,147617,1,0,0:0:0:0:
331,113,147712,2,0,P|205:133|263:-7,1,270.000010299683,4|0,0:2|0:0,0:0:0:0:
279,26,147998,5,10,0:2:0:0:
433,252,148141,1,2,0:2:0:0:
161,183,148284,1,2,0:3:0:0:
424,110,148427,1,2,0:2:0:0:
263,309,148569,1,10,0:2:0:0:
342,68,148712,1,2,0:2:0:0:
384,294,148855,1,2,0:3:0:0:
193,131,148998,1,0,0:0:0:0:
166,384,149141,6,0,B|136:306|180:228|180:228|90:214|84:84,1,288,10|0,0:2|0:0,0:0:0:0:
30,320,149427,2,0,B|149:302|178:227|178:227|248:304|375:231,1,323.999990112305,0|0,0:3|0:0,0:0:0:0:
93,146,149712,2,0,B|119:221|177:227|177:227|258:303|359:234|359:234|405:235,1,360,10|0,0:2|0:0,0:0:0:0:
30,320,149998,2,0,B|149:302|178:227|178:227|241:68|440:106,1,396.000012084961,2|0,0:3|0:0,0:0:0:0:
482,96,150284,1,10,0:2:0:0:
307,261,150427,1,2,0:2:0:0:
93,146,150569,6,0,L|67:75,1,48,2|0,0:3|0:0,0:0:0:0:
190,317,150712,2,0,L|164:247,1,48,2|0,0:2|0:0,0:0:0:0:
278,143,150855,2,0,L|254:80,1,48,10|0,0:2|0:0,0:0:0:0:
398,350,150998,2,0,L|374:287,1,48,2|0,0:2|0:0,0:0:0:0:
345,34,151141,1,2,0:3:0:0:
307,261,151284,1,0,0:0:0:0:
216,20,151427,6,0,P|338:127|334:19,1,360,10|0,0:2|0:0,0:0:0:0:
243,207,151712,2,0,P|381:103|268:83,1,396.000012084961,2|0,0:3|0:0,0:0:0:0:
496,0,151998,2,0,B|464:70|345:35|345:35|377:89|350:201|245:177|184:158|179:75|215:31,1,431.999986816407,10|0,0:2|0:0,0:0:0:0:
271,80,152284,2,0,P|421:189|240:227,1,467.999978576661,4|0,0:0|0:0,0:0:0:0:
79,278,152569,5,10,0:2:0:0:
222,13,152712,1,2,0:0:0:0:
201,359,152855,1,2,0:3:0:0:
67,67,152998,1,2,0:0:0:0:
354,233,153141,1,10,0:2:0:0:
8,209,153284,1,2,0:0:0:0:
358,114,153427,1,2,0:3:0:0:
78,329,153569,1,0,0:0:0:0:
270,94,153712,6,0,P|377:281|228:139,1,503.999984619141,10|0,0:0|0:0,0:0:0:0:
170,107,153998,2,0,B|240:136|280:86|294:48|325:105|370:39|406:114|446:124|436:193|427:221|427:221|404:293|306:296,1,467.999978576661,2|0,0:0|0:0,0:0:0:0:
88,76,154284,2,0,B|114:75|145:95|145:95|212:143|272:83|308:81|308:81|339:75|378:81|424:120|433:145|432:203,1,431.999986816407,10|0,0:0|0:0,0:0:0:0:
1,81,154569,2,0,B|43:64|95:75|95:75|166:85|186:161|252:124|269:52|341:67|383:78|401:127,1,396.000012084961,6|0,0:0|0:0,0:0:0:0:
419,211,154855,5,10,0:2:0:0:
218,194,154998,1,2,0:0:0:0:
329,30,155141,1,2,0:3:0:0:
304,275,155284,1,2,0:0:0:0:
408,83,155427,1,10,0:2:0:0:
399,358,155569,1,2,0:0:0:0:
277,113,155712,1,2,0:3:0:0:
494,258,155855,1,0,0:0:0:0:
77,266,155998,6,0,P|260:223|470:356,1,431.999986816407,10|0,0:0|0:0,0:0:0:0:
453,190,156284,2,0,B|340:288|251:174|136:227|69:270,1,396.000012084961,2|0,0:3|0:0,0:0:0:0:
36,185,156569,2,0,B|146:326|231:96|296:323|461:184,1,360,10|0,0:2|0:0,0:0:0:0:
504,75,156855,2,0,B|333:64|394:208|166:110,1,323.999990112305,6|0,0:2|0:0,0:0:0:0:
85,60,157141,5,8,0:2:0:0:
272,34,157284,1,2,0:2:0:0:
155,244,157427,1,2,0:3:0:0:
169,48,157569,1,2,0:2:0:0:
290,237,157712,1,8,0:2:0:0:
83,150,157855,1,2,0:2:0:0:
292,148,157998,1,4,0:2:0:0:
169,340,158141,1,0,0:0:0:0:
162,8,158284,6,0,B|251:34|329:-12|329:-12|417:55|367:187,1,323.999990112305,8|0,0:2|0:0,0:0:0:0:
411,223,158569,2,0,B|323:192|287:108|287:108|176:110|137:244,1,360,2|0,0:3|0:0,0:0:0:0:
88,292,158855,2,0,B|187:295|257:222|257:222|370:269|358:385,1,396.000012084961,8|0,0:2|0:0,0:0:0:0:
303,379,159141,5,6,0:2:0:0:
292,345,159236,1,0,0:0:0:0:
290,310,159331,1,0,0:0:0:0:
297,275,159426,1,8,0:0:0:0:
311,243,159521,1,0,0:0:0:0:
333,216,159617,1,0,0:0:0:0:
410,211,159712,5,2,0:2:0:0:
415,158,159807,1,0,0:0:0:0:
403,107,159902,1,0,0:0:0:0:
374,63,159997,1,8,0:0:0:0:
332,31,160092,1,0,0:0:0:0:
282,15,160188,1,0,0:0:0:0:
228,49,160283,5,12,0:2:0:0:
347,282,160427,1,2,0:2:0:0:
36,202,160569,1,8,0:2:0:0:
332,120,160711,1,10,0:2:0:0:
106,348,160854,1,0,0:0:0:0:
139,60,160997,1,8,0:2:0:0:
240,303,161140,1,4,0:3:0:0:
238,24,161283,1,4,0:3:0:0:
109,252,161427,6,0,P|164:157|129:47,1,215.999993408203,6|0,0:2|0:0,0:0:0:0:
42,164,161712,1,8,0:2:0:0:
261,91,161855,1,0,0:0:0:0:
162,346,161998,1,2,0:3:0:0:
147,131,162141,1,0,0:0:0:0:
299,294,162284,1,8,0:2:0:0:
130,234,162427,1,0,0:0:0:0:
270,23,162569,6,0,B|265:91|265:91|246:124|246:124|258:165|258:165|250:279,1,215.999993408203,2|0,0:2|0:0,0:0:0:0:
366,352,162855,1,8,0:2:0:0:
397,0,162998,2,0,B|392:68|392:68|373:101|373:101|385:142|385:142|377:256,1,215.999993408203,2|2,0:2|0:3,0:0:0:0:
230,330,163284,1,2,0:2:0:0:
494,269,163427,1,10,0:2:0:0:
253,231,163569,1,2,0:2:0:0:
380,208,163712,6,0,P|486:78|443:-18,1,215.999993408203,2|0,0:2|0:0,0:0:0:0:
314,44,163998,1,8,0:2:0:0:
499,151,164141,1,0,0:0:0:0:
270,139,164284,1,2,0:3:0:0:
455,284,164427,1,0,0:0:0:0:
396,58,164569,1,8,0:2:0:0:
316,281,164712,1,0,0:0:0:0:
185,41,164855,6,0,B|317:10|249:103|500:38,1,215.999993408203,2|0,0:2|0:0,0:0:0:0:
511,178,165141,1,10,0:2:0:0:
105,170,165284,6,0,B|237:139|169:232|420:167,1,215.999993408203,2|2,0:2|0:3,0:0:0:0:
431,307,165570,1,2,0:2:0:0:
340,119,165712,1,10,0:2:0:0:
280,319,165855,1,2,0:2:0:0:
498,153,165998,5,14,0:2:0:0:
157,117,166141,1,2,0:2:0:0:
489,79,166284,5,8,0:2:0:0:
166,199,166427,1,2,0:2:0:0:
490,227,166569,5,8,0:2:0:0:
155,44,166712,1,2,0:2:0:0:
228,356,166855,5,8,0:2:0:0:
369,52,166998,1,2,0:2:0:0:
369,52,167069,1,2,0:2:0:0:
369,52,167141,5,10,0:2:0:0:
50,167,167284,1,0,0:0:0:0:
397,256,167427,5,10,0:2:0:0:
106,75,167569,1,2,0:2:0:0:
438,133,167712,5,8,0:2:0:0:
90,275,167855,1,2,0:2:0:0:
365,341,167998,5,10,0:2:0:0:
195,71,168141,1,2,0:2:0:0:
488,204,168284,5,2,0:2:0:0:
33,185,168427,1,4,0:2:0:0:
61,65,168712,5,2,0:2:0:0:
440,317,168855,1,4,0:2:0:0:
107,358,169141,5,2,0:2:0:0:
414,21,169284,1,4,0:2:0:0:
97,21,169569,5,2,0:2:0:0:
404,358,169712,1,4,0:2:0:0:
256,0,169998,5,0,3:0:0:0:
284,40,170069,1,0,3:0:0:0:
294,89,170140,1,0,3:0:0:0:
284,138,170212,1,0,3:0:0:0:
264,184,170283,1,0,3:0:0:0:
241,229,170355,1,0,3:0:0:0:
228,278,170426,1,0,3:0:0:0:
231,328,170498,1,0,3:0:0:0:
253,373,170569,1,6,3:2:0:0:
