osu file format v14

[General]
AudioFilename: audio.mp3
AudioLeadIn: 0
PreviewTime: 92784
Countdown: 0
SampleSet: None
StackLeniency: 0.3
Mode: 0
LetterboxInBreaks: 0
WidescreenStoryboard: 0

[Editor]
Bookmarks: 12545,33427,56284,74569,92855,106569,120284,133998,147712,161427,170569,181118
DistanceSpacing: 1.9
BeatDivisor: 4
GridSize: 32
TimelineZoom: 3.999998

[Metadata]
Title:- FALLEN -
TitleUnicode:- ΓΛLLΞИ -
Artist:Kaneko Chiharu
ArtistUnicode:かねこちはる
Creator:CyberX
Version:Loathsome
Source:
Tags:Kuro Fuyusaki
BeatmapID:1609290
BeatmapSetID:765403

[Difficulty]
HPDrainRate:6
CircleSize:4
OverallDifficulty:8
ApproachRate:10
SliderMultiplier:3.39999990463257
SliderTickRate:1

[Events]
//Background and Video events
0,0,"29693146_1846429238725108_326728228_o.png",0,0
//Break Periods
2,115712,118548
//Storyboard Layer 0 (Background)
//Storyboard Layer 1 (Fail)
//Storyboard Layer 2 (Pass)
//Storyboard Layer 3 (Foreground)
//Storyboard Sound Samples

[TimingPoints]
1974,333.333333333333,4,2,1,75,1,0
1974,-200,4,2,1,75,0,0
3223,-200,4,2,1,75,0,0
3307,-200,4,2,1,75,0,0
4557,-200,4,2,1,75,0,0
4640,-200,4,2,1,75,0,0
5890,-200,4,2,1,75,0,0
5973,319.148936170213,4,2,1,75,1,0
5973,-200,4,2,1,75,0,0
7169,-200,4,2,1,75,0,0
7249,333.333333333333,4,2,1,75,1,0
7249,-200,4,2,1,75,0,0
9248,383.386581469649,4,2,1,75,1,0
10014,323.450134770889,4,2,1,75,1,0
11307,309.278350515464,4,2,1,75,1,0
12545,327.868852459016,4,2,1,75,1,0
12545,-200,4,2,1,75,0,0
16479,334.261838440111,4,2,1,75,1,0
17816,327.868852459016,4,2,1,75,1,0
17816,-200,4,2,1,75,0,0
19127,-100,4,2,1,75,0,0
20438,-200,4,2,1,75,0,0
21750,342.857142857143,4,2,1,75,1,0
22264,304.568527918782,4,2,1,75,1,0
22568,338.983050847458,4,2,1,75,1,0
23077,329.67032967033,4,2,1,75,1,0
30661,301.507537688442,4,2,1,75,1,0
30962,337.078651685393,4,2,5,75,1,0
31636,582.52427184466,4,2,1,75,1,0
31636,-200,4,2,1,75,0,0
32218,609.137055837563,4,2,1,75,1,0
32218,-142.857142857143,4,2,1,75,0,0
32827,600,4,2,1,75,1,0
33427,285.714285714286,4,2,1,75,1,0
33427,-100,4,2,1,75,0,1
33641,-100,4,2,1,75,0,0
47141,-200,4,2,1,75,0,0
49427,-133.333333333333,4,2,1,75,0,0
49712,-200,4,2,1,75,0,0
51712,-100,4,2,1,75,0,0
51998,-200,4,2,1,75,0,0
56284,-142.857142857143,4,2,1,75,0,0
74569,-100,4,2,1,75,0,0
92855,-50,4,2,1,75,0,0
99712,-100,4,2,1,75,0,0
101284,-66.6666666666667,4,2,1,75,0,0
101712,-100,4,2,1,75,0,0
101998,-76.9230769230769,4,2,1,75,0,0
102284,-100,4,2,1,75,0,0
115712,-200,4,2,1,75,0,0
118998,-166.666666666667,4,2,1,75,0,0
120284,-142.857142857143,4,2,1,75,0,0
127141,-100,4,2,1,75,0,0
128284,-83.3333333333333,4,2,1,75,0,0
128569,-62.5,4,2,1,75,0,0
129427,-100,4,2,1,75,0,1
129641,-100,4,2,1,75,0,0
129712,-100,4,2,1,75,0,0
151998,-76.9230769230769,4,2,1,75,0,0
152284,-100,4,2,1,75,0,0
170569,329.67032967033,4,2,1,75,1,0
170569,-200,4,2,1,75,0,0
175843,-333.333333333333,4,2,1,75,0,0

[Colours]
Combo1 : 0,255,255
Combo2 : 255,255,255
Combo3 : 192,192,192
Combo4 : 255,255,0
Combo5 : 255,128,0
Combo6 : 255,0,128
Combo7 : 255,0,255
Combo8 : 0,128,255

[HitObjects]
143,30,1974,6,0,B|141:83|104:106|104:106|69:129|65:173|65:173|108:118|179:96|282:120|290:291|225:325|139:336|77:324|50:258,1,637.499982118607,2|0,0:0|1:0,0:0:0:0:
52,288,3307,6,0,B|123:364|236:291|236:291|334:216|452:313|452:313|389:213|422:113,1,637.499982118607,2|0,0:0|1:0,0:0:0:0:
418,124,4640,6,0,B|445:126|463:137|463:137|504:27|379:0|315:23|259:121|298:226|401:224|419:286|419:286|345:238|275:266,1,637.499982118607,2|0,0:0|1:0,0:0:0:0:
302,257,5973,6,0,B|342:262|373:280|373:280|254:258|126:344|126:344|214:239|179:153|179:153|183:198|169:248,1,637.499982118607,2|0,0:0|1:0,0:0:0:0:
78,248,7249,6,0,B|127:121|26:43|26:43|-31:103|-17:214|-17:214|62:158|112:138|147:160|165:271|227:280|330:254|370:194|370:88|335:27|242:18|209:29|209:29|218:24|285:17|358:50|387:116|387:116|423:66|481:33|481:33|398:200|534:222|445:359|445:359|432:319|392:279|392:279|384:344|331:374|289:367|289:367|215:330|270:253|341:304|289:367|289:367|248:379|157:341|82:338|5:364|5:364|34:344|43:333|43:333|88:347|155:328|158:262,1,2592.49992728233,2|0,0:0|0:0,0:0:0:0:
231,128,12545,6,0,L|453:118,1,212.499994039536,2|0,0:0|0:0,0:0:0:0:
461,212,13036,2,0,P|514:182|509:57,1,169.999995231629,2|0,0:0|0:0,0:0:0:0:
440,21,13528,2,0,P|392:32|363:62,1,84.9999976158143,2|0,0:0|0:0,0:0:0:0:
328,227,13856,6,0,L|175:233,1,127.499996423721,2|0,0:0|0:0,0:0:0:0:
42,208,14184,2,0,L|143:203,1,84.9999976158143,2|0,0:0|0:0,0:0:0:0:
220,338,14512,6,0,L|373:344,1,127.499996423721,2|0,0:0|0:0,0:0:0:0:
506,319,14840,2,0,L|405:314,1,84.9999976158143,2|0,0:0|0:0,0:0:0:0:
24,364,15167,6,0,P|105:285|134:357,1,212.499994039536,2|0,0:0|0:0,0:0:0:0:
239,384,15659,2,0,P|235:304|175:225,1,169.999995231629,2|0,0:0|0:0,0:0:0:0:
20,214,16151,2,0,P|61:204|104:205,1,84.9999976158143,2|0,0:0|0:0,0:0:0:0:
131,102,16479,6,0,B|222:95|222:95|256:79|256:79|295:89|295:89|393:84,1,254.999992847443,2|0,0:0|0:0,0:0:0:0:
460,151,16813,2,0,B|484:72|484:72|429:-11,1,169.999995231629,2|0,0:0|0:0,0:0:0:0:
305,21,17147,2,0,B|281:100|281:100|336:183,1,169.999995231629,2|0,0:0|0:0,0:0:0:0:
383,334,17481,2,0,P|260:298|124:296,1,254.999992847443,2|0,0:0|0:0,0:0:0:0:
271,375,17816,6,0,B|250:313|250:313|238:151,1,212.499994039536,2|0,0:0|0:0,0:0:0:0:
1,199,18307,2,0,L|189:217,1,169.999995231629,2|0,0:0|0:0,0:0:0:0:
496,185,18799,2,0,L|355:200,1,127.499996423721,2|0,0:0|0:0,0:0:0:0:
424,336,19127,6,0,P|371:197|382:91,1,254.999992847443,2|0,0:0|0:0,0:0:0:0:
274,62,19455,2,0,P|339:3|429:-5,1,169.999995231629,2|0,0:0|0:0,0:0:0:0:
276,321,19783,2,0,P|231:245|242:155,1,169.999995231629,2|0,0:0|0:0,0:0:0:0:
172,80,20111,2,0,L|-40:72,1,169.999995231629,2|0,0:0|0:0,0:0:0:0:
136,216,20438,6,0,B|88:169|88:169|110:317,1,212.499994039536,2|0,0:0|0:0,0:0:0:0:
241,331,20930,2,0,P|256:253|225:142,1,169.999995231629,2|0,0:0|0:0,0:0:0:0:
11,294,21422,2,0,P|14:336|33:375,1,84.9999976158143,2|0,0:0|0:0,0:0:0:0:
435,355,21750,6,0,B|484:257|484:257|411:106,1,254.999992847443,2|0,0:0|0:0,0:0:0:0:
319,273,22092,2,0,L|337:35,1,169.999995231629,2|0,0:0|0:0,0:0:0:0:
312,353,22416,1,0,0:0:0:0:
426,41,22568,5,2,0:0:0:0:
423,83,22652,1,2,0:0:0:0:
420,126,22737,1,10,0:0:0:0:
88,40,23077,6,0,L|80:160,1,84.9999976158143
31,205,23241,5,0,0:0:0:0:
47,207,23571,1,0,0:0:0:0:
64,208,23901,1,0,0:0:0:0:
81,209,24230,1,0,0:0:0:0:
98,210,24560,1,0,0:0:0:0:
115,211,24890,1,0,0:0:0:0:
88,40,25055,6,0,L|80:160,1,84.9999976158143
82,208,25219,5,0,0:0:0:0:
98,210,25302,1,0,0:0:0:0:
115,211,25384,1,8,0:0:0:0:
87,40,25714,5,0,0:0:0:0:
132,212,25879,5,0,0:0:0:0:
149,213,26208,1,0,0:0:0:0:
166,215,26538,1,0,0:0:0:0:
183,216,26868,1,0,0:0:0:0:
200,217,27197,1,0,0:0:0:0:
217,219,27527,1,0,0:0:0:0:
188,47,27692,6,0,L|180:167,1,84.9999976158143,0|0,0:0|0:0,0:0:0:0:
184,216,27856,5,0,0:0:0:0:
200,217,27939,1,0,0:0:0:0:
217,219,28021,1,8,0:0:0:0:
187,47,28351,5,0,0:0:0:0:
234,220,28516,5,0,0:0:0:0:
251,221,28846,1,0,0:0:0:0:
268,222,29175,1,0,0:0:0:0:
285,223,29505,1,0,0:0:0:0:
301,225,29835,1,0,0:0:0:0:
318,226,30164,1,0,0:0:0:0:
290,54,30329,6,0,L|282:174,1,84.9999976158143,0|0,0:0|0:0,0:0:0:0:
488,239,30494,5,0,0:0:0:0:
471,238,30577,1,0,0:0:0:0:
454,236,30659,1,0,0:0:0:0:
437,235,30736,1,0,0:0:0:0:
420,234,30811,1,0,0:0:0:0:
403,232,30887,1,0,0:0:0:0:
273,307,30962,5,6,0:0:0:0:
200,266,31636,6,0,P|262:231|330:227,1,127.499996423721,2|0,0:0|1:0,0:0:0:0:
357,343,32218,6,0,P|295:378|183:370,1,178.499989545823,2|0,0:0|1:0,0:0:0:0:
273,307,32827,6,0,B|252:108|252:108|269:49,1,254.999992847443,2|0,0:0|1:0,0:0:0:0:
68,156,33427,6,0,L|328:140,1,254.999992847443,12|0,0:0|1:0,0:0:0:0:
387,238,33712,2,0,L|107:254,1,254.999992847443,0|0,0:0|1:0,0:0:0:0:
67,156,33998,2,0,P|181:127|228:235,1,254.999992847443,8|0,0:0|1:0,0:0:0:0:
191,337,34284,2,0,P|77:366|30:258,1,254.999992847443,0|0,0:0|1:0,0:0:0:0:
142,209,34569,2,0,L|411:193,1,254.999992847443,8|0,0:0|1:0,0:0:0:0:
475,141,34855,5,0,0:0:0:0:
271,337,34998,1,0,0:0:0:0:
38,85,35141,2,0,B|218:102|218:102|290:76,1,254.999992847443,8|0,0:0|1:0,0:0:0:0:
397,222,35427,2,0,P|483:167|387:127,1,254.999992847443,0|0,0:0|1:0,0:0:0:0:
287,77,35712,6,0,L|296:331,1,254.999992847443,8|0,0:0|1:0,0:0:0:0:
396,381,35998,2,0,L|386:126,1,254.999992847443,0|0,0:0|1:0,0:0:0:0:
270,64,36284,6,2,L|263:188,1,84.9999976158143,10|2,0:0|0:0,0:0:0:0:
253,64,36427,2,2,L|246:188,1,84.9999976158143,2|2,0:0|0:0,0:0:0:0:
65,179,36569,6,2,L|61:95,1,84.9999976158143,2|2,0:0|0:0,0:0:0:0:
82,179,36712,2,2,L|78:95,1,84.9999976158143,2|2,0:0|0:0,0:0:0:0:
154,320,36855,6,0,B|249:238|249:238|354:312,1,254.999992847443,8|0,0:0|1:0,0:0:0:0:
296,377,37141,1,0,0:0:0:0:
160,177,37284,1,0,0:0:0:0:
31,354,37427,5,8,0:0:0:0:
249,238,37569,1,0,0:0:0:0:
0,75,37712,2,0,B|51:94|51:94|251:75,1,254.999992847443,0|0,0:0|1:0,0:0:0:0:
503,249,37998,6,0,L|238:237,1,254.999992847443,12|0,0:0|1:0,0:0:0:0:
199,162,38284,2,0,L|212:361,1,169.999995231629,0|0,0:0|1:0,0:0:0:0:
373,50,38569,2,0,L|352:304,1,254.999992847443,8|0,0:0|1:0,0:0:0:0:
371,318,38855,2,0,L|391:63,1,254.999992847443,0|0,0:0|1:0,0:0:0:0:
214,58,39141,2,0,B|162:175|162:175|240:297,1,254.999992847443,8|0,0:0|1:0,0:0:0:0:
296,364,39427,6,0,P|229:283|199:383,1,254.999992847443,0|0,0:0|1:0,0:0:0:0:
97,248,39712,2,0,P|49:340|152:329,1,254.999992847443,8|0,0:0|1:0,0:0:0:0:
224,229,39998,2,0,L|213:60,1,169.999995231629,0|0,0:0|1:0,0:0:0:0:
44,179,40284,6,0,B|138:131|138:131|302:178,1,254.999992847443,8|0,0:0|1:0,0:0:0:0:
321,289,40569,2,0,L|303:34,1,254.999992847443,0|0,0:0|1:0,0:0:0:0:
210,18,40855,2,0,L|227:272,1,254.999992847443,8|0,0:0|1:0,0:0:0:0:
319,290,41141,2,0,B|387:231|387:231|220:274,1,254.999992847443,0|0,0:0|1:0,0:0:0:0:
138,312,41427,2,0,L|392:323,1,254.999992847443,8|0,0:0|1:0,0:0:0:0:
272,342,41712,6,0,L|10:369,1,254.999992847443,0|0,0:0|1:0,0:0:0:0:
11,284,41998,1,8,0:0:0:0:
260,171,42141,1,0,0:0:0:0:
7,199,42284,2,0,L|260:172,1,254.999992847443,0|0,0:0|1:0,0:0:0:0:
464,118,42569,6,0,B|429:56|429:56|405:241,1,254.999992847443,12|0,0:0|1:0,0:0:0:0:
434,321,42855,2,0,P|331:283|366:159,1,254.999992847443,0|0,0:0|1:0,0:0:0:0:
464,118,43141,2,0,B|362:164|362:164|222:130,1,254.999992847443,8|0,0:0|1:0,0:0:0:0:
265,40,43427,2,0,L|10:52,1,254.999992847443,0|0,0:0|1:0,0:0:0:0:
0,142,43712,2,0,L|254:129,1,254.999992847443,8|0,0:0|1:0,0:0:0:0:
400,158,43998,6,0,P|316:106|250:132,1,169.999995231629,0|0,0:0|1:0,0:0:0:0:
223,309,44284,2,0,P|306:360|372:334,1,169.999995231629,8|0,0:0|1:0,0:0:0:0:
315,67,44569,2,0,P|258:127|176:118,1,169.999995231629,0|0,0:0|1:0,0:0:0:0:
30,329,44855,6,2,P|30:286|52:251,3,84.9999976158143,10|2|2|2,0:0|0:0|0:0|0:0,0:0:0:0:
13,175,45141,2,2,P|43:145|84:136,3,84.9999976158143
99,96,45427,2,2,P|141:96|176:118,3,84.9999976158143,10|2|2|2,0:0|0:0|0:0|0:0,0:0:0:0:
194,114,45712,2,2,P|223:144|232:185,3,84.9999976158143
159,266,45998,6,2,L|246:260,1,84.9999976158143,10|2,0:0|0:0,0:0:0:0:
149,286,46141,2,2,L|236:280,1,84.9999976158143
493,235,46284,2,2,L|408:229,1,84.9999976158143
113,170,46427,6,2,L|200:164,3,84.9999976158143,2|2|10|2,0:0|0:0|0:0|0:0,0:0:0:0:
126,82,46712,5,2,2:0:0:0:
48,107,46783,1,2,2:0:0:0:
23,185,46854,1,2,2:0:0:0:
69,251,46926,1,2,2:0:0:0:
151,253,46997,1,2,2:0:0:0:
201,188,47069,1,2,2:0:0:0:
238,261,47141,6,0,L|322:264,1,84.9999976158143,8|0,0:0|1:0,0:0:0:0:
373,173,47427,2,0,L|289:170,1,84.9999976158143,2|0,0:0|1:0,0:0:0:0:
70,76,47712,2,0,L|154:73,1,84.9999976158143,8|0,0:0|1:0,0:0:0:0:
113,170,47998,2,0,L|29:173,1,84.9999976158143,2|0,0:0|1:0,0:0:0:0:
209,276,48284,6,0,L|205:360,1,84.9999976158143,8|0,0:0|1:0,0:0:0:0:
285,242,48570,2,0,L|324:317,1,84.9999976158143,2|0,0:0|1:0,0:0:0:0:
338,178,48855,2,0,L|410:223,1,84.9999976158143,8|0,0:0|1:0,0:0:0:0:
354,97,49141,2,0,L|438:100,1,84.9999976158143,2|0,0:0|1:0,0:0:0:0:
208,271,49427,6,0,B|111:309|111:309|26:275,1,191.250001931191,12|0,0:0|1:0,0:0:0:0:
31,277,49712,6,0,P|64:302|81:341,1,84.9999976158143,2|0,0:0|1:0,0:0:0:0:
26,113,49998,2,0,P|43:74|76:48,1,84.9999976158143,8|0,0:0|1:0,0:0:0:0:
260,204,50284,2,0,P|243:243|210:269,1,84.9999976158143,2|0,0:0|1:0,0:0:0:0:
477,106,50569,6,0,P|460:66|426:41,1,84.9999976158143,8|0,0:0|1:0,0:0:0:0:
405,323,50855,2,0,P|444:306|469:272,1,84.9999976158143,2|0,0:0|1:0,0:0:0:0:
277,73,51141,6,2,P|297:78|316:88,3,42.4999988079071,10|2|2|2,0:0|0:0|0:0|0:0,0:0:0:0:
327,192,51427,2,2,P|342:209|351:226,3,42.4999988079071,2|2|2|2,0:0|0:0|0:0|0:0,0:0:0:0:
405,323,51712,6,0,B|333:324|333:324|313:334|313:334|237:334,1,169.999995231629,12|0,0:0|1:0,0:0:0:0:
6,213,51998,6,0,L|71:145,1,84.9999976158143,2|0,0:0|1:0,0:0:0:0:
63,30,52284,2,0,L|131:95,1,84.9999976158143,8|0,0:0|1:0,0:0:0:0:
251,82,52569,2,0,L|186:150,1,84.9999976158143,2|0,0:0|1:0,0:0:0:0:
327,348,52855,6,0,L|313:264,1,84.9999976158143,8|0,0:0|1:0,0:0:0:0:
192,143,53141,2,0,L|205:226,1,84.9999976158143,2|0,0:0|1:0,0:0:0:0:
349,326,53427,2,0,L|335:242,1,84.9999976158143,8|0,0:0|1:0,0:0:0:0:
166,165,53713,2,0,L|179:248,1,84.9999976158143,2|0,0:0|1:0,0:0:0:0:
296,128,53998,5,10,0:0:0:0:
364,133,54141,1,2,0:0:0:0:
328,129,54284,1,2,0:0:0:0:
323,230,54427,5,2,0:0:0:0:
359,234,54570,1,10,0:0:0:0:
291,229,54713,1,2,0:0:0:0:
285,328,54855,5,2,0:0:0:0:
317,329,54998,1,2,0:0:0:0:
353,333,55141,1,10,0:0:0:0:
364,133,55284,5,2,0:0:0:0:
328,129,55427,1,2,0:0:0:0:
296,128,55570,1,2,0:0:0:0:
155,26,55712,5,10,0:0:0:0:
109,182,55855,1,2,0:0:0:0:
89,94,55998,5,2,0:0:0:0:
128,269,56141,1,2,0:0:0:0:
15,323,56284,6,0,L|226:313,1,178.499989545823,12|0,0:0|1:0,0:0:0:0:
290,296,56569,2,0,P|343:222|391:215,1,118.999993030548
459,380,56855,2,0,P|406:306|358:299,1,118.999993030548,8|0,0:0|0:0,0:0:0:0:
423,141,57141,2,0,P|460:223|442:268,1,118.999993030548
271,190,57427,6,0,B|257:10,1,178.499989545823,8|0,0:0|1:0,0:0:0:0:
113,31,57712,2,0,P|148:87|203:116,1,118.999993030548
337,107,57998,2,0,P|385:72|412:20,1,118.999993030548,8|0,0:0|0:0,0:0:0:0:
191,272,58284,2,0,P|226:215|281:186,1,118.999993030548
482,307,58569,6,0,P|396:275|307:281,1,178.499989545823,8|0,0:0|1:0,0:0:0:0:
127,345,58855,2,0,P|92:288|101:230,1,118.999993030548
270,189,59141,2,0,P|238:247|183:269,1,118.999993030548,8|0,0:0|0:0,0:0:0:0:
64,143,59427,2,0,P|130:141|176:177,1,118.999993030548
331,277,59712,6,0,L|554:269,1,178.499989545823,8|0,0:0|1:0,0:0:0:0:
379,353,59998,2,0,L|504:348,1,118.999993030548
212,281,60284,2,0,L|337:276,1,118.999993030548,8|0,0:0|0:0,0:0:0:0:
45,209,60569,2,0,L|170:204,1,118.999993030548
233,143,60855,5,10,0:0:0:0:
284,37,60998,1,2,0:0:0:0:
205,64,61141,1,2,0:0:0:0:
311,115,61284,1,2,0:0:0:0:
206,141,61427,5,10,0:0:0:0:
310,39,61570,1,2,0:0:0:0:
207,37,61713,1,2,0:0:0:0:
308,141,61856,1,2,0:0:0:0:
182,124,61998,5,10,0:0:0:0:
334,55,62141,1,2,0:0:0:0:
223,13,62284,1,2,0:0:0:0:
292,165,62427,1,2,0:0:0:0:
167,97,62569,5,10,0:0:0:0:
348,83,62712,1,2,0:0:0:0:
251,0,62855,1,2,0:0:0:0:
265,179,62998,1,2,0:0:0:0:
202,316,63141,5,10,0:0:0:0:
181,235,63284,1,2,0:0:0:0:
310,316,63427,1,2,0:0:0:0:
331,235,63570,1,2,0:0:0:0:
185,328,63712,5,10,0:0:0:0:
158,222,63855,1,2,0:0:0:0:
326,328,63998,1,2,0:0:0:0:
353,222,64141,1,2,0:0:0:0:
164,343,64284,5,10,0:0:0:0:
129,207,64427,1,2,0:0:0:0:
347,343,64570,1,2,0:0:0:0:
382,207,64713,1,2,0:0:0:0:
140,361,64855,5,10,0:0:0:0:
96,189,64998,1,2,0:0:0:0:
371,361,65141,1,2,0:0:0:0:
415,189,65284,1,2,0:0:0:0:
165,127,65427,6,0,B|229:125|229:125|249:116|249:116|267:123|267:123|359:120,1,178.499989545823,12|0,0:0|1:0,0:0:0:0:
140,361,65712,2,0,P|108:300|137:265,1,118.999993030548
377,266,65998,2,0,P|405:315|372:361,1,118.999993030548,8|0,0:0|0:0,0:0:0:0:
259,307,66284,2,0,L|250:167,1,118.999993030548
115,75,66569,6,0,B|76:39|76:39|94:179,1,178.499989545823,8|0,0:0|1:0,0:0:0:0:
76,299,66855,2,0,B|111:348|111:348|133:289,1,118.999993030548
127,212,67141,2,0,B|92:163|92:163|70:222,1,118.999993030548,8|0,0:0|0:0,0:0:0:0:
251,188,67427,2,0,L|396:179,1,118.999993030548
502,271,67712,6,0,L|302:286,1,178.499989545823,8|0,0:0|1:0,0:0:0:0:
196,300,67998,2,0,P|190:325|254:315,1,118.999993030548
427,203,68284,2,0,P|433:178|369:188,1,118.999993030548,8|0,0:0|0:0,0:0:0:0:
247,29,68569,2,0,L|261:185,1,118.999993030548
202,307,68855,6,0,P|137:258|123:148,1,178.499989545823,8|0,0:0|1:0,0:0:0:0:
358,41,69141,2,0,P|400:82|416:141,1,118.999993030548
149,86,69427,2,0,P|190:44|249:28,1,118.999993030548,8|0,0:0|0:0,0:0:0:0:
408,244,69712,2,0,P|367:286|308:302,1,118.999993030548
93,216,69998,5,10,0:0:0:0:
84,137,70141,1,2,0:0:0:0:
184,250,70284,1,2,0:0:0:0:
175,171,70427,1,2,0:0:0:0:
76,202,70569,5,10,0:0:0:0:
99,105,70712,1,2,0:0:0:0:
168,281,70855,1,2,0:0:0:0:
191,184,70998,1,2,0:0:0:0:
59,178,71141,5,10,0:0:0:0:
130,70,71284,1,2,0:0:0:0:
136,315,71427,1,2,0:0:0:0:
207,207,71570,1,2,0:0:0:0:
50,138,71712,5,10,0:0:0:0:
186,40,71855,1,2,0:0:0:0:
79,341,71998,1,2,0:0:0:0:
216,243,72141,1,2,0:0:0:0:
334,123,72284,5,10,0:0:0:0:
434,148,72427,1,2,0:0:0:0:
337,263,72569,1,2,0:0:0:0:
437,238,72712,1,2,0:0:0:0:
318,102,72855,5,10,0:0:0:0:
448,134,72998,1,2,0:0:0:0:
322,283,73140,1,2,0:0:0:0:
452,251,73283,1,2,0:0:0:0:
298,74,73427,5,10,0:0:0:0:
467,117,73570,1,2,0:0:0:0:
303,311,73712,1,2,0:0:0:0:
472,268,73855,1,2,0:0:0:0:
272,39,73998,5,10,0:0:0:0:
491,94,74141,1,2,0:0:0:0:
279,346,74283,1,2,0:0:0:0:
498,291,74426,1,2,0:0:0:0:
165,99,74569,6,2,P|123:107|87:129,3,84.9999976158143,14|2|2|2,0:0|0:0|0:0|0:0,0:0:0:0:
53,54,74855,2,2,P|21:81|0:118,3,84.9999976158143
159,216,75141,6,2,P|187:247|201:287,1,84.9999976158143,10|2,0:0|0:0,0:0:0:0:
4,231,75284,2,2,P|44:243|76:271,1,84.9999976158143,2|2,0:0|0:0,0:0:0:0:
315,285,75427,6,2,P|285:253|272:213,1,84.9999976158143,2|2,0:0|0:0,0:0:0:0:
131,178,75570,2,2,P|132:135|151:97,1,84.9999976158143,2|2,0:0|0:0,0:0:0:0:
406,39,75712,6,2,L|412:123,3,84.9999976158143,10|2|2|2,0:0|0:0|0:0|0:0,0:0:0:0:
500,24,75998,2,2,L|506:108,3,84.9999976158143,2|2|2|2,0:0|0:0|0:0|0:0,0:0:0:0:
307,155,76284,6,2,L|302:239,1,84.9999976158143,10|2,0:0|0:0,0:0:0:0:
234,27,76427,2,2,L|229:111,1,84.9999976158143,2|2,0:0|0:0,0:0:0:0:
41,292,76569,6,2,P|52:251|80:219,1,84.9999976158143
219,247,76712,2,2,P|260:233|301:238,1,84.9999976158143
444,319,76855,6,2,P|478:296|487:255,3,84.9999976158143,10|2|2|2,0:0|0:0|0:0|0:0,0:0:0:0:
263,322,77141,2,2,P|307:324|334:364,3,84.9999976158143
422,167,77427,6,2,L|525:162,1,84.9999976158143,10|2,0:0|0:0,0:0:0:0:
228,175,77569,2,2,L|143:179,1,84.9999976158143,2|2,0:0|0:0,0:0:0:0:
425,81,77712,6,2,L|508:63,1,84.9999976158143,2|2,0:0|0:0,0:0:0:0:
217,261,77855,2,2,L|133:278,1,84.9999976158143,2|2,0:0|0:0,0:0:0:0:
301,43,77998,6,2,P|341:53|371:83,3,84.9999976158143,10|2|2|2,0:0|0:0|0:0|0:0,0:0:0:0:
212,141,78284,2,2,P|171:152|141:182,3,84.9999976158143,2|2|2|2,0:0|0:0|0:0|0:0,0:0:0:0:
302,30,78569,6,2,P|342:40|372:70,1,84.9999976158143,10|2,0:0|0:0,0:0:0:0:
216,128,78712,2,2,P|175:139|145:169,1,84.9999976158143,2|2,0:0|0:0,0:0:0:0:
371,269,78855,6,2,P|341:239|301:229,1,84.9999976158143,2|2,0:0|0:0,0:0:0:0:
142,367,78998,2,2,P|171:337|212:325,1,84.9999976158143,2|2,0:0|0:0,0:0:0:0:
37,201,79141,6,2,L|30:116,1,84.9999976158143,10|2,0:0|0:0,0:0:0:0:
23,0,79284,2,2,L|29:84,1,84.9999976158143,2|2,0:0|0:0,0:0:0:0:
153,254,79427,2,2,L|146:169,1,84.9999976158143,2|2,0:0|0:0,0:0:0:0:
138,54,79569,2,2,L|144:138,1,84.9999976158143,2|2,0:0|0:0,0:0:0:0:
268,305,79712,6,2,L|261:220,1,84.9999976158143,10|2,0:0|0:0,0:0:0:0:
253,106,79855,2,2,L|259:190,1,84.9999976158143,2|2,0:0|0:0,0:0:0:0:
389,356,79998,2,2,L|382:271,1,84.9999976158143,2|2,0:0|0:0,0:0:0:0:
373,154,80141,2,2,L|379:238,1,84.9999976158143,2|2,0:0|0:0,0:0:0:0:
500,32,80284,6,2,L|418:56,1,84.9999976158143,10|2,0:0|0:0,0:0:0:0:
253,106,80427,2,2,L|334:81,1,84.9999976158143,2|2,0:0|0:0,0:0:0:0:
463,247,80569,6,2,L|381:271,1,84.9999976158143,2|2,0:0|0:0,0:0:0:0:
216,321,80712,2,2,L|297:296,1,84.9999976158143,2|2,0:0|0:0,0:0:0:0:
499,131,80855,6,2,L|418:106,1,84.9999976158143,10|2,0:0|0:0,0:0:0:0:
252,57,80998,2,2,L|334:81,1,84.9999976158143,2|2,0:0|0:0,0:0:0:0:
462,346,81140,6,2,L|381:321,1,84.9999976158143,2|2,0:0|0:0,0:0:0:0:
215,272,81283,2,2,L|297:296,1,84.9999976158143,2|2,0:0|0:0,0:0:0:0:
83,72,81427,5,10,0:0:0:0:
96,340,81569,1,2,0:0:0:0:
0,102,81712,1,2,0:0:0:0:
11,326,81854,1,2,0:0:0:0:
162,122,81998,5,10,0:0:0:0:
174,288,82141,1,2,0:0:0:0:
57,170,82284,1,2,0:0:0:0:
62,250,82427,1,2,0:0:0:0:
312,104,82569,5,10,0:0:0:0:
170,223,82712,1,2,0:0:0:0:
381,228,82855,1,2,0:0:0:0:
167,190,82998,5,2,0:0:0:0:
340,332,83141,1,10,0:0:0:0:
377,197,83284,1,2,0:0:0:0:
149,43,83427,5,2,0:0:0:0:
54,335,83569,1,2,0:0:0:0:
374,101,83712,6,2,P|415:92|456:100,3,84.9999976158143,10|2|2|2,0:0|0:0|0:0|0:0,0:0:0:0:
238,96,83998,2,2,P|270:123|284:162,3,84.9999976158143,2|2|2|2,0:0|0:0|0:0|0:0,0:0:0:0:
338,256,84284,6,2,P|370:229|389:191,1,84.9999976158143,10|2,0:0|0:0,0:0:0:0:
157,86,84427,2,2,P|199:78|237:95,1,84.9999976158143,2|2,0:0|0:0,0:0:0:0:
468,225,84569,6,2,P|472:183|458:143,1,84.9999976158143,2|2,0:0|0:0,0:0:0:0:
125,212,84712,2,2,P|148:177|187:162,1,84.9999976158143,2|2,0:0|0:0,0:0:0:0:
476,345,84855,6,2,L|391:340,3,84.9999976158143,10|2|2|2,0:0|0:0|0:0|0:0,0:0:0:0:
237,358,85141,2,2,L|152:353,3,84.9999976158143,2|2|2|2,0:0|0:0|0:0|0:0,0:0:0:0:
338,256,85427,6,2,P|370:229|412:226,1,84.9999976158143,10|2,0:0|0:0,0:0:0:0:
423,113,85569,2,2,L|507:122,1,84.9999976158143,2|2,0:0|0:0,0:0:0:0:
283,27,85712,6,2,L|198:36,1,84.9999976158143,2|2,0:0|0:0,0:0:0:0:
199,163,85855,2,2,P|174:130|135:115,1,84.9999976158143,2|2,0:0|0:0,0:0:0:0:
112,296,85998,6,2,L|125:206,3,84.9999976158143,10|2|2|2,0:0|0:0|0:0|0:0,0:0:0:0:
44,142,86284,6,2,P|18:174|19:216,1,84.9999976158143,2|2,0:0|0:0,0:0:0:0:
216,276,86427,2,2,P|241:243|240:201,1,84.9999976158143,2|2,0:0|0:0,0:0:0:0:
27,65,86569,2,2,P|21:106|43:141,1,84.9999976158143,10|2,0:0|0:0,0:0:0:0:
242,95,86712,2,2,P|247:53|225:18,1,84.9999976158143,2|2,0:0|0:0,0:0:0:0:
189,312,86855,6,2,P|230:307|261:279,1,84.9999976158143
116,110,86998,2,2,P|74:113|43:141,1,84.9999976158143
21,321,87141,6,2,L|111:317,3,84.9999976158143,10|2|2|2,0:0|0:0|0:0|0:0,0:0:0:0:
239,200,87427,6,2,L|323:196,3,84.9999976158143,2|2|2|2,0:0|0:0|0:0|0:0,0:0:0:0:
66,40,87712,6,2,L|52:128,1,84.9999976158143,10|2,0:0|0:0,0:0:0:0:
21,321,87855,2,2,L|34:237,1,84.9999976158143
342,80,87998,6,2,L|249:114,1,84.9999976158143,2|2,0:0|0:0,0:0:0:0:
179,343,88141,2,2,L|259:314,1,84.9999976158143,2|2,0:0|0:0,0:0:0:0:
472,151,88284,6,2,P|423:86|341:79,1,169.999995231629,10|2,0:0|0:0,0:0:0:0:
262,109,88498,5,2,0:0:0:0:
266,197,88569,2,2,P|315:262|397:269,1,169.999995231629,2|2,0:0|0:0,0:0:0:0:
475,239,88784,5,2,0:0:0:0:
472,151,88855,2,2,B|428:81|428:81|342:80,1,169.999995231629,10|2,0:0|0:0,0:0:0:0:
262,109,89069,5,2,0:0:0:0:
266,197,89141,2,2,B|310:267|310:267|396:268,1,169.999995231629,2|2,0:0|0:0,0:0:0:0:
475,239,89355,5,2,0:0:0:0:
345,186,89427,2,2,L|175:185,1,169.999995231629,10|2,0:0|0:0,0:0:0:0:
42,270,89641,5,2,0:0:0:0:
118,111,89712,2,2,P|200:88|258:149,1,169.999995231629,2|2,0:0|0:0,0:0:0:0:
139,329,89927,5,2,0:0:0:0:
42,270,89998,2,2,P|24:215|30:177,2,84.9999976158143,10|2|2,0:0|0:0|0:0,0:0:0:0:
285,293,90212,5,2,0:0:0:0:
255,141,90284,2,2,P|172:116|114:187,1,169.999995231629,2|2,0:0|0:0,0:0:0:0:
139,329,90569,5,10,0:0:0:0:
223,361,90665,1,2,0:0:0:0:
285,293,90760,1,2,0:0:0:0:
351,226,90855,1,2,0:0:0:0:
431,237,90951,1,2,0:0:0:0:
480,304,91046,1,2,0:0:0:0:
393,326,91141,5,10,0:0:0:0:
321,276,91236,1,2,0:0:0:0:
316,190,91331,1,2,0:0:0:0:
343,107,91426,1,2,0:0:0:0:
304,30,91522,1,2,0:0:0:0:
233,73,91617,1,2,0:0:0:0:
364,88,91712,5,10,0:0:0:0:
470,101,91807,1,2,0:0:0:0:
511,202,91902,1,2,0:0:0:0:
401,181,91997,5,2,0:0:0:0:
312,234,92092,1,2,0:0:0:0:
299,340,92188,1,2,0:0:0:0:
403,215,92284,5,10,0:0:0:0:
287,130,92379,1,2,0:0:0:0:
275,262,92474,1,2,0:0:0:0:
394,256,92569,5,2,0:0:0:0:
308,92,92664,1,2,0:0:0:0:
191,233,92759,1,2,0:0:0:0:
34,384,92855,6,2,L|1:34,2,339.999990463257,14|2|2,0:0|0:0|0:0,0:0:0:0:
59,373,93284,2,2,L|32:22,2,339.999990463257
84,363,93712,6,2,L|57:12,2,339.999990463257
110,352,94141,2,2,L|83:1,2,339.999990463257
7,139,94569,6,2,P|69:104|76:-2,1,169.999995231629,10|2,0:0|0:0,0:0:0:0:
104,278,94712,2,2,P|123:209|53:128,1,169.999995231629,2|2,0:0|0:0,0:0:0:0:
272,309,94855,2,2,P|237:246|130:239,1,169.999995231629
412,213,94998,2,2,P|343:193|262:263,1,169.999995231629,2|2,0:0|0:0,0:0:0:0:
120,47,95141,6,2,L|470:69,2,339.999990463257,10|2|2,0:0|0:0|0:0,0:0:0:0:
126,73,95570,2,2,L|476:101,2,339.999990463257
132,99,95998,6,2,L|482:127,2,339.999990463257
139,127,96427,2,2,L|489:155,2,339.999990463257,2|2|2,0:0|0:0|0:0,0:0:0:0:
498,211,96855,6,2,P|452:265|483:368,1,169.999995231629,10|2,0:0|0:0,0:0:0:0:
356,115,96998,2,2,P|362:186|456:236,1,169.999995231629,2|2,0:0|0:0,0:0:0:0:
189,147,97141,2,2,P|243:192|346:161,1,169.999995231629
91,286,97284,2,2,P|162:279|212:185,1,169.999995231629,2|2,0:0|0:0,0:0:0:0:
500,359,97427,6,2,P|372:229|358:58,2,339.999990463257,10|2|2,0:0|0:0|0:0,0:0:0:0:
420,362,97855,2,2,P|325:224|334:58,2,339.999990463257,2|2|2,0:0|0:0|0:0,0:0:0:0:
341,349,98284,6,2,P|276:178|334:16,2,339.999990463257
266,319,98712,2,2,P|235:154|312:6,2,339.999990463257,2|2|2,0:0|0:0|0:0,0:0:0:0:
125,355,99141,6,2,P|139:265|94:150,1,169.999995231629,10|2,0:0|0:0,0:0:0:0:
47,215,99284,2,2,P|120:161|170:48,1,169.999995231629,2|2,0:0|0:0,0:0:0:0:
91,61,99427,2,2,P|181:74|296:30,1,169.999995231629
230,0,99569,2,2,P|284:57|397:107,1,169.999995231629,2|2,0:0|0:0,0:0:0:0:
456,210,99712,6,0,B|200:180|200:180|115:190,1,339.999990463257,8|0,0:0|1:0,0:0:0:0:
3,136,100141,2,0,P|3:242|28:100,1,679.999980926514,0|0,0:0|1:0,0:0:0:0:
51,171,100855,6,0,P|160:245|123:120,1,339.999990463257,8|0,0:0|1:0,0:0:0:0:
118,189,101284,2,0,P|64:254|151:179,1,510.000005149842,0|0,0:0|1:0,0:0:0:0:
164,280,101712,2,0,B|369:270|369:270|427:283,1,254.999992847443,0|0,0:0|1:0,0:0:0:0:
456,351,101998,6,0,B|475:255|421:195|421:195|351:113|409:14,1,331.499975526811,8|0,0:0|1:0,0:0:0:0:
512,70,102284,2,0,B|440:84|394:43|394:43|330:-11|274:23,1,254.999992847443,0|0,0:0|1:0,0:0:0:0:
83,47,102569,6,2,P|47:70|36:113,1,84.9999976158143,10|2,0:0|0:0,0:0:0:0:
52,179,102712,2,2,P|75:215|118:226,1,84.9999976158143,2|2,0:0|0:0,0:0:0:0:
184,210,102855,2,2,P|220:187|231:144,1,84.9999976158143,2|2,0:0|0:0,0:0:0:0:
215,78,102998,2,2,P|192:42|149:31,1,84.9999976158143,2|2,0:0|0:0,0:0:0:0:
113,366,103141,6,0,P|155:239|123:125,1,254.999992847443,8|0,0:0|1:0,0:0:0:0:
41,278,103427,2,0,P|147:313|212:306,2,169.999995231629,0|0|8,0:0|0:0|0:0,0:0:0:0:
377,263,103855,1,0,0:0:0:0:
313,341,103998,6,2,P|284:296|282:244,1,84.9999976158143,2|2,0:0|0:0,0:0:0:0:
474,242,104141,2,2,P|467:283|444:319,1,84.9999976158143,2|2,0:0|0:0,0:0:0:0:
313,341,104284,6,0,L|37:328,1,254.999992847443,8|0,0:0|1:0,0:0:0:0:
244,142,104569,2,0,L|520:129,1,254.999992847443,0|0,0:0|1:0,0:0:0:0:
287,222,104855,6,2,P|314:185|358:167,1,84.9999976158143,10|2,0:0|0:0,0:0:0:0:
426,175,104998,2,2,P|463:202|481:246,1,84.9999976158143,2|2,0:0|0:0,0:0:0:0:
473,314,105141,2,2,P|446:351|402:369,1,84.9999976158143,2|2,0:0|0:0,0:0:0:0:
334,361,105284,2,2,P|297:334|279:290,1,84.9999976158143,2|2,0:0|0:0,0:0:0:0:
375,75,105426,6,2,P|406:116|409:161,1,84.9999976158143,10|2,0:0|0:0,0:0:0:0:
386,305,105569,2,2,P|345:336|300:339,1,84.9999976158143,2|2,0:0|0:0,0:0:0:0:
156,316,105712,2,2,P|125:275|122:230,1,84.9999976158143,2|2,0:0|0:0,0:0:0:0:
145,86,105855,2,2,P|186:55|231:52,1,84.9999976158143,2|2,0:0|0:0,0:0:0:0:
398,41,105998,6,2,P|438:95|442:153,1,84.9999976158143,10|2,0:0|0:0,0:0:0:0:
412,338,106141,2,2,P|359:378|300:382,1,84.9999976158143,2|2,0:0|0:0,0:0:0:0:
114,353,106284,2,2,P|74:300|70:242,1,84.9999976158143,2|2,0:0|0:0,0:0:0:0:
100,55,106427,2,2,P|153:15|212:11,1,84.9999976158143
443,223,106569,5,10,0:0:0:0:
341,208,106664,1,2,0:0:0:0:
265,266,106759,1,2,0:0:0:0:
339,361,106855,5,2,0:0:0:0:
255,305,106950,1,2,0:0:0:0:
156,316,107045,1,2,0:0:0:0:
80,383,107141,5,10,0:0:0:0:
129,315,107236,1,2,0:0:0:0:
102,244,107331,1,2,0:0:0:0:
120,165,107427,5,2,0:0:0:0:
80,231,107522,1,2,0:0:0:0:
5,232,107617,1,2,0:0:0:0:
102,149,107712,5,10,0:0:0:0:
185,128,107807,1,2,0:0:0:0:
244,188,107902,1,2,0:0:0:0:
364,173,107998,5,2,0:0:0:0:
329,207,108093,1,2,0:0:0:0:
323,256,108188,1,2,0:0:0:0:
360,338,108284,5,10,0:0:0:0:
458,353,108379,1,2,0:0:0:0:
418,248,108474,1,2,0:0:0:0:
329,333,108569,5,2,0:0:0:0:
253,278,108665,1,2,0:0:0:0:
244,188,108760,1,2,0:0:0:0:
296,106,108855,6,0,P|401:118|417:248,1,254.999992847443,12|0,0:0|1:0,0:0:0:0:
329,333,109141,1,0,0:0:0:0:
172,96,109284,6,0,B|102:61|102:61|115:239,1,254.999992847443,0|0,0:0|1:0,0:0:0:0:
125,359,109569,1,0,0:0:0:0:
8,23,109712,2,0,L|24:278,1,254.999992847443,0|0,0:0|1:0,0:0:0:0:
205,305,109998,5,10,0:0:0:0:
304,272,110093,1,2,0:0:0:0:
220,201,110188,1,2,0:0:0:0:
300,303,110284,5,2,0:0:0:0:
159,245,110379,1,2,0:0:0:0:
277,158,110474,1,2,0:0:0:0:
415,294,110569,6,2,B|427:221|427:221|415:198|415:198|427:129,1,169.999995231629,10|2,0:0|0:0,0:0:0:0:
72,281,110784,2,2,B|83:209|83:209|71:186|71:186|83:115,1,169.999995231629
265,20,110998,2,2,L|251:103,1,84.9999976158143
209,355,111141,1,14,0:0:0:0:
256,192,111284,12,0,115141,0:0:0:0:
314,90,118998,5,2,0:0:0:0:
310,110,119069,1,2,0:0:0:0:
306,129,119141,1,10,0:0:0:0:
185,79,119284,6,0,B|216:138|216:138|199:298,1,203.999988052369
274,361,119712,5,10,0:0:0:0:
250,198,119855,1,2,0:0:0:0:
74,299,119998,5,2,0:0:0:0:
70,327,120141,1,2,0:0:0:0:
177,217,120284,6,0,L|368:210,1,178.499989545823,12|0,0:0|1:0,0:0:0:0:
435,268,120569,2,0,P|447:202|429:147,1,118.999993030548
334,290,120855,2,0,P|363:340|413:372,1,118.999993030548,8|0,0:0|0:0,0:0:0:0:
362,120,121141,2,0,P|296:108|241:126,1,118.999993030548
119,42,121427,6,0,B|85:76|85:76|109:208,1,178.499989545823,8|0,0:0|1:0,0:0:0:0:
185,338,121712,2,0,P|214:263|200:196,1,118.999993030548
1,170,121998,2,0,P|1:229|27:283,1,118.999993030548,8|0,0:0|0:0,0:0:0:0:
315,301,122284,2,0,L|480:286,1,118.999993030548
496,162,122569,6,0,L|264:183,1,178.499989545823,8|0,0:0|1:0,0:0:0:0:
223,129,122855,2,0,P|274:81|334:74,1,118.999993030548
396,358,123141,2,0,P|338:344|298:301,1,118.999993030548,8|0,0:0|0:0,0:0:0:0:
448,111,123427,2,0,P|496:162|503:222,1,118.999993030548
257,192,123712,6,0,B|242:162|242:162|253:-13,1,178.499989545823,8|0,0:0|1:0,0:0:0:0:
385,21,123998,2,0,P|371:75|321:118,1,118.999993030548
171,110,124284,2,0,P|126:71|111:14,1,118.999993030548,8|0,0:0|0:0,0:0:0:0:
257,192,124569,2,0,P|301:230|316:287,1,118.999993030548
30,247,124855,6,0,L|251:274,1,178.499989545823,8|0,0:0|1:0,0:0:0:0:
483,298,125141,2,0,L|365:307,1,118.999993030548
27,351,125427,2,0,L|145:360,1,118.999993030548,8|0,0:0|0:0,0:0:0:0:
512,219,125712,2,0,L|394:228,1,118.999993030548
213,121,125998,6,0,P|256:56|299:126,1,178.499989545823,8|0,0:0|1:0,0:0:0:0:
145,360,126284,2,0,P|161:295|213:259,1,118.999993030548
338,344,126569,2,0,P|273:361|216:334,1,118.999993030548,8|0,0:0|0:0,0:0:0:0:
229,183,126855,2,0,P|275:229|280:292,1,118.999993030548
145,95,127141,6,0,B|88:37|88:37|114:224,1,254.999992847443,8|0,0:0|1:0,0:0:0:0:
185,251,127427,1,0,0:0:0:0:
35,342,127569,6,0,B|124:336|124:336|159:344|159:344|186:331|186:331|294:322,1,254.999992847443,0|0,0:0|1:0,0:0:0:0:
382,331,127855,1,0,0:0:0:0:
512,253,127998,6,0,B|336:237|336:237|392:242|392:242|421:200,1,254.999992847443,0|0,0:0|1:0,0:0:0:0:
253,163,128284,6,0,B|113:173|113:173|133:172|133:172|113:173|113:173|133:171|133:171|5:181,1,305.999982078553,8|0,0:0|1:0,0:0:0:0:
260,24,128569,6,0,B|225:59|225:59|226:90|226:90|267:124|267:124|267:159|267:159|234:198|234:198|234:242|234:242|277:277|277:277|277:313|277:313|251:381,1,407.999988555908,0|0,0:0|1:0,0:0:0:0:
260,360,128855,6,0,B|225:325|225:325|226:294|226:294|267:260|267:260|267:225|267:225|234:186|234:186|234:142|234:142|277:107|277:107|277:71|277:71|251:3,1,407.999988555908,8|0,0:0|1:0,0:0:0:0:
103,49,129141,6,0,P|275:146|395:13,1,407.999988555908,0|0,0:0|1:0,0:0:0:0:
121,276,129427,6,0,L|421:267,1,254.999992847443,12|0,0:0|1:0,0:0:0:0:
512,352,129712,2,0,L|212:361,1,254.999992847443,0|0,0:0|1:0,0:0:0:0:
70,380,129998,6,0,P|9:294|67:161,1,254.999992847443,8|0,0:0|1:0,0:0:0:0:
179,161,130284,2,0,P|240:247|182:380,1,254.999992847443,0|0,0:0|1:0,0:0:0:0:
121,80,130569,6,0,B|330:62|330:62|390:73,1,254.999992847443,8|0,0:0|1:0,0:0:0:0:
443,122,130855,5,0,0:0:0:0:
28,89,130998,1,0,0:0:0:0:
375,268,131141,6,0,B|166:286|166:286|106:275,1,254.999992847443,8|0,0:0|1:0,0:0:0:0:
435,233,131427,2,0,P|477:284|404:236,1,254.999992847443,0|0,0:0|1:0,0:0:0:0:
171,170,131712,6,0,P|129:119|202:167,1,254.999992847443,8|0,0:0|1:0,0:0:0:0:
254,275,131998,2,0,L|-50:288,1,254.999992847443,0|0,0:0|1:0,0:0:0:0:
57,115,132284,6,2,L|53:1,1,84.9999976158143,10|2,0:0|0:0,0:0:0:0:
70,127,132427,2,2,L|66:13,1,84.9999976158143
124,284,132569,6,2,L|120:398,1,84.9999976158143
137,272,132712,2,2,L|133:386,1,84.9999976158143
180,166,132855,6,0,B|298:161|298:161|326:151|326:151|353:157|353:157|446:153,1,254.999992847443,8|0,0:0|1:0,0:0:0:0:
506,121,133141,5,0,0:0:0:0:
257,259,133284,1,0,0:0:0:0:
364,54,133427,5,8,0:0:0:0:
497,299,133569,1,0,0:0:0:0:
257,259,133712,6,0,B|234:55|234:55|251:-26,1,254.999992847443,0|0,0:0|1:0,0:0:0:0:
511,45,133998,6,0,L|497:300,1,254.999992847443,12|0,0:0|1:0,0:0:0:0:
171,267,134284,2,0,P|237:170|340:226,1,254.999992847443,0|0,0:0|1:0,0:0:0:0:
361,377,134569,1,8,0:0:0:0:
397,128,134712,1,0,0:0:0:0:
144,382,134855,2,0,L|126:126,1,254.999992847443,0|0,0:0|1:0,0:0:0:0:
153,12,135141,2,0,L|174:304,1,254.999992847443,8|0,0:0|1:0,0:0:0:0:
397,252,135427,6,0,B|280:201|280:201|171:266,1,254.999992847443,0|0,0:0|1:0,0:0:0:0:
1,137,135712,2,0,B|119:189|119:189|228:124,1,254.999992847443,8|0,0:0|1:0,0:0:0:0:
322,35,135998,2,0,L|334:204,1,169.999995231629,0|0,0:0|1:0,0:0:0:0:
137,352,136284,6,0,P|50:294|151:257,1,254.999992847443,12|0,0:0|1:0,0:0:0:0:
232,332,136569,2,0,L|437:315,1,169.999995231629,0|0,0:0|1:0,0:0:0:0:
470,57,136855,2,0,L|206:75,1,254.999992847443,8|0,0:0|1:0,0:0:0:0:
122,29,137141,1,0,0:0:0:0:
145,252,137284,1,0,0:0:0:0:
122,29,137427,2,0,P|35:87|136:124,1,254.999992847443,8|0,0:0|1:0,0:0:0:0:
251,188,137712,6,0,P|109:150|27:208,1,254.999992847443,0|0,0:0|1:0,0:0:0:0:
29,226,137998,2,0,P|137:165|253:208,1,254.999992847443,8|0,0:0|1:0,0:0:0:0:
395,231,138284,1,0,0:0:0:0:
42,313,138427,1,0,0:0:0:0:
335,126,138569,6,0,B|359:299|359:299|334:376,1,254.999992847443,12|0,0:0|1:0,0:0:0:0:
241,292,138855,2,0,P|357:223|468:294,1,254.999992847443,0|0,0:0|1:0,0:0:0:0:
476,368,139141,2,0,L|493:172,1,169.999995231629,8|0,0:0|1:0,0:0:0:0:
67,119,139427,2,0,L|51:288,1,169.999995231629,0|0,0:0|1:0,0:0:0:0:
469,102,139712,2,0,B|393:67|393:67|206:99,1,254.999992847443,8|0,0:0|1:0,0:0:0:0:
181,13,139998,6,0,L|197:316,1,254.999992847443,0|0,0:0|1:0,0:0:0:0:
45,364,140284,1,8,0:0:0:0:
74,42,140427,1,0,0:0:0:0:
224,288,140569,2,0,B|393:317|393:317|469:282,1,254.999992847443,0|0,0:0|1:0,0:0:0:0:
479,178,140855,5,8,0:0:0:0:
104,133,140998,1,0,0:0:0:0:
283,377,141141,1,0,0:0:0:0:
366,103,141284,1,0,0:0:0:0:
50,225,141427,2,0,P|186:187|191:289,1,254.999992847443,8|0,0:0|1:0,0:0:0:0:
283,377,141712,2,0,B|337:262|337:262|297:113,1,254.999992847443,0|0,0:0|1:0,0:0:0:0:
223,8,141998,6,0,L|201:292,1,254.999992847443,8|0,0:0|1:0,0:0:0:0:
335,264,142284,1,0,0:0:0:0:
128,40,142427,2,0,L|106:324,1,254.999992847443,0|0,0:0|1:0,0:0:0:0:
196,353,142712,2,0,L|215:98,1,254.999992847443,0|0,0:0|1:0,0:0:0:0:
223,8,142998,1,0,0:0:0:0:
372,232,143141,6,2,L|536:258,2,84.9999976158143,10|2|2,0:0|0:0|0:0,0:0:0:0:
257,280,143355,1,2,0:0:0:0:
340,136,143427,6,2,L|383:63,2,84.9999976158143
340,314,143641,1,2,0:0:0:0:
309,159,143712,6,2,L|288:51,2,84.9999976158143,10|2|2,0:0|0:0|0:0,0:0:0:0:
431,306,143927,1,2,0:0:0:0:
219,193,143998,6,2,L|205:109,2,84.9999976158143
257,330,144212,1,2,0:0:0:0:
407,183,144284,6,2,L|494:172,2,84.9999976158143,10|2|2,0:0|0:0|0:0,0:0:0:0:
270,253,144498,1,2,0:0:0:0:
441,127,144569,6,2,L|517:77,2,84.9999976158143
292,75,144784,1,2,0:0:0:0:
161,241,144855,6,2,L|176:373,2,84.9999976158143,10|2|2,0:0|0:0|0:0,0:0:0:0:
208,89,145069,1,2,0:0:0:0:
56,214,145141,6,2,L|-56:205,1,84.9999976158143
129,56,145284,2,2,L|17:47,1,84.9999976158143
270,253,145427,5,10,0:0:0:0:
350,290,145522,1,2,0:0:0:0:
436,267,145617,1,2,0:0:0:0:
486,194,145712,1,2,0:0:0:0:
477,105,145807,1,2,0:0:0:0:
317,70,145903,5,2,0:0:0:0:
389,63,145999,1,10,0:0:0:0:
448,105,146094,1,2,0:0:0:0:
468,173,146189,1,2,0:0:0:0:
295,261,146284,5,2,0:0:0:0:
339,257,146379,1,2,0:0:0:0:
373,229,146474,1,2,0:0:0:0:
384,186,146569,1,10,0:0:0:0:
367,144,146665,5,2,0:0:0:0:
365,177,146760,1,2,0:0:0:0:
364,211,146855,1,2,0:0:0:0:
363,245,146950,1,2,0:0:0:0:
361,279,147045,1,2,0:0:0:0:
360,313,147141,5,10,0:0:0:0:
270,380,147236,1,2,0:0:0:0:
167,339,147331,1,2,0:0:0:0:
45,347,147426,5,2,0:0:0:0:
180,234,147521,1,2,0:0:0:0:
360,313,147617,1,2,0:0:0:0:
63,260,147712,6,0,L|48:0,1,254.999992847443,12|0,0:0|1:0,0:0:0:0:
152,84,147998,2,0,L|167:344,1,254.999992847443,0|0,0:0|1:0,0:0:0:0:
45,347,148284,6,0,P|172:257|254:297,1,254.999992847443,8|0,0:0|1:0,0:0:0:0:
481,316,148569,2,0,P|354:406|272:366,1,254.999992847443,0|0,0:0|1:0,0:0:0:0:
365,307,148855,6,0,B|339:94|339:94|374:22,1,254.999992847443,8|0,0:0|1:0,0:0:0:0:
446,45,149141,5,0,0:0:0:0:
94,118,149284,1,0,0:0:0:0:
479,137,149427,6,0,B|353:182|353:182|232:89,1,254.999992847443,8|0,0:0|1:0,0:0:0:0:
94,118,149712,2,0,L|348:104,1,254.999992847443,0|0,0:0|1:0,0:0:0:0:
280,251,149998,6,0,B|154:206|154:206|33:299,1,254.999992847443,12|0,0:0|1:0,0:0:0:0:
370,359,150284,2,0,B|345:145|345:145|353:63,1,254.999992847443,0|0,0:0|1:0,0:0:0:0:
461,161,150569,6,2,L|457:275,1,84.9999976158143,10|2,0:0|0:0,0:0:0:0:
474,149,150712,2,2,L|470:263,1,84.9999976158143
277,335,150855,6,2,L|281:221,1,84.9999976158143
264,347,150998,2,2,L|268:233,1,84.9999976158143
113,170,151141,6,0,B|202:176|202:176|237:168|237:168|264:181|264:181|372:190,1,254.999992847443,8|0,0:0|1:0,0:0:0:0:
458,245,151427,5,0,0:0:0:0:
266,52,151569,1,0,0:0:0:0:
358,306,151712,6,0,P|267:350|163:235,1,254.999992847443,8|0,0:0|1:0,0:0:0:0:
137,147,151998,6,0,P|237:27|384:79,1,331.499975526811,0|0,0:0|1:0,0:0:0:0:
266,155,152284,6,0,L|-4:162,1,254.999992847443,12|0,0:0|1:0,0:0:0:0:
347,231,152569,2,0,L|77:238,1,254.999992847443,0|0,0:0|1:0,0:0:0:0:
274,306,152855,6,0,B|381:380|381:380|497:274,1,254.999992847443,8|0,0:0|1:0,0:0:0:0:
465,145,153141,2,0,B|358:71|358:71|265:155,1,254.999992847443,0|0,0:0|1:0,0:0:0:0:
186,361,153427,6,0,L|165:100,1,254.999992847443,8|0,0:0|1:0,0:0:0:0:
80,217,153712,2,0,P|195:251|264:129,1,254.999992847443,0|0,0:0|1:0,0:0:0:0:
247,36,153998,5,8,0:0:0:0:
276,376,154141,1,0,0:0:0:0:
355,33,154284,6,0,L|377:303,1,254.999992847443,0|0,0:0|1:0,0:0:0:0:
473,358,154569,2,0,L|451:88,1,254.999992847443,8|0,0:0|1:0,0:0:0:0:
257,123,154855,6,0,B|356:32|356:32|459:109,1,254.999992847443,0|0,0:0|1:0,0:0:0:0:
375,287,155141,2,0,B|276:378|276:378|173:301,1,254.999992847443,8|0,0:0|1:0,0:0:0:0:
50,216,155427,6,0,L|341:207,1,254.999992847443,0|0,0:0|1:0,0:0:0:0:
69,108,155712,2,0,P|134:194|85:350,1,254.999992847443,8|0,0:0|1:0,0:0:0:0:
36,359,155998,5,0,0:0:0:0:
69,108,156141,1,0,0:0:0:0:
240,330,156284,6,0,B|361:325|361:325|344:318|344:318|466:313,1,254.999992847443,8|0,0:0|1:0,0:0:0:0:
395,139,156569,2,0,B|359:254|359:254|416:406,1,254.999992847443,0|0,0:0|1:0,0:0:0:0:
251,241,156855,6,0,B|287:126|287:126|230:-26,1,254.999992847443,12|0,0:0|1:0,0:0:0:0:
140,54,157141,2,0,P|273:87|368:22,1,254.999992847443,0|0,0:0|1:0,0:0:0:0:
367,258,157427,6,0,P|260:321|141:285,1,254.999992847443,8|0,0:0|1:0,0:0:0:0:
0,248,157712,2,0,L|254:241,1,254.999992847443,0|0,0:0|1:0,0:0:0:0:
512,316,157998,6,0,L|258:323,1,254.999992847443,8|0,0:0|1:0,0:0:0:0:
141,335,158284,5,0,0:0:0:0:
451,237,158427,1,0,0:0:0:0:
338,384,158569,6,0,B|318:307|344:247|344:247|378:182|345:124,1,254.999992847443,8|0,0:0|1:0,0:0:0:0:
238,41,158855,2,0,P|345:97|448:-6,1,254.999992847443,0|0,0:0|1:0,0:0:0:0:
118,33,159141,6,2,P|88:67|97:125,3,84.9999976158143,10|2|2|2,0:0|0:0|0:0|0:0,0:0:0:0:
147,179,159427,2,2,P|177:145|168:87,3,84.9999976158143
52,169,159712,6,2,P|54:214|102:248,3,84.9999976158143,10|2|2|2,0:0|0:0|0:0|0:0,0:0:0:0:
175,251,159998,2,2,P|172:205|124:171,3,84.9999976158143
175,251,160284,6,2,P|165:297|187:342,1,84.9999976158143,10|2,0:0|0:0,0:0:0:0:
334,331,160427,2,2,P|347:291|337:251,1,84.9999976158143
120,145,160569,6,2,P|81:162|47:202,1,84.9999976158143
459,192,160712,2,2,P|430:162|392:145,1,84.9999976158143
40,18,160855,6,2,P|35:59|44:101,1,84.9999976158143,10|2,0:0|0:0,0:0:0:0:
467,101,160998,2,2,P|476:60|472:18,1,84.9999976158143
63,265,161141,5,2,0:0:0:0:
119,258,161212,1,2,0:0:0:0:
175,251,161283,1,2,0:0:0:0:
231,244,161355,1,2,0:0:0:0:
317,282,161427,6,0,P|418:222|375:112,1,254.999992847443,12|0,0:0|1:0,0:0:0:0:
261,59,161712,1,0,0:0:0:0:
317,282,161855,1,0,0:0:0:0:
117,67,161998,1,8,0:0:0:0:
331,193,162141,1,0,0:0:0:0:
126,347,162284,6,0,L|41:334,1,84.9999976158143,0|0,0:0|1:0,0:0:0:0:
206,142,162427,2,2,L|194:100,2,42.4999988079071
1,260,162569,6,0,B|105:197|105:197|254:244,1,254.999992847443,10|0,0:0|1:0,0:0:0:0:
304,341,162855,2,0,L|218:350,1,84.9999976158143,0|0,0:0|1:0,0:0:0:0:
402,72,162998,2,0,P|413:180|306:158,1,254.999992847443,2|0,0:0|1:0,0:0:0:0:
299,54,163284,1,0,0:0:0:0:
454,292,163427,1,0,0:0:0:0:
38,211,163569,1,0,0:0:0:0:
290,375,163712,6,0,B|365:264|365:264|303:154,1,254.999992847443,10|0,0:0|1:0,0:0:0:0:
224,63,163998,1,0,0:0:0:0:
110,384,164141,1,0,0:0:0:0:
34,92,164284,1,8,0:0:0:0:
290,375,164427,1,0,0:0:0:0:
445,60,164569,6,0,L|439:144,1,84.9999976158143,0|0,0:0|1:0,0:0:0:0:
216,310,164712,2,2,L|149:293,2,42.4999988079071
389,297,164855,6,0,B|464:235|464:235|307:253,1,254.999992847443,10|0,0:0|1:0,0:0:0:0:
148,318,165141,2,0,L|234:338,1,84.9999976158143,0|0,0:0|1:0,0:0:0:0:
164,88,165284,2,0,B|260:0|260:0|344:93,1,254.999992847443,2|0,0:0|1:0,0:0:0:0:
417,177,165569,1,0,0:0:0:0:
148,318,165712,1,0,0:0:0:0:
364,18,165855,1,0,0:0:0:0:
402,372,165998,6,2,L|380:189,1,169.999995231629,10|0,0:0|1:0,0:0:0:0:
242,46,166212,1,2,0:0:0:0:
242,46,166284,2,2,L|262:214,1,169.999995231629,2|0,0:0|1:0,0:0:0:0:
110,372,166498,5,2,0:0:0:0:
110,372,166569,2,2,L|132:189,1,169.999995231629,10|0,0:0|0:0,0:0:0:0:
270,46,166783,1,2,0:0:0:0:
270,46,166855,2,2,L|249:214,1,169.999995231629,2|0,0:0|0:0,0:0:0:0:
19,156,167069,5,2,0:0:0:0:
19,156,167141,2,2,P|78:101|156:124,1,169.999995231629,10|0,0:0|0:0,0:0:0:0:
186,273,167355,1,2,0:0:0:0:
186,273,167427,2,2,P|126:327|48:304,1,169.999995231629,2|0,0:0|0:0,0:0:0:0:
106,82,167641,5,2,0:0:0:0:
106,82,167712,2,2,P|147:89|177:118,1,84.9999976158143,10|2,0:0|0:0,0:0:0:0:
106,242,167855,2,2,P|64:234|34:205,1,84.9999976158143
302,327,167998,2,2,P|343:319|373:290,1,84.9999976158143
302,167,168141,2,2,P|260:174|230:203,1,84.9999976158143
498,336,168284,6,0,L|505:251,1,84.9999976158143,8|0,0:0|1:0,0:0:0:0:
378,50,168427,2,0,B|336:123|336:123|384:340,1,254.999992847443,2|0,0:0|1:0,0:0:0:0:
495,338,168712,6,0,P|511:300|505:251,1,84.9999976158143,0|0,0:0|1:0,0:0:0:0:
378,49,168855,2,0,P|338:169|374:293,1,254.999992847443,8|0,0:0|1:0,0:0:0:0:
495,338,169141,6,0,B|521:302|521:302|494:229,1,84.9999976158143,0|0,0:0|1:0,0:0:0:0:
377,50,169284,2,0,B|336:222|336:222|381:307,1,254.999992847443
495,338,169569,6,0,P|521:315|506:273,1,84.9999976158143
377,50,169712,2,0,B|349:103|349:103|345:238|345:238|379:304,1,254.999992847443,8|0,0:0|0:0,0:0:0:0:
239,226,169998,5,10,0:0:0:0:
306,175,170069,1,2,0:0:0:0:
388,178,170140,1,2,0:0:0:0:
442,238,170212,1,2,0:0:0:0:
512,166,170284,5,10,0:0:0:0:
470,76,170355,1,2,0:0:0:0:
375,50,170427,1,2,0:0:0:0:
294,105,170498,1,2,0:0:0:0:
388,178,170569,6,0,B|368:219|288:240|198:180|221:88|156:60|156:60|133:-4|51:-7|0:55|0:55|30:137|127:108|59:82,1,637.499982118607,14|0,0:0|1:0,0:0:0:0:
143,186,171887,6,0,B|115:238|-2:278|-2:278|148:258|203:305|203:305|306:380|388:377|421:347|345:291|342:344,1,637.499982118607,2|0,0:0|1:0,0:0:0:0:
137,364,173206,6,0,B|156:218|272:237|272:237|376:228|394:137|394:137|405:51|311:-2|195:113|336:184|352:101,1,637.499982118607,2|0,0:0|1:0,0:0:0:0:
70,216,174525,6,0,B|122:114|221:118|221:118|288:130|329:99|329:99|401:140|503:169|557:72|478:4|396:23|379:97,1,637.499982118607,2|0,0:0|1:0,0:0:0:0:
399,332,175843,6,0,B|357:331|344:371|423:402|516:393|525:305|493:208|348:236|314:293|314:293|348:236|225:196|225:196|159:127|61:152|19:271|74:343|191:370|264:272|224:195|224:195|292:143|360:167|360:167|436:190|513:147|536:37|455:-61|339:-52|241:61|326:115|395:76,1,1606.4999059124,2|0,0:0|0:0,0:0:0:0:
256,192,181118,12,0,186393,0:0:0:0:
