osu file format v14

[General]
AudioFilename: audio.mp3
AudioLeadIn: 0
PreviewTime: 31511
Countdown: 0
SampleSet: Normal
StackLeniency: 0.7
Mode: 3
LetterboxInBreaks: 0
SpecialStyle: 0
WidescreenStoryboard: 0

[Editor]
DistanceSpacing: 0.8
BeatDivisor: 4
GridSize: 16
TimelineZoom: 1.9

[Metadata]
Title:- FALLEN -
TitleUnicode:- ΓΛLLΞИ -
Artist:Kaneko Chiharu
ArtistUnicode:かねこちはる
Creator:[KonG-69]
Version:- KinG -
Source:
Tags:LΞGΞNDARY -Episode.1- Legendary D_arc Aishdoll 5cm
BeatmapID:2179375
BeatmapSetID:1042654

[Difficulty]
HPDrainRate:8
CircleSize:7
OverallDifficulty:8
ApproachRate:5
SliderMultiplier:1.4
SliderTickRate:1

[Events]
//Background and Video events
0,0,"uwu11.jpg",0,0
//Break Periods
//Storyboard Layer 0 (Background)
//Storyboard Layer 1 (Fail)
//Storyboard Layer 2 (Pass)
//Storyboard Layer 3 (Foreground)
//Storyboard Layer 4 (Overlay)
//Storyboard Sound Samples

[TimingPoints]
1911,285.714285714286,4,1,1,30,1,0
12482,322.58064516129,4,1,1,30,1,0
12482,-89.2857142857143,4,1,1,30,0,0
15062,333.333333333333,4,1,1,30,1,0
15062,-86.2068965517241,4,1,1,30,0,0
17728,326.086956521739,4,1,1,30,1,0
17728,-87.719298245614,4,1,1,30,0,0
20336,333.333333333333,4,1,1,30,1,0
20336,-86.2068965517241,4,1,1,30,0,0
23002,288.461538461538,4,1,1,30,1,0
23002,-99.1080277502478,4,1,1,30,0,0
25598,300,4,1,1,30,1,0
25598,-95.2380952380952,4,1,1,30,0,0
28298,285.714285714286,4,1,1,30,1,0
28298,-100,4,1,1,30,0,0
30905,-50,4,1,1,30,0,0
31119,-200,4,1,1,30,0,0
31548,-55.5555555555556,4,1,1,30,0,0
31869,-200,4,1,1,30,0,0
32155,-55.5555555555556,4,1,1,30,0,0
32440,-200,4,1,1,30,0,0
32798,-55.5555555555556,4,1,1,30,0,0
33155,-200,4,1,1,30,0,0
33369,285.714285714286,4,1,1,30,1,0
33369,-100,4,1,1,30,0,1
47083,-100,4,1,1,30,0,0
74226,-20,4,1,1,30,0,0
74297,-333.333333333333,4,1,1,30,0,0
74511,-100,4,1,1,30,0,0
92797,-100,4,1,1,30,0,1
111083,-100,4,1,1,30,0,0
129369,-100,4,1,1,30,0,1
142940,-100,4,1,1,30,0,0
147583,-100,4,1,1,30,0,0
147654,-100,4,1,1,30,0,1
161369,-100,4,1,1,30,0,0

[HitObjects]
36,192,1911,128,0,3268:0:0:0:0:
475,192,1911,128,0,3268:0:0:0:0:
329,192,3268,128,0,4553:0:0:0:0:
182,192,3268,128,0,4553:0:0:0:0:
402,192,4553,128,0,5839:0:0:0:0:
109,192,4553,128,0,5839:0:0:0:0:
475,192,5839,128,0,7196:0:0:0:0:
36,192,5839,128,0,7196:0:0:0:0:
109,192,7196,1,0,0:0:0:0:
402,192,7196,1,0,0:0:0:0:
329,192,7268,1,0,0:0:0:0:
182,192,7268,1,0,0:0:0:0:
109,192,7339,1,0,0:0:0:0:
402,192,7339,1,0,0:0:0:0:
475,192,7411,1,0,0:0:0:0:
36,192,7411,1,0,0:0:0:0:
182,192,7482,1,0,0:0:0:0:
329,192,7482,1,0,0:0:0:0:
256,192,7553,1,0,0:0:0:0:
36,192,7625,1,0,0:0:0:0:
475,192,7625,1,0,0:0:0:0:
402,192,7696,1,0,0:0:0:0:
109,192,7696,1,0,0:0:0:0:
182,192,7768,1,0,0:0:0:0:
329,192,7768,1,0,0:0:0:0:
256,192,7839,1,0,0:0:0:0:
36,192,7911,1,0,0:0:0:0:
329,192,7911,1,0,0:0:0:0:
109,192,7982,1,0,0:0:0:0:
402,192,7982,1,0,0:0:0:0:
182,192,8053,1,0,0:0:0:0:
475,192,8053,1,0,0:0:0:0:
256,192,8125,1,0,0:0:0:0:
36,192,8196,1,0,0:0:0:0:
329,192,8196,1,0,0:0:0:0:
402,192,8268,1,0,0:0:0:0:
109,192,8268,1,0,0:0:0:0:
182,192,8339,1,0,0:0:0:0:
475,192,8339,1,0,0:0:0:0:
109,192,8411,1,0,0:0:0:0:
402,192,8411,1,0,0:0:0:0:
36,192,8482,1,0,0:0:0:0:
329,192,8482,1,0,0:0:0:0:
402,192,8553,1,0,0:0:0:0:
109,192,8553,1,0,0:0:0:0:
182,192,8625,1,0,0:0:0:0:
475,192,8625,1,0,0:0:0:0:
402,192,8696,1,0,0:0:0:0:
109,192,8696,1,0,0:0:0:0:
329,192,8768,1,0,0:0:0:0:
36,192,8768,1,0,0:0:0:0:
402,192,8839,1,0,0:0:0:0:
109,192,8839,1,0,0:0:0:0:
475,192,8911,1,0,0:0:0:0:
182,192,8911,1,0,0:0:0:0:
402,192,8982,1,0,0:0:0:0:
109,192,8982,1,0,0:0:0:0:
36,192,9053,1,0,0:0:0:0:
329,192,9053,1,0,0:0:0:0:
109,192,9125,1,0,0:0:0:0:
402,192,9125,1,0,0:0:0:0:
182,192,9196,1,0,0:0:0:0:
475,192,9196,1,0,0:0:0:0:
256,192,9268,1,0,0:0:0:0:
36,192,9268,1,0,0:0:0:0:
329,192,9339,1,0,0:0:0:0:
109,192,9339,1,0,0:0:0:0:
109,192,9911,1,0,0:0:0:0:
329,192,9911,1,0,0:0:0:0:
402,192,9982,1,0,0:0:0:0:
182,192,9982,1,0,0:0:0:0:
475,192,10053,1,0,0:0:0:0:
256,192,10053,1,0,0:0:0:0:
36,192,10125,1,0,0:0:0:0:
329,192,10125,1,0,0:0:0:0:
109,192,10196,1,0,0:0:0:0:
402,192,10196,1,0,0:0:0:0:
182,192,10268,1,0,0:0:0:0:
475,192,10268,1,0,0:0:0:0:
256,192,10339,1,0,0:0:0:0:
36,192,10339,1,0,0:0:0:0:
329,192,10411,1,0,0:0:0:0:
109,192,10411,1,0,0:0:0:0:
402,192,10482,1,0,0:0:0:0:
182,192,10482,1,0,0:0:0:0:
475,192,10553,1,0,0:0:0:0:
256,192,10553,1,0,0:0:0:0:
402,192,10625,1,0,0:0:0:0:
182,192,10625,1,0,0:0:0:0:
329,192,10696,1,0,0:0:0:0:
109,192,10696,1,0,0:0:0:0:
475,192,10768,1,0,0:0:0:0:
256,192,10768,1,0,0:0:0:0:
182,192,10839,1,0,0:0:0:0:
402,192,10839,1,0,0:0:0:0:
109,192,10911,1,0,0:0:0:0:
329,192,10911,1,0,0:0:0:0:
36,192,10982,1,0,0:0:0:0:
256,192,10982,1,0,0:0:0:0:
182,192,11053,1,0,0:0:0:0:
402,192,11053,1,0,0:0:0:0:
182,192,11768,1,0,0:0:0:0:
402,192,11768,1,0,0:0:0:0:
109,192,11839,1,0,0:0:0:0:
329,192,11839,1,0,0:0:0:0:
36,192,11911,1,0,0:0:0:0:
256,192,11911,1,0,0:0:0:0:
109,192,11982,1,0,0:0:0:0:
329,192,11982,1,0,0:0:0:0:
256,192,12053,1,0,0:0:0:0:
475,192,12053,1,0,0:0:0:0:
329,192,12125,1,0,0:0:0:0:
36,192,12125,1,0,0:0:0:0:
402,192,12196,1,0,0:0:0:0:
109,192,12196,1,0,0:0:0:0:
475,192,12268,1,0,0:0:0:0:
182,192,12268,1,0,0:0:0:0:
256,192,12339,1,0,0:0:0:0:
109,192,12411,1,0,0:0:0:0:
329,192,12411,1,0,0:0:0:0:
36,192,12482,1,0,0:0:0:0:
256,192,12482,1,0,0:0:0:0:
475,192,12482,1,0,0:0:0:0:
256,192,15062,1,0,0:0:0:0:
402,192,15062,1,0,0:0:0:0:
109,192,15062,1,0,0:0:0:0:
36,192,17728,1,0,0:0:0:0:
256,192,17728,1,0,0:0:0:0:
475,192,17728,1,0,0:0:0:0:
36,192,20336,1,0,0:0:0:0:
182,192,20336,1,0,0:0:0:0:
329,192,20336,1,0,0:0:0:0:
402,192,20336,1,0,0:0:0:0:
109,192,20502,1,0,0:0:0:0:
182,192,20502,1,0,0:0:0:0:
329,192,20502,1,0,0:0:0:0:
475,192,20502,1,0,0:0:0:0:
329,192,21169,1,0,0:0:0:0:
475,192,21169,1,0,0:0:0:0:
256,192,21169,1,0,0:0:0:0:
36,192,21502,1,0,0:0:0:0:
109,192,21502,1,0,0:0:0:0:
256,192,21502,1,0,0:0:0:0:
109,192,21836,1,0,0:0:0:0:
256,192,21836,1,0,0:0:0:0:
402,192,21836,1,0,0:0:0:0:
182,192,22169,1,0,0:0:0:0:
329,192,22169,1,0,0:0:0:0:
475,192,22169,1,0,0:0:0:0:
36,192,22502,1,0,0:0:0:0:
182,192,22585,1,0,0:0:0:0:
36,192,22669,1,0,0:0:0:0:
256,192,23002,1,0,0:0:0:0:
402,192,23002,1,0,0:0:0:0:
475,192,23002,1,0,0:0:0:0:
402,192,23182,1,0,0:0:0:0:
475,192,23182,1,0,0:0:0:0:
402,192,23506,1,0,0:0:0:0:
475,192,23506,1,0,0:0:0:0:
109,192,23867,1,0,0:0:0:0:
36,192,23867,1,0,0:0:0:0:
109,192,24155,1,0,0:0:0:0:
36,192,24155,1,0,0:0:0:0:
109,192,24516,1,0,0:0:0:0:
36,192,24516,1,0,0:0:0:0:
109,192,24840,1,0,0:0:0:0:
36,192,24840,1,0,0:0:0:0:
36,192,25021,1,0,0:0:0:0:
109,192,25021,1,0,0:0:0:0:
402,192,25165,1,0,0:0:0:0:
256,192,25237,1,0,0:0:0:0:
402,192,25309,1,0,0:0:0:0:
329,192,25309,1,0,0:0:0:0:
402,192,25673,1,0,0:0:0:0:
329,192,25673,1,0,0:0:0:0:
329,192,25823,1,0,0:0:0:0:
402,192,25823,1,0,0:0:0:0:
402,192,26148,1,0,0:0:0:0:
329,192,26148,1,0,0:0:0:0:
109,192,26498,1,0,0:0:0:0:
182,192,26498,1,0,0:0:0:0:
109,192,26798,1,0,0:0:0:0:
182,192,26798,1,0,0:0:0:0:
109,192,27148,1,0,0:0:0:0:
182,192,27148,1,0,0:0:0:0:
109,192,27473,1,0,0:0:0:0:
182,192,27473,1,0,0:0:0:0:
182,192,27623,1,0,0:0:0:0:
109,192,27623,1,0,0:0:0:0:
329,192,27848,1,0,0:0:0:0:
182,192,27923,1,0,0:0:0:0:
329,192,27998,1,0,0:0:0:0:
256,192,27998,1,0,0:0:0:0:
475,192,28298,1,0,0:0:0:0:
36,192,28298,1,0,0:0:0:0:
182,192,28440,1,0,0:0:0:0:
329,192,28440,1,0,0:0:0:0:
36,192,28583,128,0,30905:0:0:0:0:
475,192,28583,128,0,30905:0:0:0:0:
109,192,28798,1,0,0:0:0:0:
182,192,28798,1,0,0:0:0:0:
402,192,28798,1,0,0:0:0:0:
329,192,29083,1,0,0:0:0:0:
402,192,29083,1,0,0:0:0:0:
109,192,29298,1,0,0:0:0:0:
182,192,29440,1,0,0:0:0:0:
256,192,29440,1,0,0:0:0:0:
329,192,29440,1,0,0:0:0:0:
109,192,29762,5,0,0:0:0:0:
182,192,29762,1,0,0:0:0:0:
256,192,29940,1,0,0:0:0:0:
182,192,30119,1,0,0:0:0:0:
329,192,30119,1,0,0:0:0:0:
402,192,30119,1,0,0:0:0:0:
182,192,30298,1,0,0:0:0:0:
109,192,30298,1,0,0:0:0:0:
329,192,30583,1,0,0:0:0:0:
402,192,30583,1,0,0:0:0:0:
329,192,30905,5,0,0:0:0:0:
402,192,30905,1,0,0:0:0:0:
109,192,30905,1,0,0:0:0:0:
182,192,30905,1,0,0:0:0:0:
36,192,31548,128,0,32119:0:0:0:0:
182,192,31548,128,0,32119:0:0:0:0:
329,192,31548,128,0,32119:0:0:0:0:
256,192,32155,128,0,32798:0:0:0:0:
109,192,32155,128,0,32798:0:0:0:0:
402,192,32155,128,0,32798:0:0:0:0:
182,192,32798,128,0,33369:0:0:0:0:
329,192,32798,128,0,33369:0:0:0:0:
475,192,32798,128,0,33369:0:0:0:0:
36,192,33369,128,0,34797:0:0:0:0:
402,192,33369,128,0,35083:0:0:0:0:
109,192,33369,1,0,0:0:0:0:
256,192,33369,1,0,0:0:0:0:
256,192,33654,1,0,0:0:0:0:
109,192,33654,1,0,0:0:0:0:
182,192,33654,1,0,0:0:0:0:
329,192,33797,1,0,0:0:0:0:
475,192,33797,1,0,0:0:0:0:
109,192,33940,1,0,0:0:0:0:
329,192,34083,1,0,0:0:0:0:
256,192,34083,1,0,0:0:0:0:
475,192,34226,1,0,0:0:0:0:
109,192,34226,1,0,0:0:0:0:
182,192,34226,1,0,0:0:0:0:
256,192,34369,1,0,0:0:0:0:
329,192,34369,1,0,0:0:0:0:
109,192,34511,1,0,0:0:0:0:
182,192,34654,1,0,0:0:0:0:
329,192,34654,1,0,0:0:0:0:
256,192,34797,1,0,0:0:0:0:
475,192,34797,1,0,0:0:0:0:
109,192,34797,128,0,35369:0:0:0:0:
329,192,34940,1,0,0:0:0:0:
36,192,34940,1,0,0:0:0:0:
475,192,35083,128,0,35654:0:0:0:0:
402,192,35226,1,0,0:0:0:0:
36,192,35226,1,0,0:0:0:0:
256,192,35369,128,0,35654:0:0:0:0:
329,192,35369,1,0,0:0:0:0:
182,192,35369,1,0,0:0:0:0:
36,192,35654,128,0,37369:0:0:0:0:
329,192,35654,128,0,37083:0:0:0:0:
109,192,35940,1,0,0:0:0:0:
182,192,35940,1,0,0:0:0:0:
256,192,35940,1,0,0:0:0:0:
402,192,36083,1,0,0:0:0:0:
475,192,36083,1,0,0:0:0:0:
109,192,36226,128,0,36369:0:0:0:0:
402,192,36226,128,0,36369:0:0:0:0:
182,192,36369,128,0,36511:0:0:0:0:
475,192,36369,128,0,36511:0:0:0:0:
402,192,36511,128,0,36654:0:0:0:0:
109,192,36511,1,0,0:0:0:0:
256,192,36511,1,0,0:0:0:0:
109,192,36654,128,0,36797:0:0:0:0:
256,192,36654,128,0,36797:0:0:0:0:
402,192,36797,1,0,0:0:0:0:
256,192,36940,1,0,0:0:0:0:
475,192,36940,1,0,0:0:0:0:
109,192,37083,128,0,37654:0:0:0:0:
402,192,37083,1,0,0:0:0:0:
182,192,37083,1,0,0:0:0:0:
329,192,37226,1,0,0:0:0:0:
475,192,37226,1,0,0:0:0:0:
256,192,37369,128,0,37940:0:0:0:0:
36,192,37511,1,0,0:0:0:0:
329,192,37511,1,0,0:0:0:0:
402,192,37654,128,0,37940:0:0:0:0:
182,192,37654,1,0,0:0:0:0:
475,192,37654,1,0,0:0:0:0:
36,192,37940,128,0,39369:0:0:0:0:
475,192,37940,128,0,39654:0:0:0:0:
109,192,37940,1,0,0:0:0:0:
182,192,37940,1,0,0:0:0:0:
256,192,38226,1,0,0:0:0:0:
329,192,38226,1,0,0:0:0:0:
402,192,38226,1,0,0:0:0:0:
182,192,38369,1,0,0:0:0:0:
109,192,38369,1,0,0:0:0:0:
402,192,38511,1,0,0:0:0:0:
182,192,38654,1,0,0:0:0:0:
256,192,38654,1,0,0:0:0:0:
109,192,38797,1,0,0:0:0:0:
402,192,38797,1,0,0:0:0:0:
329,192,38797,1,0,0:0:0:0:
182,192,38940,1,0,0:0:0:0:
256,192,38940,1,0,0:0:0:0:
402,192,39083,1,0,0:0:0:0:
109,192,39226,1,0,0:0:0:0:
182,192,39226,1,0,0:0:0:0:
402,192,39369,128,0,39940:0:0:0:0:
329,192,39369,1,0,0:0:0:0:
256,192,39369,1,0,0:0:0:0:
36,192,39511,1,0,0:0:0:0:
109,192,39511,1,0,0:0:0:0:
182,192,39654,128,0,40226:0:0:0:0:
256,192,39797,1,0,0:0:0:0:
329,192,39797,1,0,0:0:0:0:
109,192,39940,128,0,40226:0:0:0:0:
475,192,39940,1,0,0:0:0:0:
36,192,39940,1,0,0:0:0:0:
256,192,40226,128,0,41940:0:0:0:0:
36,192,40226,128,0,41654:0:0:0:0:
402,192,40511,1,0,0:0:0:0:
182,192,40511,1,0,0:0:0:0:
109,192,40511,1,0,0:0:0:0:
329,192,40654,1,0,0:0:0:0:
475,192,40654,1,0,0:0:0:0:
182,192,40797,1,0,0:0:0:0:
109,192,40940,1,0,0:0:0:0:
329,192,40940,1,0,0:0:0:0:
402,192,41083,1,0,0:0:0:0:
475,192,41083,1,0,0:0:0:0:
182,192,41083,1,0,0:0:0:0:
109,192,41226,1,0,0:0:0:0:
329,192,41226,1,0,0:0:0:0:
402,192,41369,1,0,0:0:0:0:
182,192,41511,1,0,0:0:0:0:
475,192,41511,1,0,0:0:0:0:
109,192,41654,128,0,42226:0:0:0:0:
402,192,41654,1,0,0:0:0:0:
329,192,41654,1,0,0:0:0:0:
182,192,41797,1,0,0:0:0:0:
36,192,41797,1,0,0:0:0:0:
402,192,41940,128,0,42511:0:0:0:0:
182,192,42083,1,0,0:0:0:0:
329,192,42083,1,0,0:0:0:0:
256,192,42226,128,0,42511:0:0:0:0:
36,192,42226,1,0,0:0:0:0:
475,192,42226,1,0,0:0:0:0:
109,192,42511,128,0,43940:0:0:0:0:
475,192,42511,128,0,44226:0:0:0:0:
36,192,42511,1,0,0:0:0:0:
329,192,42511,1,0,0:0:0:0:
329,192,42797,1,0,0:0:0:0:
256,192,42797,1,0,0:0:0:0:
182,192,42797,1,0,0:0:0:0:
36,192,42940,1,0,0:0:0:0:
402,192,42940,1,0,0:0:0:0:
329,192,43083,1,0,0:0:0:0:
36,192,43226,1,0,0:0:0:0:
256,192,43226,1,0,0:0:0:0:
182,192,43369,1,0,0:0:0:0:
329,192,43369,1,0,0:0:0:0:
402,192,43369,1,0,0:0:0:0:
36,192,43511,1,0,0:0:0:0:
256,192,43511,1,0,0:0:0:0:
402,192,43654,1,0,0:0:0:0:
182,192,43797,1,0,0:0:0:0:
256,192,43797,1,0,0:0:0:0:
36,192,43940,128,0,44511:0:0:0:0:
329,192,43940,1,0,0:0:0:0:
402,192,43940,1,0,0:0:0:0:
109,192,44083,1,0,0:0:0:0:
182,192,44083,1,0,0:0:0:0:
402,192,44226,128,0,44797:0:0:0:0:
109,192,44369,1,0,0:0:0:0:
256,192,44369,1,0,0:0:0:0:
182,192,44511,128,0,44797:0:0:0:0:
329,192,44511,1,0,0:0:0:0:
475,192,44511,1,0,0:0:0:0:
109,192,44797,1,0,0:0:0:0:
329,192,44797,1,0,0:0:0:0:
475,192,44797,1,0,0:0:0:0:
36,192,44869,1,0,0:0:0:0:
256,192,44869,1,0,0:0:0:0:
182,192,44940,1,0,0:0:0:0:
402,192,44940,1,0,0:0:0:0:
109,192,45011,1,0,0:0:0:0:
329,192,45011,1,0,0:0:0:0:
36,192,45083,1,0,0:0:0:0:
256,192,45083,1,0,0:0:0:0:
402,192,45083,1,0,0:0:0:0:
475,192,45154,1,0,0:0:0:0:
182,192,45154,1,0,0:0:0:0:
36,192,45226,1,0,0:0:0:0:
329,192,45226,1,0,0:0:0:0:
109,192,45297,1,0,0:0:0:0:
402,192,45297,1,0,0:0:0:0:
475,192,45369,1,0,0:0:0:0:
182,192,45369,1,0,0:0:0:0:
109,192,45440,1,0,0:0:0:0:
402,192,45440,1,0,0:0:0:0:
36,192,45511,1,0,0:0:0:0:
329,192,45511,1,0,0:0:0:0:
475,192,45583,1,0,0:0:0:0:
182,192,45583,1,0,0:0:0:0:
402,192,45654,1,0,0:0:0:0:
109,192,45654,1,0,0:0:0:0:
256,192,45654,1,0,0:0:0:0:
36,192,45726,1,0,0:0:0:0:
329,192,45726,1,0,0:0:0:0:
109,192,45797,1,0,0:0:0:0:
402,192,45797,1,0,0:0:0:0:
182,192,45869,1,0,0:0:0:0:
475,192,45869,1,0,0:0:0:0:
402,192,45940,1,0,0:0:0:0:
109,192,45940,1,0,0:0:0:0:
256,192,45940,1,0,0:0:0:0:
329,192,46011,1,0,0:0:0:0:
36,192,46011,1,0,0:0:0:0:
182,192,46083,1,0,0:0:0:0:
475,192,46083,1,0,0:0:0:0:
109,192,46154,1,0,0:0:0:0:
402,192,46154,1,0,0:0:0:0:
36,192,46226,1,0,0:0:0:0:
329,192,46226,1,0,0:0:0:0:
256,192,46226,1,0,0:0:0:0:
182,192,46297,1,0,0:0:0:0:
475,192,46297,1,0,0:0:0:0:
109,192,46369,1,0,0:0:0:0:
402,192,46369,1,0,0:0:0:0:
256,192,46369,1,0,0:0:0:0:
36,192,46440,1,0,0:0:0:0:
329,192,46440,1,0,0:0:0:0:
182,192,46511,1,0,0:0:0:0:
475,192,46511,1,0,0:0:0:0:
402,192,46583,1,0,0:0:0:0:
109,192,46583,1,0,0:0:0:0:
36,192,46654,1,0,0:0:0:0:
329,192,46654,1,0,0:0:0:0:
402,192,46726,1,0,0:0:0:0:
109,192,46726,1,0,0:0:0:0:
475,192,46797,1,0,0:0:0:0:
182,192,46797,1,0,0:0:0:0:
36,192,46869,1,0,0:0:0:0:
329,192,46869,1,0,0:0:0:0:
109,192,46940,1,0,0:0:0:0:
402,192,46940,1,0,0:0:0:0:
182,192,47011,1,0,0:0:0:0:
475,192,47011,1,0,0:0:0:0:
36,192,47083,128,0,47654:0:0:0:0:
256,192,47083,128,0,47369:0:0:0:0:
329,192,47083,1,0,0:0:0:0:
402,192,47083,1,0,0:0:0:0:
109,192,47083,1,0,0:0:0:0:
109,192,47226,128,0,47511:0:0:0:0:
329,192,47369,128,0,47940:0:0:0:0:
182,192,47511,128,0,47797:0:0:0:0:
109,192,47654,128,0,48226:0:0:0:0:
256,192,47797,128,0,48083:0:0:0:0:
402,192,47940,128,0,48511:0:0:0:0:
329,192,48083,128,0,48369:0:0:0:0:
182,192,48226,128,0,48797:0:0:0:0:
109,192,48369,128,0,48654:0:0:0:0:
475,192,48511,128,0,49083:0:0:0:0:
36,192,48654,128,0,48940:0:0:0:0:
256,192,48797,128,0,49369:0:0:0:0:
109,192,48940,128,0,49226:0:0:0:0:
36,192,49083,128,0,49654:0:0:0:0:
182,192,49226,128,0,49511:0:0:0:0:
475,192,49369,128,0,49940:0:0:0:0:
329,192,49369,1,0,0:0:0:0:
256,192,49511,128,0,49797:0:0:0:0:
182,192,49654,128,0,50226:0:0:0:0:
329,192,49797,128,0,50083:0:0:0:0:
402,192,49940,128,0,50511:0:0:0:0:
475,192,50083,128,0,50369:0:0:0:0:
109,192,50226,128,0,50797:0:0:0:0:
256,192,50369,128,0,50654:0:0:0:0:
329,192,50511,128,0,51083:0:0:0:0:
36,192,50511,1,0,0:0:0:0:
182,192,50654,128,0,50940:0:0:0:0:
36,192,50797,128,0,51369:0:0:0:0:
109,192,50940,128,0,51226:0:0:0:0:
475,192,51083,128,0,51654:0:0:0:0:
402,192,51226,128,0,51511:0:0:0:0:
109,192,51369,128,0,51654:0:0:0:0:
329,192,51511,128,0,51654:0:0:0:0:
36,192,51654,128,0,52226:0:0:0:0:
256,192,51654,128,0,51940:0:0:0:0:
402,192,51654,1,0,0:0:0:0:
182,192,51654,1,0,0:0:0:0:
402,192,51797,128,0,52083:0:0:0:0:
329,192,51940,128,0,52511:0:0:0:0:
475,192,52083,128,0,52369:0:0:0:0:
109,192,52226,128,0,52797:0:0:0:0:
256,192,52369,128,0,52654:0:0:0:0:
402,192,52511,128,0,53083:0:0:0:0:
329,192,52654,128,0,52940:0:0:0:0:
182,192,52797,128,0,53369:0:0:0:0:
36,192,52940,128,0,53226:0:0:0:0:
475,192,53083,128,0,53654:0:0:0:0:
109,192,53226,128,0,53511:0:0:0:0:
256,192,53369,128,0,53940:0:0:0:0:
182,192,53511,128,0,53797:0:0:0:0:
36,192,53654,128,0,54226:0:0:0:0:
109,192,53797,128,0,54083:0:0:0:0:
475,192,53940,128,0,54511:0:0:0:0:
329,192,53940,1,0,0:0:0:0:
256,192,54083,128,0,54369:0:0:0:0:
402,192,54083,1,0,0:0:0:0:
182,192,54226,128,0,54797:0:0:0:0:
109,192,54226,1,0,0:0:0:0:
329,192,54369,128,0,54654:0:0:0:0:
36,192,54369,1,0,0:0:0:0:
402,192,54511,128,0,55083:0:0:0:0:
109,192,54511,1,0,0:0:0:0:
475,192,54654,128,0,54940:0:0:0:0:
256,192,54654,1,0,0:0:0:0:
109,192,54797,128,0,55369:0:0:0:0:
329,192,54797,1,0,0:0:0:0:
256,192,54940,128,0,55226:0:0:0:0:
36,192,54940,1,0,0:0:0:0:
329,192,55083,128,0,55654:0:0:0:0:
475,192,55083,1,0,0:0:0:0:
182,192,55226,128,0,55511:0:0:0:0:
402,192,55226,1,0,0:0:0:0:
36,192,55369,128,0,55940:0:0:0:0:
256,192,55369,1,0,0:0:0:0:
109,192,55511,128,0,55654:0:0:0:0:
402,192,55511,1,0,0:0:0:0:
475,192,55654,128,0,56226:0:0:0:0:
182,192,55654,1,0,0:0:0:0:
402,192,55797,128,0,55940:0:0:0:0:
256,192,55797,1,0,0:0:0:0:
109,192,55940,128,0,57369:0:0:0:0:
329,192,55940,1,0,0:0:0:0:
182,192,56083,128,0,56226:0:0:0:0:
402,192,56083,1,0,0:0:0:0:
36,192,56226,128,0,57369:0:0:0:0:
256,192,56226,1,0,0:0:0:0:
329,192,56226,1,0,0:0:0:0:
475,192,56369,1,0,0:0:0:0:
182,192,56511,1,0,0:0:0:0:
402,192,56511,1,0,0:0:0:0:
475,192,56654,1,0,0:0:0:0:
329,192,56797,1,0,0:0:0:0:
256,192,56797,1,0,0:0:0:0:
475,192,56940,1,0,0:0:0:0:
182,192,57083,1,0,0:0:0:0:
402,192,57083,1,0,0:0:0:0:
256,192,57226,1,0,0:0:0:0:
475,192,57369,128,0,58511:0:0:0:0:
402,192,57369,128,0,58511:0:0:0:0:
182,192,57511,1,0,0:0:0:0:
36,192,57654,1,0,0:0:0:0:
256,192,57654,1,0,0:0:0:0:
329,192,57797,1,0,0:0:0:0:
182,192,57940,1,0,0:0:0:0:
109,192,57940,1,0,0:0:0:0:
329,192,58083,1,0,0:0:0:0:
36,192,58226,1,0,0:0:0:0:
256,192,58226,1,0,0:0:0:0:
182,192,58369,1,0,0:0:0:0:
109,192,58511,128,0,59654:0:0:0:0:
256,192,58511,128,0,59654:0:0:0:0:
36,192,58654,1,0,0:0:0:0:
402,192,58797,1,0,0:0:0:0:
329,192,58797,1,0,0:0:0:0:
36,192,58940,1,0,0:0:0:0:
475,192,59083,1,0,0:0:0:0:
182,192,59083,1,0,0:0:0:0:
36,192,59226,1,0,0:0:0:0:
329,192,59369,1,0,0:0:0:0:
402,192,59369,1,0,0:0:0:0:
36,192,59511,1,0,0:0:0:0:
329,192,59654,128,0,60797:0:0:0:0:
182,192,59654,128,0,60797:0:0:0:0:
402,192,59797,1,0,0:0:0:0:
109,192,59940,1,0,0:0:0:0:
36,192,59940,1,0,0:0:0:0:
402,192,60083,1,0,0:0:0:0:
256,192,60226,1,0,0:0:0:0:
475,192,60226,1,0,0:0:0:0:
402,192,60369,1,0,0:0:0:0:
109,192,60511,1,0,0:0:0:0:
36,192,60511,1,0,0:0:0:0:
402,192,60654,1,0,0:0:0:0:
36,192,60797,128,0,63083:0:0:0:0:
256,192,60797,128,0,63083:0:0:0:0:
475,192,60797,1,0,0:0:0:0:
402,192,60940,1,0,0:0:0:0:
109,192,61083,1,0,0:0:0:0:
182,192,61083,1,0,0:0:0:0:
402,192,61226,1,0,0:0:0:0:
329,192,61369,1,0,0:0:0:0:
475,192,61369,1,0,0:0:0:0:
402,192,61511,1,0,0:0:0:0:
182,192,61654,1,0,0:0:0:0:
109,192,61654,1,0,0:0:0:0:
475,192,61797,1,0,0:0:0:0:
329,192,61940,1,0,0:0:0:0:
402,192,61940,1,0,0:0:0:0:
182,192,62083,1,0,0:0:0:0:
109,192,62226,1,0,0:0:0:0:
475,192,62226,1,0,0:0:0:0:
182,192,62369,1,0,0:0:0:0:
402,192,62511,1,0,0:0:0:0:
329,192,62511,1,0,0:0:0:0:
182,192,62654,1,0,0:0:0:0:
109,192,62797,1,0,0:0:0:0:
475,192,62797,1,0,0:0:0:0:
402,192,62940,1,0,0:0:0:0:
182,192,63083,128,0,64226:0:0:0:0:
475,192,63083,128,0,64226:0:0:0:0:
36,192,63226,1,0,0:0:0:0:
329,192,63369,1,0,0:0:0:0:
256,192,63369,1,0,0:0:0:0:
109,192,63511,1,0,0:0:0:0:
36,192,63654,1,0,0:0:0:0:
402,192,63654,1,0,0:0:0:0:
109,192,63797,1,0,0:0:0:0:
329,192,63940,1,0,0:0:0:0:
256,192,63940,1,0,0:0:0:0:
36,192,64083,1,0,0:0:0:0:
329,192,64226,128,0,65369:0:0:0:0:
109,192,64226,128,0,65369:0:0:0:0:
402,192,64369,1,0,0:0:0:0:
182,192,64511,1,0,0:0:0:0:
256,192,64511,1,0,0:0:0:0:
402,192,64654,1,0,0:0:0:0:
475,192,64797,1,0,0:0:0:0:
36,192,64797,1,0,0:0:0:0:
402,192,64940,1,0,0:0:0:0:
256,192,65083,1,0,0:0:0:0:
36,192,65083,1,0,0:0:0:0:
182,192,65226,1,0,0:0:0:0:
402,192,65369,128,0,66511:0:0:0:0:
475,192,65369,128,0,66511:0:0:0:0:
36,192,65369,1,0,0:0:0:0:
256,192,65369,1,0,0:0:0:0:
109,192,65654,1,0,0:0:0:0:
256,192,65654,1,0,0:0:0:0:
182,192,65797,1,0,0:0:0:0:
36,192,65940,1,0,0:0:0:0:
329,192,65940,1,0,0:0:0:0:
182,192,66083,1,0,0:0:0:0:
256,192,66226,1,0,0:0:0:0:
109,192,66226,1,0,0:0:0:0:
329,192,66369,1,0,0:0:0:0:
36,192,66511,128,0,67654:0:0:0:0:
109,192,66511,128,0,67654:0:0:0:0:
182,192,66654,1,0,0:0:0:0:
329,192,66797,1,0,0:0:0:0:
475,192,66797,1,0,0:0:0:0:
402,192,66940,1,0,0:0:0:0:
182,192,67083,1,0,0:0:0:0:
256,192,67083,1,0,0:0:0:0:
329,192,67226,1,0,0:0:0:0:
402,192,67369,1,0,0:0:0:0:
475,192,67369,1,0,0:0:0:0:
182,192,67511,1,0,0:0:0:0:
402,192,67654,128,0,68797:0:0:0:0:
256,192,67654,128,0,68797:0:0:0:0:
329,192,67797,1,0,0:0:0:0:
36,192,67940,1,0,0:0:0:0:
109,192,67940,1,0,0:0:0:0:
329,192,68083,1,0,0:0:0:0:
182,192,68226,1,0,0:0:0:0:
475,192,68226,1,0,0:0:0:0:
329,192,68369,1,0,0:0:0:0:
109,192,68511,1,0,0:0:0:0:
36,192,68511,1,0,0:0:0:0:
475,192,68654,1,0,0:0:0:0:
329,192,68797,128,0,69940:0:0:0:0:
182,192,68797,128,0,69940:0:0:0:0:
109,192,68940,1,0,0:0:0:0:
36,192,69083,1,0,0:0:0:0:
475,192,69083,1,0,0:0:0:0:
256,192,69226,1,0,0:0:0:0:
109,192,69369,1,0,0:0:0:0:
402,192,69369,1,0,0:0:0:0:
256,192,69511,1,0,0:0:0:0:
475,192,69654,1,0,0:0:0:0:
36,192,69654,1,0,0:0:0:0:
109,192,69797,1,0,0:0:0:0:
475,192,69940,128,0,72226:0:0:0:0:
256,192,69940,128,0,72226:0:0:0:0:
329,192,70083,1,0,0:0:0:0:
36,192,70226,1,0,0:0:0:0:
182,192,70226,1,0,0:0:0:0:
109,192,70369,1,0,0:0:0:0:
402,192,70511,1,0,0:0:0:0:
329,192,70511,1,0,0:0:0:0:
36,192,70654,1,0,0:0:0:0:
109,192,70797,1,0,0:0:0:0:
182,192,70797,1,0,0:0:0:0:
402,192,70940,1,0,0:0:0:0:
36,192,71083,1,0,0:0:0:0:
329,192,71083,1,0,0:0:0:0:
182,192,71226,1,0,0:0:0:0:
402,192,71369,1,0,0:0:0:0:
329,192,71369,1,0,0:0:0:0:
109,192,71511,1,0,0:0:0:0:
182,192,71654,1,0,0:0:0:0:
36,192,71654,1,0,0:0:0:0:
109,192,71797,1,0,0:0:0:0:
329,192,71940,1,0,0:0:0:0:
402,192,71940,1,0,0:0:0:0:
182,192,72083,1,0,0:0:0:0:
329,192,72226,128,0,73369:0:0:0:0:
36,192,72226,128,0,73369:0:0:0:0:
402,192,72369,1,0,0:0:0:0:
109,192,72511,1,0,0:0:0:0:
182,192,72511,1,0,0:0:0:0:
256,192,72654,1,0,0:0:0:0:
402,192,72797,1,0,0:0:0:0:
475,192,72797,1,0,0:0:0:0:
109,192,72940,1,0,0:0:0:0:
256,192,73083,1,0,0:0:0:0:
182,192,73083,1,0,0:0:0:0:
475,192,73226,1,0,0:0:0:0:
402,192,73369,128,0,74226:0:0:0:0:
182,192,73369,128,0,74226:0:0:0:0:
109,192,73511,1,0,0:0:0:0:
36,192,73654,1,0,0:0:0:0:
256,192,73654,1,0,0:0:0:0:
475,192,73797,1,0,0:0:0:0:
109,192,73940,1,0,0:0:0:0:
329,192,73940,1,0,0:0:0:0:
475,192,74083,1,0,0:0:0:0:
109,192,74226,1,0,0:0:0:0:
36,192,74226,1,0,0:0:0:0:
329,192,74226,1,0,0:0:0:0:
256,192,74226,1,0,0:0:0:0:
256,192,74511,1,0,0:0:0:0:
475,192,74511,1,0,0:0:0:0:
182,192,74511,1,0,0:0:0:0:
402,192,74511,1,0,0:0:0:0:
36,192,74797,1,0,0:0:0:0:
256,192,74797,1,0,0:0:0:0:
329,192,74797,1,0,0:0:0:0:
109,192,74940,1,0,0:0:0:0:
402,192,74940,1,0,0:0:0:0:
256,192,75083,1,0,0:0:0:0:
36,192,75226,1,0,0:0:0:0:
109,192,75226,1,0,0:0:0:0:
402,192,75369,1,0,0:0:0:0:
475,192,75369,1,0,0:0:0:0:
182,192,75369,1,0,0:0:0:0:
36,192,75511,1,0,0:0:0:0:
256,192,75511,1,0,0:0:0:0:
402,192,75654,1,0,0:0:0:0:
256,192,75797,1,0,0:0:0:0:
475,192,75797,1,0,0:0:0:0:
36,192,75940,1,0,0:0:0:0:
182,192,75940,1,0,0:0:0:0:
329,192,75940,1,0,0:0:0:0:
109,192,76083,1,0,0:0:0:0:
256,192,76083,1,0,0:0:0:0:
402,192,76226,1,0,0:0:0:0:
256,192,76369,1,0,0:0:0:0:
329,192,76369,1,0,0:0:0:0:
36,192,76511,1,0,0:0:0:0:
109,192,76511,1,0,0:0:0:0:
402,192,76511,1,0,0:0:0:0:
109,192,76797,1,0,0:0:0:0:
182,192,76797,1,0,0:0:0:0:
256,192,77083,1,0,0:0:0:0:
402,192,77083,1,0,0:0:0:0:
475,192,77083,1,0,0:0:0:0:
329,192,77226,1,0,0:0:0:0:
109,192,77226,1,0,0:0:0:0:
256,192,77369,1,0,0:0:0:0:
109,192,77511,1,0,0:0:0:0:
36,192,77511,1,0,0:0:0:0:
182,192,77654,1,0,0:0:0:0:
256,192,77654,1,0,0:0:0:0:
475,192,77654,1,0,0:0:0:0:
402,192,77797,1,0,0:0:0:0:
329,192,77797,1,0,0:0:0:0:
182,192,77940,1,0,0:0:0:0:
36,192,78083,1,0,0:0:0:0:
256,192,78083,1,0,0:0:0:0:
182,192,78226,1,0,0:0:0:0:
329,192,78226,1,0,0:0:0:0:
402,192,78226,1,0,0:0:0:0:
475,192,78369,1,0,0:0:0:0:
109,192,78369,1,0,0:0:0:0:
329,192,78511,1,0,0:0:0:0:
182,192,78654,1,0,0:0:0:0:
256,192,78654,1,0,0:0:0:0:
109,192,78797,1,0,0:0:0:0:
36,192,78797,1,0,0:0:0:0:
402,192,78797,1,0,0:0:0:0:
182,192,79083,1,0,0:0:0:0:
329,192,79083,1,0,0:0:0:0:
256,192,79369,1,0,0:0:0:0:
329,192,79369,1,0,0:0:0:0:
109,192,79369,1,0,0:0:0:0:
402,192,79511,1,0,0:0:0:0:
475,192,79511,1,0,0:0:0:0:
329,192,79654,1,0,0:0:0:0:
256,192,79797,1,0,0:0:0:0:
36,192,79797,1,0,0:0:0:0:
182,192,79940,1,0,0:0:0:0:
475,192,79940,1,0,0:0:0:0:
109,192,79940,1,0,0:0:0:0:
36,192,80083,1,0,0:0:0:0:
329,192,80083,1,0,0:0:0:0:
109,192,80226,1,0,0:0:0:0:
182,192,80369,1,0,0:0:0:0:
402,192,80369,1,0,0:0:0:0:
329,192,80511,1,0,0:0:0:0:
475,192,80511,1,0,0:0:0:0:
109,192,80511,1,0,0:0:0:0:
36,192,80654,1,0,0:0:0:0:
182,192,80654,1,0,0:0:0:0:
256,192,80797,1,0,0:0:0:0:
329,192,80940,1,0,0:0:0:0:
402,192,80940,1,0,0:0:0:0:
109,192,81083,1,0,0:0:0:0:
182,192,81083,1,0,0:0:0:0:
475,192,81083,1,0,0:0:0:0:
109,192,81369,1,0,0:0:0:0:
36,192,81369,1,0,0:0:0:0:
402,192,81369,1,0,0:0:0:0:
256,192,81369,1,0,0:0:0:0:
329,192,81511,1,0,0:0:0:0:
475,192,81511,1,0,0:0:0:0:
182,192,81654,1,0,0:0:0:0:
109,192,81654,1,0,0:0:0:0:
402,192,81654,1,0,0:0:0:0:
329,192,81797,1,0,0:0:0:0:
256,192,81797,1,0,0:0:0:0:
475,192,81940,1,0,0:0:0:0:
109,192,81940,1,0,0:0:0:0:
402,192,81940,1,0,0:0:0:0:
182,192,82083,1,0,0:0:0:0:
256,192,82083,1,0,0:0:0:0:
402,192,82226,1,0,0:0:0:0:
329,192,82226,1,0,0:0:0:0:
109,192,82226,1,0,0:0:0:0:
182,192,82369,1,0,0:0:0:0:
36,192,82369,1,0,0:0:0:0:
109,192,82511,1,0,0:0:0:0:
256,192,82511,1,0,0:0:0:0:
329,192,82511,1,0,0:0:0:0:
402,192,82511,1,0,0:0:0:0:
182,192,82654,1,0,0:0:0:0:
475,192,82654,1,0,0:0:0:0:
329,192,82797,1,0,0:0:0:0:
256,192,82797,1,0,0:0:0:0:
109,192,82940,1,0,0:0:0:0:
36,192,82940,1,0,0:0:0:0:
182,192,82940,1,0,0:0:0:0:
329,192,83083,1,0,0:0:0:0:
402,192,83083,1,0,0:0:0:0:
109,192,83226,1,0,0:0:0:0:
256,192,83226,1,0,0:0:0:0:
329,192,83369,1,0,0:0:0:0:
475,192,83369,1,0,0:0:0:0:
182,192,83369,1,0,0:0:0:0:
36,192,83369,1,0,0:0:0:0:
109,192,83511,1,0,0:0:0:0:
256,192,83511,1,0,0:0:0:0:
402,192,83511,1,0,0:0:0:0:
475,192,83654,1,0,0:0:0:0:
36,192,83654,1,0,0:0:0:0:
256,192,83654,1,0,0:0:0:0:
109,192,83940,1,0,0:0:0:0:
329,192,83940,1,0,0:0:0:0:
402,192,83940,1,0,0:0:0:0:
182,192,84083,1,0,0:0:0:0:
36,192,84083,1,0,0:0:0:0:
329,192,84226,1,0,0:0:0:0:
256,192,84369,1,0,0:0:0:0:
475,192,84369,1,0,0:0:0:0:
109,192,84511,1,0,0:0:0:0:
36,192,84511,1,0,0:0:0:0:
329,192,84511,1,0,0:0:0:0:
402,192,84654,1,0,0:0:0:0:
182,192,84654,1,0,0:0:0:0:
256,192,84797,1,0,0:0:0:0:
329,192,84940,1,0,0:0:0:0:
109,192,84940,1,0,0:0:0:0:
402,192,85083,1,0,0:0:0:0:
475,192,85083,1,0,0:0:0:0:
36,192,85083,1,0,0:0:0:0:
329,192,85226,1,0,0:0:0:0:
182,192,85226,1,0,0:0:0:0:
109,192,85369,1,0,0:0:0:0:
36,192,85511,1,0,0:0:0:0:
329,192,85511,1,0,0:0:0:0:
182,192,85654,1,0,0:0:0:0:
256,192,85654,1,0,0:0:0:0:
475,192,85654,1,0,0:0:0:0:
36,192,85940,1,0,0:0:0:0:
329,192,85940,1,0,0:0:0:0:
402,192,86226,1,0,0:0:0:0:
182,192,86226,1,0,0:0:0:0:
109,192,86226,1,0,0:0:0:0:
329,192,86369,1,0,0:0:0:0:
475,192,86369,1,0,0:0:0:0:
182,192,86511,1,0,0:0:0:0:
256,192,86654,1,0,0:0:0:0:
36,192,86654,1,0,0:0:0:0:
402,192,86797,1,0,0:0:0:0:
475,192,86797,1,0,0:0:0:0:
182,192,86797,1,0,0:0:0:0:
109,192,86940,1,0,0:0:0:0:
329,192,86940,1,0,0:0:0:0:
256,192,87083,1,0,0:0:0:0:
182,192,87226,1,0,0:0:0:0:
402,192,87226,1,0,0:0:0:0:
109,192,87369,1,0,0:0:0:0:
36,192,87369,1,0,0:0:0:0:
475,192,87369,1,0,0:0:0:0:
182,192,87511,1,0,0:0:0:0:
329,192,87511,1,0,0:0:0:0:
402,192,87654,1,0,0:0:0:0:
475,192,87797,1,0,0:0:0:0:
182,192,87797,1,0,0:0:0:0:
329,192,87940,1,0,0:0:0:0:
256,192,87940,1,0,0:0:0:0:
36,192,87940,1,0,0:0:0:0:
182,192,88226,1,0,0:0:0:0:
109,192,88226,1,0,0:0:0:0:
329,192,88226,1,0,0:0:0:0:
256,192,88369,1,0,0:0:0:0:
402,192,88369,1,0,0:0:0:0:
329,192,88440,1,0,0:0:0:0:
182,192,88440,1,0,0:0:0:0:
109,192,88511,1,0,0:0:0:0:
36,192,88511,1,0,0:0:0:0:
402,192,88511,1,0,0:0:0:0:
182,192,88654,1,0,0:0:0:0:
329,192,88654,1,0,0:0:0:0:
256,192,88726,1,0,0:0:0:0:
402,192,88726,1,0,0:0:0:0:
475,192,88797,1,0,0:0:0:0:
182,192,88797,1,0,0:0:0:0:
109,192,88797,1,0,0:0:0:0:
402,192,88940,1,0,0:0:0:0:
329,192,88940,1,0,0:0:0:0:
256,192,89011,1,0,0:0:0:0:
182,192,89011,1,0,0:0:0:0:
36,192,89083,1,0,0:0:0:0:
475,192,89083,1,0,0:0:0:0:
109,192,89083,1,0,0:0:0:0:
109,192,89226,1,0,0:0:0:0:
182,192,89226,1,0,0:0:0:0:
329,192,89297,1,0,0:0:0:0:
256,192,89297,1,0,0:0:0:0:
402,192,89369,1,0,0:0:0:0:
475,192,89369,1,0,0:0:0:0:
36,192,89369,1,0,0:0:0:0:
182,192,89511,1,0,0:0:0:0:
329,192,89511,1,0,0:0:0:0:
109,192,89583,1,0,0:0:0:0:
402,192,89583,1,0,0:0:0:0:
256,192,89654,1,0,0:0:0:0:
36,192,89654,1,0,0:0:0:0:
475,192,89654,1,0,0:0:0:0:
402,192,89797,1,0,0:0:0:0:
109,192,89797,1,0,0:0:0:0:
329,192,89869,1,0,0:0:0:0:
182,192,89869,1,0,0:0:0:0:
256,192,89940,1,0,0:0:0:0:
36,192,89940,1,0,0:0:0:0:
475,192,89940,1,0,0:0:0:0:
182,192,90083,1,0,0:0:0:0:
329,192,90083,1,0,0:0:0:0:
475,192,90154,1,0,0:0:0:0:
36,192,90154,1,0,0:0:0:0:
109,192,90226,1,0,0:0:0:0:
256,192,90226,1,0,0:0:0:0:
402,192,90226,1,0,0:0:0:0:
182,192,90369,1,0,0:0:0:0:
329,192,90369,1,0,0:0:0:0:
329,192,90511,1,0,0:0:0:0:
36,192,90511,1,0,0:0:0:0:
402,192,90583,1,0,0:0:0:0:
109,192,90583,1,0,0:0:0:0:
182,192,90654,1,0,0:0:0:0:
475,192,90654,1,0,0:0:0:0:
109,192,90726,1,0,0:0:0:0:
402,192,90726,1,0,0:0:0:0:
36,192,90797,1,0,0:0:0:0:
329,192,90797,1,0,0:0:0:0:
182,192,90869,1,0,0:0:0:0:
475,192,90869,1,0,0:0:0:0:
109,192,90940,1,0,0:0:0:0:
402,192,90940,1,0,0:0:0:0:
36,192,91011,1,0,0:0:0:0:
329,192,91011,1,0,0:0:0:0:
109,192,91083,1,0,0:0:0:0:
402,192,91083,1,0,0:0:0:0:
256,192,91083,1,0,0:0:0:0:
182,192,91154,1,0,0:0:0:0:
475,192,91154,1,0,0:0:0:0:
36,192,91226,1,0,0:0:0:0:
256,192,91226,1,0,0:0:0:0:
402,192,91226,1,0,0:0:0:0:
329,192,91297,1,0,0:0:0:0:
109,192,91297,1,0,0:0:0:0:
402,192,91369,1,0,0:0:0:0:
182,192,91369,1,0,0:0:0:0:
475,192,91440,1,0,0:0:0:0:
109,192,91440,1,0,0:0:0:0:
36,192,91511,1,0,0:0:0:0:
402,192,91511,1,0,0:0:0:0:
256,192,91511,1,0,0:0:0:0:
109,192,91583,1,0,0:0:0:0:
329,192,91583,1,0,0:0:0:0:
182,192,91654,1,0,0:0:0:0:
402,192,91654,1,0,0:0:0:0:
109,192,91726,1,0,0:0:0:0:
36,192,91726,1,0,0:0:0:0:
329,192,91726,1,0,0:0:0:0:
402,192,91869,1,0,0:0:0:0:
475,192,91869,1,0,0:0:0:0:
36,192,91940,1,0,0:0:0:0:
109,192,91940,1,0,0:0:0:0:
256,192,91940,1,0,0:0:0:0:
329,192,92011,1,0,0:0:0:0:
402,192,92011,1,0,0:0:0:0:
109,192,92083,1,0,0:0:0:0:
182,192,92083,1,0,0:0:0:0:
475,192,92083,1,0,0:0:0:0:
256,192,92154,1,0,0:0:0:0:
329,192,92154,1,0,0:0:0:0:
36,192,92226,1,0,0:0:0:0:
109,192,92226,1,0,0:0:0:0:
402,192,92226,1,0,0:0:0:0:
182,192,92297,1,0,0:0:0:0:
256,192,92297,1,0,0:0:0:0:
36,192,92369,1,0,0:0:0:0:
402,192,92369,1,0,0:0:0:0:
329,192,92369,1,0,0:0:0:0:
109,192,92440,1,0,0:0:0:0:
182,192,92440,1,0,0:0:0:0:
402,192,92511,1,0,0:0:0:0:
475,192,92511,1,0,0:0:0:0:
256,192,92511,1,0,0:0:0:0:
36,192,92583,1,0,0:0:0:0:
109,192,92583,1,0,0:0:0:0:
329,192,92654,1,0,0:0:0:0:
402,192,92654,1,0,0:0:0:0:
256,192,92726,1,0,0:0:0:0:
109,192,92726,1,0,0:0:0:0:
36,192,92726,1,0,0:0:0:0:
475,192,92797,1,0,0:0:0:0:
182,192,92797,128,0,92940:0:0:0:0:
402,192,92797,128,0,92940:0:0:0:0:
329,192,93083,128,0,93226:0:0:0:0:
109,192,93083,128,0,93226:0:0:0:0:
475,192,93083,1,0,0:0:0:0:
36,192,93226,128,0,93369:0:0:0:0:
256,192,93226,128,0,93369:0:0:0:0:
109,192,93369,1,0,0:0:0:0:
402,192,93511,128,0,93654:0:0:0:0:
182,192,93511,128,0,93654:0:0:0:0:
256,192,93654,128,0,93797:0:0:0:0:
475,192,93654,128,0,93797:0:0:0:0:
109,192,93654,1,0,0:0:0:0:
329,192,93797,1,0,0:0:0:0:
109,192,93940,128,0,94083:0:0:0:0:
256,192,93940,128,0,94083:0:0:0:0:
329,192,94083,128,0,94226:0:0:0:0:
475,192,94083,128,0,94226:0:0:0:0:
109,192,94226,1,0,0:0:0:0:
36,192,94226,1,0,0:0:0:0:
256,192,94226,1,0,0:0:0:0:
329,192,94369,128,0,94511:0:0:0:0:
475,192,94369,128,0,94511:0:0:0:0:
256,192,94511,128,0,94654:0:0:0:0:
109,192,94511,128,0,94654:0:0:0:0:
36,192,94654,1,0,0:0:0:0:
109,192,94797,128,0,94940:0:0:0:0:
256,192,94797,128,0,94940:0:0:0:0:
402,192,94797,1,0,0:0:0:0:
475,192,94940,1,0,0:0:0:0:
36,192,95083,128,0,95226:0:0:0:0:
256,192,95083,128,0,95226:0:0:0:0:
109,192,95226,1,0,0:0:0:0:
36,192,95369,128,0,95511:0:0:0:0:
256,192,95369,128,0,95511:0:0:0:0:
329,192,95369,1,0,0:0:0:0:
182,192,95511,128,0,95654:0:0:0:0:
402,192,95511,128,0,95654:0:0:0:0:
329,192,95654,1,0,0:0:0:0:
402,192,95797,128,0,95940:0:0:0:0:
182,192,95797,128,0,95940:0:0:0:0:
256,192,95940,128,0,96083:0:0:0:0:
36,192,95940,128,0,96083:0:0:0:0:
109,192,95940,1,0,0:0:0:0:
182,192,96083,1,0,0:0:0:0:
36,192,96226,128,0,96369:0:0:0:0:
256,192,96226,128,0,96369:0:0:0:0:
109,192,96369,128,0,96511:0:0:0:0:
329,192,96369,128,0,96511:0:0:0:0:
182,192,96511,1,0,0:0:0:0:
256,192,96511,1,0,0:0:0:0:
402,192,96511,1,0,0:0:0:0:
475,192,96654,128,0,96797:0:0:0:0:
256,192,96654,128,0,96797:0:0:0:0:
329,192,96797,128,0,96940:0:0:0:0:
109,192,96797,128,0,96940:0:0:0:0:
36,192,96940,1,0,0:0:0:0:
182,192,97083,128,0,97226:0:0:0:0:
329,192,97083,128,0,97226:0:0:0:0:
256,192,97083,1,0,0:0:0:0:
475,192,97226,1,0,0:0:0:0:
109,192,97369,128,0,97511:0:0:0:0:
402,192,97369,128,0,97511:0:0:0:0:
256,192,97511,1,0,0:0:0:0:
475,192,97654,128,0,97797:0:0:0:0:
36,192,97654,128,0,97797:0:0:0:0:
256,192,97654,1,0,0:0:0:0:
109,192,97797,128,0,97940:0:0:0:0:
402,192,97797,128,0,97940:0:0:0:0:
36,192,97940,1,0,0:0:0:0:
475,192,97940,1,0,0:0:0:0:
329,192,98083,128,0,98226:0:0:0:0:
182,192,98083,128,0,98226:0:0:0:0:
109,192,98226,128,0,98369:0:0:0:0:
402,192,98226,128,0,98369:0:0:0:0:
256,192,98226,1,0,0:0:0:0:
256,192,98369,1,0,0:0:0:0:
182,192,98511,128,0,98654:0:0:0:0:
329,192,98511,128,0,98654:0:0:0:0:
475,192,98654,128,0,98797:0:0:0:0:
36,192,98654,128,0,98797:0:0:0:0:
256,192,98797,1,0,0:0:0:0:
109,192,98797,1,0,0:0:0:0:
402,192,98797,1,0,0:0:0:0:
36,192,98940,128,0,99083:0:0:0:0:
475,192,98940,128,0,99083:0:0:0:0:
182,192,99083,128,0,99226:0:0:0:0:
329,192,99083,128,0,99226:0:0:0:0:
256,192,99226,1,0,0:0:0:0:
402,192,99369,128,0,99511:0:0:0:0:
109,192,99369,128,0,99511:0:0:0:0:
256,192,99369,1,0,0:0:0:0:
475,192,99511,1,0,0:0:0:0:
182,192,99654,128,0,100083:0:0:0:0:
36,192,99654,128,0,100797:0:0:0:0:
475,192,99797,1,0,0:0:0:0:
109,192,99940,1,0,0:0:0:0:
256,192,99940,1,0,0:0:0:0:
329,192,99940,1,0,0:0:0:0:
402,192,100083,128,0,101226:0:0:0:0:
182,192,100226,1,0,0:0:0:0:
109,192,100226,1,0,0:0:0:0:
256,192,100369,1,0,0:0:0:0:
329,192,100511,1,0,0:0:0:0:
475,192,100511,1,0,0:0:0:0:
109,192,100511,1,0,0:0:0:0:
256,192,100654,1,0,0:0:0:0:
109,192,100797,128,0,101654:0:0:0:0:
182,192,100797,1,0,0:0:0:0:
475,192,100797,1,0,0:0:0:0:
256,192,101083,1,0,0:0:0:0:
475,192,101226,128,0,101940:0:0:0:0:
329,192,101226,1,0,0:0:0:0:
36,192,101226,1,0,0:0:0:0:
256,192,101369,1,0,0:0:0:0:
402,192,101369,1,0,0:0:0:0:
182,192,101511,1,0,0:0:0:0:
329,192,101654,128,0,101940:0:0:0:0:
402,192,101654,1,0,0:0:0:0:
36,192,101654,1,0,0:0:0:0:
36,192,101940,128,0,102511:0:0:0:0:
256,192,101940,128,0,103083:0:0:0:0:
109,192,101940,1,0,0:0:0:0:
402,192,101940,1,0,0:0:0:0:
402,192,102226,1,0,0:0:0:0:
182,192,102226,1,0,0:0:0:0:
475,192,102226,1,0,0:0:0:0:
329,192,102369,1,0,0:0:0:0:
109,192,102369,1,0,0:0:0:0:
475,192,102511,128,0,103369:0:0:0:0:
329,192,102654,1,0,0:0:0:0:
402,192,102654,1,0,0:0:0:0:
109,192,102797,1,0,0:0:0:0:
36,192,102940,1,0,0:0:0:0:
182,192,102940,1,0,0:0:0:0:
109,192,103083,128,0,103511:0:0:0:0:
402,192,103226,1,0,0:0:0:0:
182,192,103226,1,0,0:0:0:0:
256,192,103369,128,0,103654:0:0:0:0:
329,192,103369,1,0,0:0:0:0:
36,192,103369,1,0,0:0:0:0:
402,192,103511,128,0,104226:0:0:0:0:
182,192,103511,1,0,0:0:0:0:
475,192,103654,1,0,0:0:0:0:
182,192,103797,128,0,104797:0:0:0:0:
109,192,103797,1,0,0:0:0:0:
36,192,103940,1,0,0:0:0:0:
256,192,103940,1,0,0:0:0:0:
329,192,103940,1,0,0:0:0:0:
329,192,104226,128,0,104797:0:0:0:0:
475,192,104226,1,0,0:0:0:0:
36,192,104511,1,0,0:0:0:0:
109,192,104511,1,0,0:0:0:0:
402,192,104511,1,0,0:0:0:0:
475,192,104654,1,0,0:0:0:0:
256,192,104654,1,0,0:0:0:0:
109,192,104797,128,0,105083:0:0:0:0:
402,192,104797,128,0,105083:0:0:0:0:
182,192,104940,1,0,0:0:0:0:
329,192,104940,1,0,0:0:0:0:
475,192,105083,128,0,105226:0:0:0:0:
36,192,105083,128,0,105226:0:0:0:0:
256,192,105083,1,0,0:0:0:0:
256,192,105226,128,0,105369:0:0:0:0:
109,192,105226,1,0,0:0:0:0:
182,192,105369,128,0,105940:0:0:0:0:
329,192,105369,128,0,105940:0:0:0:0:
109,192,105511,1,0,0:0:0:0:
402,192,105511,1,0,0:0:0:0:
256,192,105654,1,0,0:0:0:0:
475,192,105654,1,0,0:0:0:0:
36,192,105654,1,0,0:0:0:0:
109,192,105797,1,0,0:0:0:0:
402,192,105797,1,0,0:0:0:0:
109,192,105940,128,0,106511:0:0:0:0:
402,192,105940,128,0,106511:0:0:0:0:
36,192,106083,1,0,0:0:0:0:
182,192,106083,1,0,0:0:0:0:
256,192,106226,1,0,0:0:0:0:
329,192,106226,1,0,0:0:0:0:
475,192,106226,1,0,0:0:0:0:
36,192,106369,1,0,0:0:0:0:
182,192,106369,1,0,0:0:0:0:
475,192,106511,128,0,107654:0:0:0:0:
256,192,106511,128,0,107654:0:0:0:0:
36,192,106511,1,0,0:0:0:0:
182,192,106583,1,0,0:0:0:0:
36,192,106654,1,0,0:0:0:0:
402,192,106654,1,0,0:0:0:0:
109,192,106726,1,0,0:0:0:0:
182,192,106797,1,0,0:0:0:0:
329,192,106797,1,0,0:0:0:0:
36,192,106797,1,0,0:0:0:0:
402,192,106869,1,0,0:0:0:0:
329,192,106940,1,0,0:0:0:0:
109,192,106940,1,0,0:0:0:0:
182,192,107011,1,0,0:0:0:0:
36,192,107083,1,0,0:0:0:0:
329,192,107083,1,0,0:0:0:0:
402,192,107083,1,0,0:0:0:0:
109,192,107154,1,0,0:0:0:0:
329,192,107226,1,0,0:0:0:0:
182,192,107226,1,0,0:0:0:0:
402,192,107297,1,0,0:0:0:0:
182,192,107369,1,0,0:0:0:0:
36,192,107369,1,0,0:0:0:0:
329,192,107369,1,0,0:0:0:0:
109,192,107440,1,0,0:0:0:0:
36,192,107511,1,0,0:0:0:0:
329,192,107511,1,0,0:0:0:0:
109,192,107583,1,0,0:0:0:0:
402,192,107654,128,0,108797:0:0:0:0:
182,192,107654,128,0,108797:0:0:0:0:
329,192,107726,1,0,0:0:0:0:
109,192,107726,1,0,0:0:0:0:
36,192,107797,1,0,0:0:0:0:
256,192,107797,1,0,0:0:0:0:
109,192,107869,1,0,0:0:0:0:
329,192,107869,1,0,0:0:0:0:
256,192,107940,1,0,0:0:0:0:
475,192,107940,1,0,0:0:0:0:
109,192,108011,1,0,0:0:0:0:
36,192,108011,1,0,0:0:0:0:
475,192,108083,1,0,0:0:0:0:
256,192,108083,1,0,0:0:0:0:
329,192,108154,1,0,0:0:0:0:
109,192,108154,1,0,0:0:0:0:
36,192,108226,1,0,0:0:0:0:
256,192,108226,1,0,0:0:0:0:
109,192,108297,1,0,0:0:0:0:
329,192,108297,1,0,0:0:0:0:
256,192,108369,1,0,0:0:0:0:
475,192,108369,1,0,0:0:0:0:
109,192,108440,1,0,0:0:0:0:
329,192,108440,1,0,0:0:0:0:
36,192,108511,1,0,0:0:0:0:
256,192,108511,1,0,0:0:0:0:
329,192,108583,1,0,0:0:0:0:
475,192,108583,1,0,0:0:0:0:
36,192,108654,1,0,0:0:0:0:
256,192,108654,1,0,0:0:0:0:
109,192,108726,1,0,0:0:0:0:
329,192,108726,1,0,0:0:0:0:
36,192,108797,128,0,109940:0:0:0:0:
256,192,108797,128,0,109940:0:0:0:0:
475,192,108797,1,0,0:0:0:0:
475,192,108940,1,0,0:0:0:0:
329,192,108940,1,0,0:0:0:0:
109,192,108940,1,0,0:0:0:0:
109,192,109083,128,0,109154:0:0:0:0:
329,192,109083,128,0,109154:0:0:0:0:
475,192,109083,1,0,0:0:0:0:
109,192,109226,128,0,109297:0:0:0:0:
329,192,109226,128,0,109297:0:0:0:0:
182,192,109369,1,0,0:0:0:0:
402,192,109369,1,0,0:0:0:0:
475,192,109369,1,0,0:0:0:0:
402,192,109511,128,0,109583:0:0:0:0:
182,192,109511,128,0,109583:0:0:0:0:
475,192,109511,1,0,0:0:0:0:
182,192,109654,128,0,109726:0:0:0:0:
402,192,109654,128,0,109726:0:0:0:0:
109,192,109797,1,0,0:0:0:0:
182,192,109797,1,0,0:0:0:0:
329,192,109797,1,0,0:0:0:0:
402,192,109940,128,0,110011:0:0:0:0:
475,192,109940,128,0,110011:0:0:0:0:
36,192,110083,128,0,110154:0:0:0:0:
109,192,110083,128,0,110154:0:0:0:0:
402,192,110083,1,0,0:0:0:0:
182,192,110154,1,0,0:0:0:0:
256,192,110154,1,0,0:0:0:0:
329,192,110154,1,0,0:0:0:0:
475,192,110226,128,0,110297:0:0:0:0:
402,192,110226,128,0,110297:0:0:0:0:
36,192,110226,1,0,0:0:0:0:
182,192,110297,1,0,0:0:0:0:
329,192,110297,1,0,0:0:0:0:
36,192,110369,128,0,110440:0:0:0:0:
109,192,110369,128,0,110440:0:0:0:0:
475,192,110440,1,0,0:0:0:0:
402,192,110440,1,0,0:0:0:0:
329,192,110511,128,0,110583:0:0:0:0:
182,192,110511,128,0,110583:0:0:0:0:
256,192,110511,1,0,0:0:0:0:
256,192,110726,128,0,110797:0:0:0:0:
36,192,110726,128,0,110797:0:0:0:0:
475,192,110726,128,0,110797:0:0:0:0:
109,192,110940,128,0,111011:0:0:0:0:
256,192,110940,128,0,111011:0:0:0:0:
402,192,110940,128,0,111011:0:0:0:0:
256,192,111083,128,0,117940:0:0:0:0:
402,192,111083,128,0,113369:0:0:0:0:
109,192,111083,128,0,113369:0:0:0:0:
36,192,113369,128,0,113797:0:0:0:0:
109,192,113654,128,0,113797:0:0:0:0:
475,192,113797,128,0,114226:0:0:0:0:
402,192,113940,128,0,114369:0:0:0:0:
329,192,114083,128,0,114511:0:0:0:0:
36,192,114226,128,0,114654:0:0:0:0:
109,192,114369,128,0,114797:0:0:0:0:
182,192,114511,128,0,114940:0:0:0:0:
329,192,114654,128,0,115083:0:0:0:0:
475,192,114654,1,0,0:0:0:0:
402,192,114797,128,0,115226:0:0:0:0:
475,192,114940,128,0,115369:0:0:0:0:
36,192,115083,1,0,0:0:0:0:
182,192,115083,128,0,115511:0:0:0:0:
109,192,115226,128,0,115654:0:0:0:0:
36,192,115369,128,0,115797:0:0:0:0:
329,192,115511,128,0,115869:0:0:0:0:
402,192,115654,128,0,116011:0:0:0:0:
475,192,115797,128,0,116154:0:0:0:0:
36,192,115940,128,0,116297:0:0:0:0:
109,192,116083,128,0,116440:0:0:0:0:
182,192,116226,128,0,116583:0:0:0:0:
402,192,116297,1,0,0:0:0:0:
475,192,116369,128,0,116726:0:0:0:0:
329,192,116440,1,0,0:0:0:0:
402,192,116511,128,0,116869:0:0:0:0:
329,192,116654,128,0,117011:0:0:0:0:
182,192,116797,128,0,117154:0:0:0:0:
109,192,116940,128,0,117297:0:0:0:0:
36,192,117083,128,0,117440:0:0:0:0:
475,192,117226,128,0,117583:0:0:0:0:
402,192,117369,128,0,117726:0:0:0:0:
329,192,117511,128,0,117869:0:0:0:0:
109,192,117511,1,0,0:0:0:0:
182,192,117654,128,0,118011:0:0:0:0:
109,192,117797,128,0,118154:0:0:0:0:
36,192,117940,128,0,119083:0:0:0:0:
475,192,117940,128,0,119083:0:0:0:0:
329,192,117940,1,0,0:0:0:0:
402,192,118083,128,0,118369:0:0:0:0:
329,192,118226,128,0,118511:0:0:0:0:
109,192,118369,128,0,118654:0:0:0:0:
182,192,118511,128,0,118797:0:0:0:0:
402,192,118511,1,0,0:0:0:0:
256,192,118654,128,0,118940:0:0:0:0:
329,192,118797,128,0,118940:0:0:0:0:
109,192,118940,1,0,0:0:0:0:
402,192,118940,1,0,0:0:0:0:
182,192,119011,1,0,0:0:0:0:
329,192,119011,1,0,0:0:0:0:
402,192,119083,1,0,0:0:0:0:
256,192,119083,1,0,0:0:0:0:
109,192,119083,1,0,0:0:0:0:
36,192,119226,1,0,0:0:0:0:
182,192,119226,1,0,0:0:0:0:
329,192,119369,1,0,0:0:0:0:
402,192,119369,1,0,0:0:0:0:
109,192,119511,1,0,0:0:0:0:
256,192,119511,1,0,0:0:0:0:
402,192,119654,1,0,0:0:0:0:
475,192,119654,1,0,0:0:0:0:
329,192,119797,1,0,0:0:0:0:
182,192,119797,1,0,0:0:0:0:
36,192,119940,1,0,0:0:0:0:
109,192,119940,1,0,0:0:0:0:
182,192,120083,1,0,0:0:0:0:
402,192,120083,1,0,0:0:0:0:
329,192,120083,1,0,0:0:0:0:
36,192,120154,1,0,0:0:0:0:
109,192,120154,1,0,0:0:0:0:
256,192,120154,1,0,0:0:0:0:
329,192,120226,1,0,0:0:0:0:
475,192,120226,128,0,123654:0:0:0:0:
402,192,120226,128,0,121369:0:0:0:0:
36,192,120369,1,0,0:0:0:0:
182,192,120369,1,0,0:0:0:0:
182,192,120511,1,0,0:0:0:0:
256,192,120511,1,0,0:0:0:0:
36,192,120654,1,0,0:0:0:0:
256,192,120654,1,0,0:0:0:0:
36,192,120797,1,0,0:0:0:0:
109,192,120797,1,0,0:0:0:0:
329,192,120797,1,0,0:0:0:0:
256,192,120940,1,0,0:0:0:0:
109,192,120940,1,0,0:0:0:0:
36,192,121083,1,0,0:0:0:0:
256,192,121226,1,0,0:0:0:0:
329,192,121226,1,0,0:0:0:0:
109,192,121297,1,0,0:0:0:0:
36,192,121297,1,0,0:0:0:0:
182,192,121369,128,0,121940:0:0:0:0:
329,192,121369,1,0,0:0:0:0:
109,192,121511,1,0,0:0:0:0:
36,192,121511,1,0,0:0:0:0:
402,192,121511,1,0,0:0:0:0:
402,192,121654,1,0,0:0:0:0:
329,192,121654,1,0,0:0:0:0:
36,192,121940,128,0,122511:0:0:0:0:
109,192,121940,1,0,0:0:0:0:
329,192,121940,1,0,0:0:0:0:
256,192,122083,1,0,0:0:0:0:
402,192,122083,1,0,0:0:0:0:
109,192,122226,1,0,0:0:0:0:
182,192,122369,1,0,0:0:0:0:
329,192,122369,1,0,0:0:0:0:
109,192,122511,128,0,123654:0:0:0:0:
256,192,122511,1,0,0:0:0:0:
402,192,122511,1,0,0:0:0:0:
329,192,122654,1,0,0:0:0:0:
182,192,122654,1,0,0:0:0:0:
36,192,122797,1,0,0:0:0:0:
256,192,122797,1,0,0:0:0:0:
402,192,122940,1,0,0:0:0:0:
182,192,122940,1,0,0:0:0:0:
329,192,123083,1,0,0:0:0:0:
36,192,123083,1,0,0:0:0:0:
256,192,123083,1,0,0:0:0:0:
182,192,123226,1,0,0:0:0:0:
402,192,123226,1,0,0:0:0:0:
36,192,123369,1,0,0:0:0:0:
256,192,123369,1,0,0:0:0:0:
329,192,123511,1,0,0:0:0:0:
402,192,123511,1,0,0:0:0:0:
256,192,123583,1,0,0:0:0:0:
182,192,123583,1,0,0:0:0:0:
329,192,123654,128,0,124797:0:0:0:0:
36,192,123654,1,0,0:0:0:0:
109,192,123797,1,0,0:0:0:0:
36,192,123797,1,0,0:0:0:0:
256,192,123797,1,0,0:0:0:0:
402,192,123940,1,0,0:0:0:0:
475,192,123940,1,0,0:0:0:0:
36,192,124226,1,0,0:0:0:0:
402,192,124226,1,0,0:0:0:0:
256,192,124226,1,0,0:0:0:0:
182,192,124369,1,0,0:0:0:0:
109,192,124369,1,0,0:0:0:0:
402,192,124511,1,0,0:0:0:0:
256,192,124654,1,0,0:0:0:0:
182,192,124654,1,0,0:0:0:0:
402,192,124797,128,0,125940:0:0:0:0:
475,192,124797,1,0,0:0:0:0:
36,192,124940,1,0,0:0:0:0:
256,192,124940,1,0,0:0:0:0:
109,192,125083,1,0,0:0:0:0:
256,192,125226,1,0,0:0:0:0:
475,192,125226,1,0,0:0:0:0:
329,192,125369,1,0,0:0:0:0:
182,192,125369,1,0,0:0:0:0:
109,192,125369,1,0,0:0:0:0:
256,192,125511,1,0,0:0:0:0:
475,192,125511,1,0,0:0:0:0:
182,192,125654,1,0,0:0:0:0:
109,192,125797,1,0,0:0:0:0:
36,192,125797,1,0,0:0:0:0:
182,192,125869,1,0,0:0:0:0:
256,192,125869,1,0,0:0:0:0:
329,192,125940,128,0,126511:0:0:0:0:
475,192,125940,1,0,0:0:0:0:
402,192,126083,1,0,0:0:0:0:
475,192,126083,1,0,0:0:0:0:
109,192,126083,1,0,0:0:0:0:
36,192,126226,1,0,0:0:0:0:
182,192,126226,1,0,0:0:0:0:
182,192,126511,128,0,127083:0:0:0:0:
402,192,126511,1,0,0:0:0:0:
475,192,126511,1,0,0:0:0:0:
36,192,126654,1,0,0:0:0:0:
329,192,126654,1,0,0:0:0:0:
256,192,126797,1,0,0:0:0:0:
36,192,126940,1,0,0:0:0:0:
109,192,126940,1,0,0:0:0:0:
329,192,127011,1,0,0:0:0:0:
402,192,127011,1,0,0:0:0:0:
256,192,127083,128,0,128226:0:0:0:0:
475,192,127083,1,0,0:0:0:0:
36,192,127226,1,0,0:0:0:0:
182,192,127226,1,0,0:0:0:0:
109,192,127369,1,0,0:0:0:0:
182,192,127369,1,0,0:0:0:0:
475,192,127369,1,0,0:0:0:0:
329,192,127511,1,0,0:0:0:0:
475,192,127511,1,0,0:0:0:0:
329,192,127654,1,0,0:0:0:0:
402,192,127654,1,0,0:0:0:0:
36,192,127654,1,0,0:0:0:0:
36,192,127797,1,0,0:0:0:0:
109,192,127797,1,0,0:0:0:0:
109,192,127940,1,0,0:0:0:0:
329,192,127940,1,0,0:0:0:0:
475,192,127940,1,0,0:0:0:0:
402,192,128083,1,0,0:0:0:0:
475,192,128083,1,0,0:0:0:0:
36,192,128154,1,0,0:0:0:0:
109,192,128154,1,0,0:0:0:0:
182,192,128226,1,0,0:0:0:0:
329,192,128226,1,0,0:0:0:0:
402,192,128369,1,0,0:0:0:0:
329,192,128369,1,0,0:0:0:0:
36,192,128440,1,0,0:0:0:0:
109,192,128440,1,0,0:0:0:0:
182,192,128511,128,0,128797:0:0:0:0:
329,192,128511,128,0,128797:0:0:0:0:
475,192,128511,128,0,128797:0:0:0:0:
256,192,128654,1,0,0:0:0:0:
402,192,128654,1,0,0:0:0:0:
402,192,128797,128,0,129083:0:0:0:0:
109,192,128797,128,0,129083:0:0:0:0:
256,192,128797,128,0,129083:0:0:0:0:
182,192,128869,1,0,0:0:0:0:
329,192,128869,1,0,0:0:0:0:
475,192,128940,1,0,0:0:0:0:
36,192,128940,1,0,0:0:0:0:
36,192,129083,128,0,129369:0:0:0:0:
182,192,129083,128,0,129369:0:0:0:0:
329,192,129083,128,0,129369:0:0:0:0:
256,192,129369,1,0,0:0:0:0:
109,192,129369,128,0,130797:0:0:0:0:
402,192,129369,128,0,130797:0:0:0:0:
475,192,129369,1,0,0:0:0:0:
256,192,129654,1,0,0:0:0:0:
36,192,129654,1,0,0:0:0:0:
475,192,129654,1,0,0:0:0:0:
182,192,129797,1,0,0:0:0:0:
329,192,129797,1,0,0:0:0:0:
256,192,129940,1,0,0:0:0:0:
36,192,130083,1,0,0:0:0:0:
475,192,130083,1,0,0:0:0:0:
329,192,130226,1,0,0:0:0:0:
256,192,130226,1,0,0:0:0:0:
182,192,130226,1,0,0:0:0:0:
475,192,130369,1,0,0:0:0:0:
36,192,130369,1,0,0:0:0:0:
256,192,130511,1,0,0:0:0:0:
329,192,130654,1,0,0:0:0:0:
475,192,130654,1,0,0:0:0:0:
475,192,130797,128,0,131083:0:0:0:0:
182,192,130797,128,0,131083:0:0:0:0:
329,192,130797,128,0,131083:0:0:0:0:
402,192,130940,1,0,0:0:0:0:
256,192,130940,1,0,0:0:0:0:
402,192,131083,128,0,131369:0:0:0:0:
256,192,131083,128,0,131369:0:0:0:0:
109,192,131083,128,0,131369:0:0:0:0:
182,192,131226,1,0,0:0:0:0:
36,192,131226,1,0,0:0:0:0:
36,192,131369,128,0,131654:0:0:0:0:
329,192,131369,128,0,131654:0:0:0:0:
182,192,131369,128,0,131654:0:0:0:0:
109,192,131654,128,0,133083:0:0:0:0:
402,192,131654,128,0,133083:0:0:0:0:
36,192,131940,1,0,0:0:0:0:
256,192,131940,1,0,0:0:0:0:
475,192,131940,1,0,0:0:0:0:
182,192,132083,1,0,0:0:0:0:
329,192,132083,1,0,0:0:0:0:
36,192,132226,128,0,132369:0:0:0:0:
475,192,132226,128,0,132369:0:0:0:0:
182,192,132369,128,0,132511:0:0:0:0:
329,192,132369,128,0,132511:0:0:0:0:
256,192,132511,1,0,0:0:0:0:
36,192,132511,1,0,0:0:0:0:
475,192,132511,1,0,0:0:0:0:
182,192,132654,128,0,132797:0:0:0:0:
329,192,132654,128,0,132797:0:0:0:0:
182,192,132940,1,0,0:0:0:0:
329,192,132940,1,0,0:0:0:0:
36,192,133083,128,0,133369:0:0:0:0:
329,192,133083,128,0,133369:0:0:0:0:
182,192,133083,128,0,133369:0:0:0:0:
256,192,133226,1,0,0:0:0:0:
402,192,133226,1,0,0:0:0:0:
109,192,133369,128,0,133654:0:0:0:0:
256,192,133369,128,0,133654:0:0:0:0:
402,192,133369,128,0,133654:0:0:0:0:
329,192,133511,1,0,0:0:0:0:
475,192,133511,1,0,0:0:0:0:
182,192,133654,128,0,133940:0:0:0:0:
475,192,133654,128,0,133940:0:0:0:0:
329,192,133654,128,0,133940:0:0:0:0:
256,192,133940,128,0,135369:0:0:0:0:
36,192,133940,128,0,135369:0:0:0:0:
109,192,133940,1,0,0:0:0:0:
402,192,133940,1,0,0:0:0:0:
182,192,134083,1,0,0:0:0:0:
329,192,134083,1,0,0:0:0:0:
402,192,134226,1,0,0:0:0:0:
475,192,134226,1,0,0:0:0:0:
109,192,134226,1,0,0:0:0:0:
329,192,134369,1,0,0:0:0:0:
182,192,134369,1,0,0:0:0:0:
109,192,134511,1,0,0:0:0:0:
329,192,134654,1,0,0:0:0:0:
475,192,134654,1,0,0:0:0:0:
402,192,134797,1,0,0:0:0:0:
182,192,134797,1,0,0:0:0:0:
109,192,134797,1,0,0:0:0:0:
329,192,134940,1,0,0:0:0:0:
475,192,134940,1,0,0:0:0:0:
182,192,135083,1,0,0:0:0:0:
109,192,135226,1,0,0:0:0:0:
402,192,135226,1,0,0:0:0:0:
475,192,135369,128,0,135654:0:0:0:0:
329,192,135369,128,0,135654:0:0:0:0:
182,192,135369,128,0,135654:0:0:0:0:
402,192,135511,1,0,0:0:0:0:
256,192,135511,1,0,0:0:0:0:
402,192,135654,128,0,135940:0:0:0:0:
256,192,135654,128,0,135940:0:0:0:0:
109,192,135654,128,0,135940:0:0:0:0:
36,192,135797,1,0,0:0:0:0:
182,192,135797,1,0,0:0:0:0:
36,192,135940,128,0,136226:0:0:0:0:
182,192,135940,128,0,136226:0:0:0:0:
329,192,135940,128,0,136226:0:0:0:0:
256,192,136226,128,0,137654:0:0:0:0:
475,192,136226,128,0,137654:0:0:0:0:
109,192,136511,1,0,0:0:0:0:
329,192,136511,1,0,0:0:0:0:
182,192,136511,1,0,0:0:0:0:
36,192,136654,1,0,0:0:0:0:
402,192,136654,1,0,0:0:0:0:
182,192,136797,1,0,0:0:0:0:
109,192,136940,1,0,0:0:0:0:
36,192,136940,1,0,0:0:0:0:
182,192,137083,1,0,0:0:0:0:
329,192,137083,1,0,0:0:0:0:
402,192,137083,1,0,0:0:0:0:
109,192,137226,1,0,0:0:0:0:
402,192,137369,1,0,0:0:0:0:
329,192,137369,1,0,0:0:0:0:
36,192,137511,1,0,0:0:0:0:
182,192,137511,1,0,0:0:0:0:
182,192,137654,128,0,137940:0:0:0:0:
36,192,137654,128,0,137940:0:0:0:0:
329,192,137654,128,0,137940:0:0:0:0:
256,192,137797,1,0,0:0:0:0:
109,192,137797,1,0,0:0:0:0:
109,192,137940,128,0,138226:0:0:0:0:
256,192,137940,128,0,138226:0:0:0:0:
475,192,137940,128,0,138226:0:0:0:0:
182,192,138083,1,0,0:0:0:0:
329,192,138083,1,0,0:0:0:0:
36,192,138226,128,0,138511:0:0:0:0:
182,192,138226,128,0,138511:0:0:0:0:
402,192,138226,128,0,138511:0:0:0:0:
109,192,138511,128,0,139940:0:0:0:0:
329,192,138511,128,0,139940:0:0:0:0:
256,192,138511,1,0,0:0:0:0:
475,192,138511,1,0,0:0:0:0:
182,192,138797,1,0,0:0:0:0:
256,192,138797,1,0,0:0:0:0:
475,192,138797,1,0,0:0:0:0:
402,192,138940,1,0,0:0:0:0:
36,192,138940,1,0,0:0:0:0:
256,192,139083,1,0,0:0:0:0:
182,192,139226,1,0,0:0:0:0:
36,192,139226,1,0,0:0:0:0:
256,192,139369,1,0,0:0:0:0:
402,192,139369,1,0,0:0:0:0:
475,192,139369,1,0,0:0:0:0:
182,192,139511,1,0,0:0:0:0:
36,192,139511,1,0,0:0:0:0:
402,192,139654,1,0,0:0:0:0:
36,192,139797,1,0,0:0:0:0:
182,192,139797,1,0,0:0:0:0:
36,192,139940,128,0,140226:0:0:0:0:
402,192,139940,128,0,140226:0:0:0:0:
256,192,139940,128,0,140226:0:0:0:0:
182,192,140083,1,0,0:0:0:0:
329,192,140083,1,0,0:0:0:0:
182,192,140226,128,0,140511:0:0:0:0:
475,192,140226,128,0,140511:0:0:0:0:
329,192,140226,128,0,140511:0:0:0:0:
256,192,140369,1,0,0:0:0:0:
402,192,140369,1,0,0:0:0:0:
402,192,140511,128,0,140797:0:0:0:0:
256,192,140511,128,0,140797:0:0:0:0:
109,192,140511,128,0,140797:0:0:0:0:
36,192,140797,128,0,141369:0:0:0:0:
475,192,140797,128,0,141369:0:0:0:0:
329,192,140797,1,0,0:0:0:0:
182,192,140797,1,0,0:0:0:0:
256,192,141083,1,0,0:0:0:0:
109,192,141083,1,0,0:0:0:0:
402,192,141083,1,0,0:0:0:0:
329,192,141226,1,0,0:0:0:0:
182,192,141226,1,0,0:0:0:0:
402,192,141369,128,0,141940:0:0:0:0:
109,192,141369,128,0,141940:0:0:0:0:
36,192,141511,1,0,0:0:0:0:
475,192,141511,1,0,0:0:0:0:
182,192,141654,1,0,0:0:0:0:
256,192,141654,1,0,0:0:0:0:
329,192,141654,1,0,0:0:0:0:
36,192,141797,128,0,141940:0:0:0:0:
475,192,141797,128,0,141940:0:0:0:0:
182,192,141940,128,0,142226:0:0:0:0:
329,192,141940,128,0,142226:0:0:0:0:
256,192,142083,1,0,0:0:0:0:
109,192,142226,128,0,142369:0:0:0:0:
402,192,142226,128,0,142369:0:0:0:0:
256,192,142226,1,0,0:0:0:0:
36,192,142369,128,0,142654:0:0:0:0:
475,192,142369,128,0,142654:0:0:0:0:
182,192,142369,1,0,0:0:0:0:
329,192,142369,1,0,0:0:0:0:
256,192,142511,1,0,0:0:0:0:
109,192,142654,128,0,142940:0:0:0:0:
402,192,142654,128,0,142940:0:0:0:0:
36,192,142797,1,0,0:0:0:0:
256,192,142797,1,0,0:0:0:0:
475,192,142797,1,0,0:0:0:0:
256,192,142940,128,0,145369:0:0:0:0:
182,192,142940,1,0,0:0:0:0:
329,192,142940,1,0,0:0:0:0:
402,192,143011,1,0,0:0:0:0:
109,192,143011,1,0,0:0:0:0:
36,192,143083,1,0,0:0:0:0:
475,192,143083,1,0,0:0:0:0:
182,192,143083,1,0,0:0:0:0:
329,192,143226,1,0,0:0:0:0:
182,192,143226,1,0,0:0:0:0:
109,192,143297,1,0,0:0:0:0:
402,192,143297,1,0,0:0:0:0:
475,192,143369,1,0,0:0:0:0:
36,192,143369,1,0,0:0:0:0:
329,192,143369,1,0,0:0:0:0:
36,192,143511,1,0,0:0:0:0:
182,192,143511,1,0,0:0:0:0:
109,192,143583,1,0,0:0:0:0:
329,192,143583,1,0,0:0:0:0:
475,192,143654,1,0,0:0:0:0:
402,192,143654,1,0,0:0:0:0:
36,192,143654,1,0,0:0:0:0:
329,192,143797,1,0,0:0:0:0:
475,192,143797,1,0,0:0:0:0:
182,192,143869,1,0,0:0:0:0:
402,192,143869,1,0,0:0:0:0:
109,192,143940,1,0,0:0:0:0:
36,192,143940,1,0,0:0:0:0:
475,192,143940,1,0,0:0:0:0:
36,192,144083,1,0,0:0:0:0:
109,192,144083,1,0,0:0:0:0:
402,192,144154,1,0,0:0:0:0:
475,192,144154,1,0,0:0:0:0:
182,192,144226,1,0,0:0:0:0:
109,192,144226,1,0,0:0:0:0:
329,192,144226,1,0,0:0:0:0:
402,192,144369,1,0,0:0:0:0:
475,192,144369,1,0,0:0:0:0:
109,192,144440,1,0,0:0:0:0:
36,192,144440,1,0,0:0:0:0:
182,192,144511,1,0,0:0:0:0:
329,192,144511,1,0,0:0:0:0:
402,192,144511,1,0,0:0:0:0:
36,192,144654,1,0,0:0:0:0:
109,192,144654,1,0,0:0:0:0:
329,192,144726,1,0,0:0:0:0:
475,192,144726,1,0,0:0:0:0:
182,192,144797,1,0,0:0:0:0:
109,192,144797,1,0,0:0:0:0:
402,192,144797,1,0,0:0:0:0:
402,192,144940,1,0,0:0:0:0:
475,192,144940,1,0,0:0:0:0:
36,192,145011,1,0,0:0:0:0:
182,192,145011,1,0,0:0:0:0:
109,192,145083,1,0,0:0:0:0:
329,192,145083,1,0,0:0:0:0:
402,192,145083,1,0,0:0:0:0:
182,192,145226,1,0,0:0:0:0:
329,192,145226,1,0,0:0:0:0:
402,192,145297,1,0,0:0:0:0:
109,192,145297,1,0,0:0:0:0:
182,192,145369,1,0,0:0:0:0:
329,192,145369,1,0,0:0:0:0:
475,192,145369,1,0,0:0:0:0:
36,192,145369,1,0,0:0:0:0:
109,192,145511,1,0,0:0:0:0:
402,192,145511,1,0,0:0:0:0:
329,192,145583,1,0,0:0:0:0:
182,192,145583,1,0,0:0:0:0:
36,192,145654,1,0,0:0:0:0:
475,192,145654,1,0,0:0:0:0:
329,192,145726,1,0,0:0:0:0:
182,192,145726,1,0,0:0:0:0:
109,192,145797,1,0,0:0:0:0:
402,192,145797,1,0,0:0:0:0:
256,192,145797,1,0,0:0:0:0:
109,192,145940,1,0,0:0:0:0:
402,192,145940,1,0,0:0:0:0:
256,192,146011,1,0,0:0:0:0:
182,192,146083,1,0,0:0:0:0:
329,192,146083,1,0,0:0:0:0:
36,192,146226,1,0,0:0:0:0:
475,192,146226,1,0,0:0:0:0:
256,192,146226,1,0,0:0:0:0:
36,192,146369,1,0,0:0:0:0:
475,192,146369,1,0,0:0:0:0:
109,192,146511,1,0,0:0:0:0:
402,192,146511,1,0,0:0:0:0:
182,192,146583,1,0,0:0:0:0:
329,192,146583,1,0,0:0:0:0:
475,192,146654,1,0,0:0:0:0:
36,192,146654,1,0,0:0:0:0:
256,192,146654,1,0,0:0:0:0:
402,192,146797,128,0,147083:0:0:0:0:
329,192,146797,128,0,147083:0:0:0:0:
109,192,146797,128,0,147083:0:0:0:0:
182,192,146940,1,0,0:0:0:0:
256,192,146940,1,0,0:0:0:0:
182,192,147083,128,0,147369:0:0:0:0:
256,192,147083,128,0,147369:0:0:0:0:
475,192,147083,128,0,147369:0:0:0:0:
329,192,147178,1,0,0:0:0:0:
402,192,147178,1,0,0:0:0:0:
109,192,147273,1,0,0:0:0:0:
36,192,147273,1,0,0:0:0:0:
36,192,147369,128,0,147654:0:0:0:0:
109,192,147369,128,0,147654:0:0:0:0:
402,192,147369,128,0,147654:0:0:0:0:
329,192,147464,1,0,0:0:0:0:
475,192,147464,1,0,0:0:0:0:
256,192,147559,1,0,0:0:0:0:
182,192,147559,1,0,0:0:0:0:
329,192,147654,128,0,149083:0:0:0:0:
182,192,147654,128,0,149083:0:0:0:0:
475,192,147654,1,0,0:0:0:0:
402,192,147940,1,0,0:0:0:0:
475,192,147940,1,0,0:0:0:0:
109,192,147940,1,0,0:0:0:0:
256,192,148083,1,0,0:0:0:0:
36,192,148226,1,0,0:0:0:0:
109,192,148226,1,0,0:0:0:0:
475,192,148369,1,0,0:0:0:0:
109,192,148511,1,0,0:0:0:0:
36,192,148511,1,0,0:0:0:0:
402,192,148511,1,0,0:0:0:0:
256,192,148654,1,0,0:0:0:0:
402,192,148797,1,0,0:0:0:0:
475,192,148797,1,0,0:0:0:0:
256,192,148940,1,0,0:0:0:0:
402,192,149083,128,0,149369:0:0:0:0:
109,192,149083,128,0,149369:0:0:0:0:
36,192,149083,128,0,149369:0:0:0:0:
329,192,149226,1,0,0:0:0:0:
475,192,149369,128,0,149654:0:0:0:0:
256,192,149369,128,0,149654:0:0:0:0:
182,192,149369,128,0,149654:0:0:0:0:
402,192,149511,1,0,0:0:0:0:
109,192,149654,128,0,149940:0:0:0:0:
329,192,149654,128,0,149940:0:0:0:0:
402,192,149654,128,0,149940:0:0:0:0:
256,192,149797,1,0,0:0:0:0:
36,192,149940,128,0,151369:0:0:0:0:
475,192,149940,128,0,151369:0:0:0:0:
109,192,150083,1,0,0:0:0:0:
402,192,150226,1,0,0:0:0:0:
329,192,150226,1,0,0:0:0:0:
182,192,150226,1,0,0:0:0:0:
256,192,150369,1,0,0:0:0:0:
109,192,150511,128,0,150654:0:0:0:0:
402,192,150511,128,0,150654:0:0:0:0:
182,192,150654,128,0,150797:0:0:0:0:
329,192,150654,128,0,150797:0:0:0:0:
109,192,150797,1,0,0:0:0:0:
402,192,150797,1,0,0:0:0:0:
256,192,150797,1,0,0:0:0:0:
182,192,150940,128,0,151083:0:0:0:0:
329,192,150940,128,0,151083:0:0:0:0:
109,192,151083,1,0,0:0:0:0:
402,192,151083,1,0,0:0:0:0:
182,192,151226,1,0,0:0:0:0:
109,192,151369,128,0,151654:0:0:0:0:
256,192,151369,128,0,151654:0:0:0:0:
402,192,151369,128,0,151654:0:0:0:0:
329,192,151511,1,0,0:0:0:0:
36,192,151654,128,0,151940:0:0:0:0:
182,192,151654,128,0,151940:0:0:0:0:
475,192,151654,128,0,151940:0:0:0:0:
402,192,151797,1,0,0:0:0:0:
256,192,151940,128,0,152226:0:0:0:0:
109,192,151940,128,0,152226:0:0:0:0:
402,192,151940,128,0,152226:0:0:0:0:
475,192,152083,1,0,0:0:0:0:
182,192,152226,128,0,153654:0:0:0:0:
329,192,152226,128,0,153654:0:0:0:0:
36,192,152226,1,0,0:0:0:0:
475,192,152226,1,0,0:0:0:0:
36,192,152511,1,0,0:0:0:0:
256,192,152511,1,0,0:0:0:0:
109,192,152511,1,0,0:0:0:0:
402,192,152654,1,0,0:0:0:0:
475,192,152797,1,0,0:0:0:0:
256,192,152797,1,0,0:0:0:0:
109,192,152940,1,0,0:0:0:0:
402,192,153083,1,0,0:0:0:0:
475,192,153083,1,0,0:0:0:0:
36,192,153083,1,0,0:0:0:0:
256,192,153226,1,0,0:0:0:0:
109,192,153369,1,0,0:0:0:0:
36,192,153369,1,0,0:0:0:0:
475,192,153511,1,0,0:0:0:0:
109,192,153654,128,0,153940:0:0:0:0:
402,192,153654,128,0,153940:0:0:0:0:
256,192,153654,128,0,153940:0:0:0:0:
182,192,153797,1,0,0:0:0:0:
475,192,153940,128,0,154226:0:0:0:0:
329,192,153940,128,0,154226:0:0:0:0:
36,192,153940,128,0,154226:0:0:0:0:
182,192,154083,1,0,0:0:0:0:
256,192,154226,128,0,154511:0:0:0:0:
109,192,154226,128,0,154511:0:0:0:0:
402,192,154226,128,0,154511:0:0:0:0:
329,192,154369,1,0,0:0:0:0:
475,192,154511,128,0,155940:0:0:0:0:
36,192,154511,128,0,155940:0:0:0:0:
402,192,154654,1,0,0:0:0:0:
182,192,154797,1,0,0:0:0:0:
256,192,154797,1,0,0:0:0:0:
329,192,154797,1,0,0:0:0:0:
109,192,154940,1,0,0:0:0:0:
182,192,155083,1,0,0:0:0:0:
329,192,155083,1,0,0:0:0:0:
402,192,155226,1,0,0:0:0:0:
329,192,155369,1,0,0:0:0:0:
256,192,155369,1,0,0:0:0:0:
182,192,155369,1,0,0:0:0:0:
109,192,155511,1,0,0:0:0:0:
182,192,155654,1,0,0:0:0:0:
329,192,155654,1,0,0:0:0:0:
256,192,155797,1,0,0:0:0:0:
256,192,155940,128,0,156226:0:0:0:0:
109,192,155940,128,0,156226:0:0:0:0:
402,192,155940,128,0,156226:0:0:0:0:
36,192,156083,1,0,0:0:0:0:
329,192,156226,128,0,156511:0:0:0:0:
182,192,156226,128,0,156511:0:0:0:0:
402,192,156369,1,0,0:0:0:0:
475,192,156511,128,0,156797:0:0:0:0:
36,192,156511,128,0,156797:0:0:0:0:
256,192,156511,128,0,156797:0:0:0:0:
182,192,156654,1,0,0:0:0:0:
402,192,156797,128,0,158226:0:0:0:0:
329,192,156797,1,0,0:0:0:0:
182,192,156797,1,0,0:0:0:0:
109,192,156797,128,0,158226:0:0:0:0:
256,192,157083,1,0,0:0:0:0:
36,192,157083,1,0,0:0:0:0:
475,192,157083,1,0,0:0:0:0:
182,192,157226,1,0,0:0:0:0:
329,192,157226,1,0,0:0:0:0:
256,192,157369,1,0,0:0:0:0:
36,192,157511,1,0,0:0:0:0:
475,192,157511,1,0,0:0:0:0:
329,192,157654,1,0,0:0:0:0:
256,192,157654,1,0,0:0:0:0:
182,192,157654,1,0,0:0:0:0:
36,192,157940,1,0,0:0:0:0:
475,192,157940,1,0,0:0:0:0:
256,192,158083,1,0,0:0:0:0:
36,192,158226,128,0,158511:0:0:0:0:
475,192,158226,128,0,158511:0:0:0:0:
182,192,158369,1,0,0:0:0:0:
329,192,158369,1,0,0:0:0:0:
256,192,158511,128,0,158797:0:0:0:0:
109,192,158511,128,0,158797:0:0:0:0:
402,192,158511,128,0,158797:0:0:0:0:
475,192,158654,1,0,0:0:0:0:
36,192,158654,1,0,0:0:0:0:
182,192,158797,128,0,159083:0:0:0:0:
329,192,158797,128,0,159083:0:0:0:0:
36,192,159083,1,0,0:0:0:0:
475,192,159083,1,0,0:0:0:0:
109,192,159083,1,0,0:0:0:0:
402,192,159083,1,0,0:0:0:0:
182,192,159154,1,0,0:0:0:0:
329,192,159154,1,0,0:0:0:0:
402,192,159226,1,0,0:0:0:0:
109,192,159226,1,0,0:0:0:0:
36,192,159297,1,0,0:0:0:0:
475,192,159297,1,0,0:0:0:0:
182,192,159369,1,0,0:0:0:0:
402,192,159369,1,0,0:0:0:0:
256,192,159369,1,0,0:0:0:0:
109,192,159440,1,0,0:0:0:0:
329,192,159440,1,0,0:0:0:0:
36,192,159511,1,0,0:0:0:0:
256,192,159511,1,0,0:0:0:0:
475,192,159583,1,0,0:0:0:0:
182,192,159583,1,0,0:0:0:0:
402,192,159654,1,0,0:0:0:0:
109,192,159654,1,0,0:0:0:0:
256,192,159654,1,0,0:0:0:0:
329,192,159726,1,0,0:0:0:0:
36,192,159726,1,0,0:0:0:0:
402,192,159797,1,0,0:0:0:0:
109,192,159797,1,0,0:0:0:0:
475,192,159869,1,0,0:0:0:0:
182,192,159869,1,0,0:0:0:0:
109,192,159940,1,0,0:0:0:0:
402,192,159940,1,0,0:0:0:0:
256,192,159940,1,0,0:0:0:0:
36,192,160011,1,0,0:0:0:0:
329,192,160011,1,0,0:0:0:0:
109,192,160083,1,0,0:0:0:0:
402,192,160083,1,0,0:0:0:0:
182,192,160154,1,0,0:0:0:0:
475,192,160154,1,0,0:0:0:0:
36,192,160226,1,0,0:0:0:0:
329,192,160226,1,0,0:0:0:0:
109,192,160226,1,0,0:0:0:0:
402,192,160226,1,0,0:0:0:0:
109,192,160369,1,0,0:0:0:0:
256,192,160369,1,0,0:0:0:0:
182,192,160511,1,0,0:0:0:0:
475,192,160511,1,0,0:0:0:0:
36,192,160511,1,0,0:0:0:0:
256,192,160654,1,0,0:0:0:0:
402,192,160654,1,0,0:0:0:0:
109,192,160654,1,0,0:0:0:0:
329,192,160797,1,0,0:0:0:0:
475,192,160797,1,0,0:0:0:0:
36,192,160940,1,0,0:0:0:0:
182,192,160940,1,0,0:0:0:0:
256,192,160940,1,0,0:0:0:0:
329,192,161083,1,0,0:0:0:0:
402,192,161083,1,0,0:0:0:0:
475,192,161083,1,0,0:0:0:0:
182,192,161226,1,0,0:0:0:0:
109,192,161226,1,0,0:0:0:0:
256,192,161369,1,0,0:0:0:0:
475,192,161369,1,0,0:0:0:0:
36,192,161369,1,0,0:0:0:0:
329,192,161369,1,0,0:0:0:0:
182,192,161654,1,0,0:0:0:0:
109,192,161654,1,0,0:0:0:0:
402,192,161654,1,0,0:0:0:0:
36,192,161797,1,0,0:0:0:0:
256,192,161797,1,0,0:0:0:0:
329,192,161940,1,0,0:0:0:0:
475,192,162083,1,0,0:0:0:0:
182,192,162083,1,0,0:0:0:0:
256,192,162226,1,0,0:0:0:0:
402,192,162226,1,0,0:0:0:0:
36,192,162226,1,0,0:0:0:0:
109,192,162369,128,0,162440:0:0:0:0:
329,192,162369,128,0,162440:0:0:0:0:
182,192,162440,128,0,162511:0:0:0:0:
402,192,162440,128,0,162511:0:0:0:0:
256,192,162511,128,0,162583:0:0:0:0:
475,192,162511,128,0,162583:0:0:0:0:
182,192,162654,1,0,0:0:0:0:
402,192,162654,1,0,0:0:0:0:
36,192,162797,128,0,162940:0:0:0:0:
329,192,162797,128,0,162940:0:0:0:0:
256,192,162797,1,0,0:0:0:0:
109,192,162940,128,0,163083:0:0:0:0:
402,192,162940,128,0,163083:0:0:0:0:
256,192,163083,1,0,0:0:0:0:
475,192,163226,128,0,163369:0:0:0:0:
182,192,163226,128,0,163369:0:0:0:0:
402,192,163369,128,0,163511:0:0:0:0:
109,192,163369,128,0,163511:0:0:0:0:
256,192,163369,1,0,0:0:0:0:
36,192,163511,128,0,163654:0:0:0:0:
329,192,163511,128,0,163654:0:0:0:0:
182,192,163654,128,0,163797:0:0:0:0:
402,192,163654,128,0,163797:0:0:0:0:
329,192,163797,128,0,163940:0:0:0:0:
109,192,163797,128,0,163940:0:0:0:0:
256,192,163940,1,0,0:0:0:0:
36,192,163940,1,0,0:0:0:0:
475,192,163940,1,0,0:0:0:0:
109,192,164083,1,0,0:0:0:0:
182,192,164083,1,0,0:0:0:0:
329,192,164226,1,0,0:0:0:0:
256,192,164369,1,0,0:0:0:0:
475,192,164369,1,0,0:0:0:0:
329,192,164511,1,0,0:0:0:0:
182,192,164511,1,0,0:0:0:0:
36,192,164511,1,0,0:0:0:0:
109,192,164654,128,0,164797:0:0:0:0:
402,192,164654,128,0,164797:0:0:0:0:
36,192,164797,128,0,164940:0:0:0:0:
329,192,164797,128,0,164940:0:0:0:0:
402,192,164940,1,0,0:0:0:0:
109,192,164940,1,0,0:0:0:0:
475,192,165083,128,0,165226:0:0:0:0:
182,192,165083,128,0,165226:0:0:0:0:
256,192,165083,1,0,0:0:0:0:
402,192,165226,128,0,165369:0:0:0:0:
109,192,165226,128,0,165369:0:0:0:0:
256,192,165369,1,0,0:0:0:0:
109,192,165511,128,0,165654:0:0:0:0:
402,192,165511,128,0,165654:0:0:0:0:
182,192,165654,128,0,165797:0:0:0:0:
475,192,165654,128,0,165797:0:0:0:0:
36,192,165654,1,0,0:0:0:0:
36,192,165797,128,0,165940:0:0:0:0:
329,192,165797,128,0,165940:0:0:0:0:
109,192,165940,1,0,0:0:0:0:
256,192,165940,1,0,0:0:0:0:
402,192,165940,1,0,0:0:0:0:
182,192,166083,128,0,166154:0:0:0:0:
402,192,166083,128,0,166154:0:0:0:0:
36,192,166226,1,0,0:0:0:0:
182,192,166226,1,0,0:0:0:0:
256,192,166226,1,0,0:0:0:0:
36,192,166369,1,0,0:0:0:0:
402,192,166369,1,0,0:0:0:0:
402,192,166511,1,0,0:0:0:0:
475,192,166511,1,0,0:0:0:0:
182,192,166511,1,0,0:0:0:0:
256,192,166654,1,0,0:0:0:0:
182,192,166654,1,0,0:0:0:0:
256,192,166797,1,0,0:0:0:0:
329,192,166797,1,0,0:0:0:0:
36,192,166797,1,0,0:0:0:0:
109,192,166940,128,0,167011:0:0:0:0:
402,192,166940,128,0,167011:0:0:0:0:
475,192,167011,128,0,167083:0:0:0:0:
36,192,167011,128,0,167083:0:0:0:0:
182,192,167083,128,0,167154:0:0:0:0:
329,192,167083,128,0,167154:0:0:0:0:
256,192,167083,1,0,0:0:0:0:
109,192,167226,1,0,0:0:0:0:
402,192,167226,1,0,0:0:0:0:
402,192,167369,128,0,167511:0:0:0:0:
109,192,167369,128,0,167511:0:0:0:0:
256,192,167369,1,0,0:0:0:0:
182,192,167511,128,0,167654:0:0:0:0:
329,192,167511,128,0,167654:0:0:0:0:
36,192,167654,1,0,0:0:0:0:
256,192,167654,1,0,0:0:0:0:
475,192,167654,1,0,0:0:0:0:
36,192,167797,128,0,167940:0:0:0:0:
475,192,167797,128,0,167940:0:0:0:0:
109,192,167940,128,0,168083:0:0:0:0:
402,192,167940,128,0,168083:0:0:0:0:
256,192,167940,1,0,0:0:0:0:
256,192,168083,128,0,168226:0:0:0:0:
36,192,168226,128,0,168369:0:0:0:0:
475,192,168226,128,0,168369:0:0:0:0:
182,192,168226,1,0,0:0:0:0:
329,192,168226,1,0,0:0:0:0:
182,192,168369,128,0,168511:0:0:0:0:
329,192,168369,128,0,168511:0:0:0:0:
256,192,168369,1,0,0:0:0:0:
109,192,168654,128,0,168797:0:0:0:0:
402,192,168654,128,0,168797:0:0:0:0:
256,192,168654,1,0,0:0:0:0:
182,192,168797,128,0,168940:0:0:0:0:
329,192,168797,128,0,168940:0:0:0:0:
36,192,168797,1,0,0:0:0:0:
475,192,168797,1,0,0:0:0:0:
182,192,169083,128,0,169226:0:0:0:0:
329,192,169083,128,0,169226:0:0:0:0:
256,192,169083,1,0,0:0:0:0:
475,192,169226,128,0,169369:0:0:0:0:
36,192,169226,128,0,169369:0:0:0:0:
109,192,169226,1,0,0:0:0:0:
402,192,169226,1,0,0:0:0:0:
182,192,169511,128,0,169654:0:0:0:0:
329,192,169511,128,0,169654:0:0:0:0:
256,192,169511,1,0,0:0:0:0:
402,192,169654,128,0,169797:0:0:0:0:
109,192,169654,128,0,169797:0:0:0:0:
36,192,169654,1,0,0:0:0:0:
475,192,169654,1,0,0:0:0:0:
109,192,169940,128,0,170226:0:0:0:0:
402,192,169940,128,0,170226:0:0:0:0:
329,192,170011,1,0,0:0:0:0:
182,192,170011,1,0,0:0:0:0:
36,192,170083,1,0,0:0:0:0:
475,192,170083,1,0,0:0:0:0:
329,192,170154,1,0,0:0:0:0:
182,192,170154,1,0,0:0:0:0:
36,192,170226,128,0,170511:0:0:0:0:
475,192,170226,128,0,170511:0:0:0:0:
109,192,170297,1,0,0:0:0:0:
182,192,170297,1,0,0:0:0:0:
329,192,170369,1,0,0:0:0:0:
402,192,170369,1,0,0:0:0:0:
182,192,170440,1,0,0:0:0:0:
109,192,170440,1,0,0:0:0:0:
256,192,170511,128,0,179797:0:0:0:0:
109,192,170511,128,0,173083:0:0:0:0:
402,192,170511,128,0,171940:0:0:0:0:
475,192,171940,128,0,174511:0:0:0:0:
36,192,173083,128,0,174511:0:0:0:0:
182,192,174511,128,0,175797:0:0:0:0:
329,192,174511,128,0,175797:0:0:0:0:
36,192,175797,1,0,0:0:0:0:
475,192,175797,1,0,0:0:0:0:
36,192,175940,1,0,0:0:0:0:
329,192,175940,1,0,0:0:0:0:
475,192,176011,1,0,0:0:0:0:
182,192,176011,1,0,0:0:0:0:
36,192,176083,1,0,0:0:0:0:
329,192,176083,1,0,0:0:0:0:
109,192,176154,1,0,0:0:0:0:
402,192,176154,1,0,0:0:0:0:
182,192,176226,1,0,0:0:0:0:
36,192,176226,1,0,0:0:0:0:
109,192,176297,1,0,0:0:0:0:
402,192,176297,1,0,0:0:0:0:
475,192,176369,1,0,0:0:0:0:
182,192,176369,1,0,0:0:0:0:
109,192,176440,1,0,0:0:0:0:
402,192,176440,1,0,0:0:0:0:
36,192,176511,1,0,0:0:0:0:
329,192,176511,1,0,0:0:0:0:
402,192,176583,1,0,0:0:0:0:
109,192,176583,1,0,0:0:0:0:
475,192,176654,1,0,0:0:0:0:
182,192,176654,1,0,0:0:0:0:
109,192,176726,1,0,0:0:0:0:
402,192,176726,1,0,0:0:0:0:
36,192,176797,1,0,0:0:0:0:
329,192,176797,1,0,0:0:0:0:
109,192,176869,1,0,0:0:0:0:
402,192,176869,1,0,0:0:0:0:
182,192,176940,1,0,0:0:0:0:
475,192,176940,1,0,0:0:0:0:
36,192,177011,1,0,0:0:0:0:
329,192,177011,1,0,0:0:0:0:
402,192,177083,1,0,0:0:0:0:
109,192,177083,1,0,0:0:0:0:
182,192,177154,1,0,0:0:0:0:
475,192,177154,1,0,0:0:0:0:
109,192,177226,1,0,0:0:0:0:
402,192,177226,1,0,0:0:0:0:
182,192,177654,128,0,177797:0:0:0:0:
329,192,177654,128,0,177797:0:0:0:0:
475,192,177797,128,0,178511:0:0:0:0:
36,192,177797,128,0,178511:0:0:0:0:
109,192,178511,128,0,179797:0:0:0:0:
402,192,178511,128,0,179797:0:0:0:0:
329,192,179797,128,0,181083:0:0:0:0:
36,192,179797,128,0,181083:0:0:0:0:
109,192,181083,1,0,0:0:0:0:
182,192,181083,1,0,0:0:0:0:
402,192,181083,1,0,0:0:0:0:
475,192,181083,1,0,0:0:0:0:
