osu file format v14

[General]
AudioFilename: audio.mp3
AudioLeadIn: 0
PreviewTime: 31511
Countdown: 0
SampleSet: Normal
StackLeniency: 0.7
Mode: 3
LetterboxInBreaks: 0
SpecialStyle: 0
WidescreenStoryboard: 1

[Editor]
DistanceSpacing: 0.8
BeatDivisor: 8
GridSize: 16
TimelineZoom: 1.4

[Metadata]
Title:- FALLEN -
TitleUnicode:- ΓΛLLΞИ -
Artist:Kaneko Chiharu
ArtistUnicode:かねこちはる
Creator:[KonG-69]
Version:- Doll / 5cm -
Source:
Tags:LΞGΞNDARY -Episode.1- Legendary D_arc Aishdoll 5cm
BeatmapID:2183281
BeatmapSetID:1042654

[Difficulty]
HPDrainRate:8
CircleSize:10
OverallDifficulty:8
ApproachRate:5
SliderMultiplier:1.4
SliderTickRate:1

[Events]
//Background and Video events
0,0,"uwu11.jpg",0,0
//Break Periods
//Storyboard Layer 0 (Background)
//Storyboard Layer 1 (Fail)
//Storyboard Layer 2 (Pass)
//Storyboard Layer 3 (Foreground)
//Storyboard Layer 4 (Overlay)
//Storyboard Sound Samples

[TimingPoints]
1911,285.714285714286,4,1,1,0,1,0
12482,322.58064516129,4,1,1,0,1,0
12482,-89.2857142857143,4,1,1,0,0,0
15062,333.333333333333,4,1,1,0,1,0
15062,-86.2068965517241,4,1,1,0,0,0
17728,326.086956521739,4,1,1,0,1,0
17728,-87.719298245614,4,1,1,0,0,0
20336,333.333333333333,4,1,1,0,1,0
20336,-86.2068965517241,4,1,1,0,0,0
23002,288.461538461538,4,1,1,0,1,0
23002,-99.1080277502478,4,1,1,0,0,0
25598,300,4,1,1,0,1,0
25598,-95.2380952380952,4,1,1,0,0,0
28298,285.714285714286,4,1,1,0,1,0
28298,-100,4,1,1,0,0,0
30905,-50,4,1,1,0,0,0
31119,-200,4,1,1,0,0,0
31548,-55.5555555555556,4,1,1,0,0,0
31869,-200,4,1,1,0,0,0
32155,-55.5555555555556,4,1,1,0,0,0
32440,-200,4,1,1,0,0,0
32833,-55.5555555555556,4,1,1,0,0,0
33155,-200,4,1,1,0,0,0
33369,285.714285714286,4,1,1,0,1,0
33369,-100,4,1,1,0,0,1
47083,-100,4,1,1,0,0,0
74511,-100,4,1,1,0,0,0
92797,-100,4,1,1,0,0,1
111083,-100,4,1,1,0,0,0
129369,-100,4,1,1,0,0,1
142940,-100,4,1,1,0,0,0
147583,-100,4,1,1,0,0,0
147654,-100,4,1,1,0,0,1
161369,-100,4,1,1,0,0,0

[HitObjects]
25,192,1911,128,0,4553:0:0:0:0:
281,192,1911,128,0,3268:0:0:0:0:
332,192,3268,128,0,4553:0:0:0:0:
384,192,3268,128,0,4553:0:0:0:0:
435,192,4553,128,0,5839:0:0:0:0:
76,192,4553,128,0,5839:0:0:0:0:
128,192,4553,128,0,5839:0:0:0:0:
230,192,5839,128,0,7196:0:0:0:0:
384,192,5839,128,0,7196:0:0:0:0:
179,192,7196,1,0,0:0:0:0:
281,192,7196,1,0,0:0:0:0:
486,192,7196,128,0,9125:0:0:0:0:
332,192,7268,1,0,0:0:0:0:
384,192,7339,1,0,0:0:0:0:
435,192,7411,1,0,0:0:0:0:
384,192,7482,1,0,0:0:0:0:
332,192,7553,1,0,0:0:0:0:
76,192,7625,1,0,0:0:0:0:
281,192,7625,1,0,0:0:0:0:
230,192,7696,1,0,0:0:0:0:
179,192,7768,1,0,0:0:0:0:
128,192,7839,1,0,0:0:0:0:
332,192,7911,1,0,0:0:0:0:
76,192,7911,1,0,0:0:0:0:
128,192,7982,1,0,0:0:0:0:
179,192,8053,1,0,0:0:0:0:
230,192,8125,1,0,0:0:0:0:
435,192,8196,1,0,0:0:0:0:
281,192,8196,1,0,0:0:0:0:
332,192,8268,1,0,0:0:0:0:
384,192,8339,1,0,0:0:0:0:
332,192,8411,1,0,0:0:0:0:
76,192,8482,1,0,0:0:0:0:
281,192,8482,1,0,0:0:0:0:
230,192,8553,1,0,0:0:0:0:
179,192,8625,1,0,0:0:0:0:
128,192,8696,1,0,0:0:0:0:
179,192,8768,1,0,0:0:0:0:
384,192,8768,1,0,0:0:0:0:
230,192,8839,1,0,0:0:0:0:
281,192,8911,1,0,0:0:0:0:
332,192,8982,1,0,0:0:0:0:
179,192,9053,1,0,0:0:0:0:
384,192,9053,1,0,0:0:0:0:
435,192,9125,1,0,0:0:0:0:
230,192,9125,1,0,0:0:0:0:
384,192,9911,1,0,0:0:0:0:
25,192,9911,1,0,0:0:0:0:
332,192,9982,1,0,0:0:0:0:
76,192,9982,1,0,0:0:0:0:
281,192,10053,1,0,0:0:0:0:
128,192,10053,1,0,0:0:0:0:
76,192,10125,1,0,0:0:0:0:
435,192,10125,1,0,0:0:0:0:
25,192,10196,1,0,0:0:0:0:
384,192,10196,1,0,0:0:0:0:
179,192,10268,1,0,0:0:0:0:
332,192,10268,1,0,0:0:0:0:
230,192,10339,1,0,0:0:0:0:
384,192,10339,1,0,0:0:0:0:
179,192,10411,1,0,0:0:0:0:
435,192,10411,1,0,0:0:0:0:
128,192,10482,1,0,0:0:0:0:
332,192,10482,1,0,0:0:0:0:
230,192,10553,1,0,0:0:0:0:
384,192,10553,1,0,0:0:0:0:
179,192,10625,1,0,0:0:0:0:
435,192,10625,1,0,0:0:0:0:
128,192,10696,1,0,0:0:0:0:
486,192,10696,1,0,0:0:0:0:
179,192,10768,1,0,0:0:0:0:
435,192,10768,1,0,0:0:0:0:
230,192,10839,1,0,0:0:0:0:
384,192,10839,1,0,0:0:0:0:
179,192,10911,1,0,0:0:0:0:
332,192,10911,1,0,0:0:0:0:
128,192,10982,1,0,0:0:0:0:
384,192,10982,1,0,0:0:0:0:
179,192,11053,1,0,0:0:0:0:
435,192,11053,1,0,0:0:0:0:
76,192,11839,1,0,0:0:0:0:
435,192,11839,1,0,0:0:0:0:
332,192,11911,1,0,0:0:0:0:
486,192,11982,1,0,0:0:0:0:
230,192,11982,1,0,0:0:0:0:
384,192,12053,1,0,0:0:0:0:
128,192,12053,1,0,0:0:0:0:
332,192,12125,1,0,0:0:0:0:
25,192,12125,1,0,0:0:0:0:
435,192,12196,1,0,0:0:0:0:
179,192,12196,1,0,0:0:0:0:
281,192,12268,1,0,0:0:0:0:
76,192,12268,1,0,0:0:0:0:
332,192,12339,1,0,0:0:0:0:
128,192,12339,1,0,0:0:0:0:
384,192,12411,1,0,0:0:0:0:
179,192,12411,1,0,0:0:0:0:
435,192,12482,1,0,0:0:0:0:
25,192,12482,1,0,0:0:0:0:
230,192,12482,1,0,0:0:0:0:
76,192,12482,1,0,0:0:0:0:
25,192,15062,1,0,0:0:0:0:
486,192,15062,1,0,0:0:0:0:
486,192,17728,1,0,0:0:0:0:
25,192,17728,1,0,0:0:0:0:
128,192,20336,1,0,0:0:0:0:
25,192,20336,1,0,0:0:0:0:
230,192,20336,1,0,0:0:0:0:
486,192,20502,1,0,0:0:0:0:
384,192,20502,1,0,0:0:0:0:
281,192,20502,1,0,0:0:0:0:
25,192,21169,1,0,0:0:0:0:
128,192,21169,1,0,0:0:0:0:
179,192,21169,1,0,0:0:0:0:
384,192,21502,1,0,0:0:0:0:
332,192,21502,1,0,0:0:0:0:
486,192,21502,1,0,0:0:0:0:
332,192,21836,1,0,0:0:0:0:
76,192,21836,1,0,0:0:0:0:
179,192,21836,1,0,0:0:0:0:
486,192,22169,1,0,0:0:0:0:
435,192,22169,1,0,0:0:0:0:
281,192,22169,1,0,0:0:0:0:
25,192,22502,1,0,0:0:0:0:
384,192,22585,1,0,0:0:0:0:
25,192,22669,1,0,0:0:0:0:
384,192,23002,1,0,0:0:0:0:
486,192,23002,1,0,0:0:0:0:
179,192,23002,128,0,25309:0:0:0:0:
486,192,23182,1,0,0:0:0:0:
384,192,23182,1,0,0:0:0:0:
486,192,23470,1,0,0:0:0:0:
435,192,23470,1,0,0:0:0:0:
486,192,23867,1,0,0:0:0:0:
435,192,23867,1,0,0:0:0:0:
486,192,24155,1,0,0:0:0:0:
435,192,24155,1,0,0:0:0:0:
486,192,24480,1,0,0:0:0:0:
435,192,24480,1,0,0:0:0:0:
486,192,24840,1,0,0:0:0:0:
435,192,24840,1,0,0:0:0:0:
486,192,25021,1,0,0:0:0:0:
435,192,25021,1,0,0:0:0:0:
281,192,25165,1,0,0:0:0:0:
230,192,25237,1,0,0:0:0:0:
281,192,25309,1,0,0:0:0:0:
384,192,25309,1,0,0:0:0:0:
128,192,25309,1,0,0:0:0:0:
25,192,25635,1,0,0:0:0:0:
128,192,25635,1,0,0:0:0:0:
332,192,25635,128,0,27998:0:0:0:0:
25,192,25823,1,0,0:0:0:0:
128,192,25823,1,0,0:0:0:0:
25,192,26123,1,0,0:0:0:0:
76,192,26123,1,0,0:0:0:0:
76,192,26498,1,0,0:0:0:0:
25,192,26498,1,0,0:0:0:0:
25,192,26798,1,0,0:0:0:0:
76,192,26798,1,0,0:0:0:0:
25,192,27173,1,0,0:0:0:0:
76,192,27173,1,0,0:0:0:0:
76,192,27510,1,0,0:0:0:0:
25,192,27510,1,0,0:0:0:0:
25,192,27623,1,0,0:0:0:0:
76,192,27623,1,0,0:0:0:0:
435,192,27848,1,0,0:0:0:0:
76,192,27923,1,0,0:0:0:0:
435,192,27998,1,0,0:0:0:0:
179,192,27998,1,0,0:0:0:0:
486,192,27998,1,0,0:0:0:0:
384,192,28298,1,0,0:0:0:0:
76,192,28298,1,0,0:0:0:0:
76,192,28440,1,0,0:0:0:0:
384,192,28440,1,0,0:0:0:0:
435,192,28440,1,0,0:0:0:0:
230,192,28583,128,0,30905:0:0:0:0:
486,192,28583,128,0,30905:0:0:0:0:
435,192,28798,1,0,0:0:0:0:
76,192,28798,1,0,0:0:0:0:
179,192,28798,1,0,0:0:0:0:
25,192,29083,1,0,0:0:0:0:
128,192,29083,1,0,0:0:0:0:
384,192,29083,1,0,0:0:0:0:
179,192,29440,1,0,0:0:0:0:
76,192,29440,1,0,0:0:0:0:
128,192,29762,1,0,0:0:0:0:
25,192,29762,1,0,0:0:0:0:
332,192,29940,1,0,0:0:0:0:
384,192,30119,1,0,0:0:0:0:
435,192,30119,1,0,0:0:0:0:
25,192,30119,1,0,0:0:0:0:
76,192,30262,1,0,0:0:0:0:
128,192,30262,1,0,0:0:0:0:
128,192,30583,1,0,0:0:0:0:
179,192,30583,1,0,0:0:0:0:
435,192,30905,1,0,0:0:0:0:
25,192,30905,1,0,0:0:0:0:
76,192,30905,1,0,0:0:0:0:
281,192,31548,128,0,32155:0:0:0:0:
128,192,31548,128,0,32798:0:0:0:0:
179,192,31548,128,0,32155:0:0:0:0:
486,192,32155,128,0,32798:0:0:0:0:
384,192,32155,128,0,32798:0:0:0:0:
230,192,32798,128,0,33333:0:0:0:0:
486,192,33369,128,0,35654:0:0:0:0:
76,192,33369,1,0,0:0:0:0:
332,192,33369,1,0,0:0:0:0:
128,192,33369,1,0,0:0:0:0:
25,192,33654,1,0,0:0:0:0:
76,192,33654,1,0,0:0:0:0:
230,192,33654,1,0,0:0:0:0:
179,192,33797,1,0,0:0:0:0:
128,192,33869,1,0,0:0:0:0:
76,192,33940,1,0,0:0:0:0:
25,192,33940,1,0,0:0:0:0:
332,192,33940,1,0,0:0:0:0:
179,192,34083,1,0,0:0:0:0:
435,192,34083,1,0,0:0:0:0:
384,192,34083,1,0,0:0:0:0:
128,192,34226,1,0,0:0:0:0:
76,192,34226,1,0,0:0:0:0:
281,192,34226,1,0,0:0:0:0:
230,192,34369,1,0,0:0:0:0:
128,192,34511,1,0,0:0:0:0:
332,192,34511,1,0,0:0:0:0:
179,192,34654,1,0,0:0:0:0:
384,192,34797,128,0,35654:0:0:0:0:
230,192,34797,1,0,0:0:0:0:
25,192,34797,1,0,0:0:0:0:
76,192,34797,1,0,0:0:0:0:
435,192,35083,128,0,35654:0:0:0:0:
25,192,35083,1,0,0:0:0:0:
179,192,35083,1,0,0:0:0:0:
332,192,35369,128,0,35654:0:0:0:0:
25,192,35369,1,0,0:0:0:0:
230,192,35369,1,0,0:0:0:0:
25,192,35654,128,0,36797:0:0:0:0:
486,192,35940,1,0,0:0:0:0:
281,192,35940,1,0,0:0:0:0:
384,192,36083,1,0,0:0:0:0:
332,192,36154,1,0,0:0:0:0:
179,192,36226,128,0,36369:0:0:0:0:
281,192,36226,1,0,0:0:0:0:
128,192,36369,128,0,36511:0:0:0:0:
435,192,36369,1,0,0:0:0:0:
384,192,36440,1,0,0:0:0:0:
76,192,36511,128,0,36940:0:0:0:0:
230,192,36511,128,0,36654:0:0:0:0:
332,192,36511,1,0,0:0:0:0:
179,192,36654,128,0,36797:0:0:0:0:
486,192,36654,1,0,0:0:0:0:
435,192,36726,1,0,0:0:0:0:
128,192,36797,128,0,37083:0:0:0:0:
384,192,36797,1,0,0:0:0:0:
230,192,36797,128,0,36940:0:0:0:0:
179,192,36940,128,0,37083:0:0:0:0:
281,192,36940,1,0,0:0:0:0:
332,192,37011,1,0,0:0:0:0:
230,192,37083,128,0,37369:0:0:0:0:
384,192,37083,128,0,37654:0:0:0:0:
435,192,37083,128,0,37654:0:0:0:0:
128,192,37369,128,0,37654:0:0:0:0:
76,192,37369,1,0,0:0:0:0:
179,192,37369,1,0,0:0:0:0:
281,192,37654,128,0,37940:0:0:0:0:
25,192,37654,128,0,37940:0:0:0:0:
230,192,37654,1,0,0:0:0:0:
76,192,37654,1,0,0:0:0:0:
332,192,37654,1,0,0:0:0:0:
76,192,37940,128,0,39369:0:0:0:0:
486,192,37940,128,0,39369:0:0:0:0:
179,192,37940,1,0,0:0:0:0:
332,192,37940,1,0,0:0:0:0:
435,192,37940,1,0,0:0:0:0:
435,192,38226,1,0,0:0:0:0:
384,192,38226,1,0,0:0:0:0:
128,192,38226,1,0,0:0:0:0:
230,192,38297,1,0,0:0:0:0:
179,192,38369,1,0,0:0:0:0:
230,192,38440,1,0,0:0:0:0:
384,192,38511,1,0,0:0:0:0:
332,192,38511,1,0,0:0:0:0:
128,192,38511,1,0,0:0:0:0:
179,192,38654,1,0,0:0:0:0:
281,192,38654,1,0,0:0:0:0:
435,192,38797,1,0,0:0:0:0:
384,192,38797,1,0,0:0:0:0:
230,192,38869,1,0,0:0:0:0:
179,192,38940,1,0,0:0:0:0:
128,192,39011,1,0,0:0:0:0:
384,192,39083,1,0,0:0:0:0:
332,192,39083,1,0,0:0:0:0:
230,192,39226,1,0,0:0:0:0:
179,192,39297,1,0,0:0:0:0:
128,192,39369,128,0,39654:0:0:0:0:
332,192,39369,128,0,39940:0:0:0:0:
179,192,39511,1,0,0:0:0:0:
25,192,39511,1,0,0:0:0:0:
179,192,39654,128,0,40226:0:0:0:0:
435,192,39654,128,0,39940:0:0:0:0:
25,192,39654,1,0,0:0:0:0:
281,192,39654,1,0,0:0:0:0:
230,192,39940,128,0,40226:0:0:0:0:
384,192,39940,128,0,40226:0:0:0:0:
486,192,39940,128,0,40226:0:0:0:0:
25,192,39940,1,0,0:0:0:0:
76,192,39940,1,0,0:0:0:0:
281,192,39940,1,0,0:0:0:0:
76,192,40226,128,0,41654:0:0:0:0:
128,192,40226,128,0,41654:0:0:0:0:
332,192,40226,1,0,0:0:0:0:
486,192,40511,1,0,0:0:0:0:
435,192,40511,1,0,0:0:0:0:
281,192,40511,1,0,0:0:0:0:
179,192,40511,1,0,0:0:0:0:
384,192,40654,1,0,0:0:0:0:
332,192,40654,1,0,0:0:0:0:
179,192,40797,1,0,0:0:0:0:
230,192,40797,1,0,0:0:0:0:
435,192,40797,1,0,0:0:0:0:
281,192,40940,1,0,0:0:0:0:
384,192,41011,1,0,0:0:0:0:
179,192,41083,1,0,0:0:0:0:
486,192,41083,1,0,0:0:0:0:
435,192,41154,1,0,0:0:0:0:
384,192,41226,1,0,0:0:0:0:
435,192,41297,1,0,0:0:0:0:
179,192,41369,1,0,0:0:0:0:
230,192,41369,1,0,0:0:0:0:
486,192,41369,1,0,0:0:0:0:
281,192,41440,1,0,0:0:0:0:
332,192,41511,1,0,0:0:0:0:
486,192,41511,1,0,0:0:0:0:
435,192,41583,1,0,0:0:0:0:
230,192,41654,128,0,42511:0:0:0:0:
384,192,41654,1,0,0:0:0:0:
332,192,41654,128,0,41940:0:0:0:0:
486,192,41654,128,0,42226:0:0:0:0:
179,192,41654,1,0,0:0:0:0:
179,192,41940,128,0,42511:0:0:0:0:
435,192,41940,1,0,0:0:0:0:
384,192,41940,1,0,0:0:0:0:
25,192,41940,1,0,0:0:0:0:
25,192,42226,128,0,42511:0:0:0:0:
281,192,42226,1,0,0:0:0:0:
332,192,42226,1,0,0:0:0:0:
76,192,42226,1,0,0:0:0:0:
128,192,42511,1,0,0:0:0:0:
384,192,42511,1,0,0:0:0:0:
486,192,42511,1,0,0:0:0:0:
435,192,42511,128,0,43940:0:0:0:0:
76,192,42797,1,0,0:0:0:0:
128,192,42797,1,0,0:0:0:0:
332,192,42797,1,0,0:0:0:0:
332,192,42940,1,0,0:0:0:0:
230,192,42940,1,0,0:0:0:0:
281,192,43083,1,0,0:0:0:0:
25,192,43083,1,0,0:0:0:0:
230,192,43226,1,0,0:0:0:0:
332,192,43369,1,0,0:0:0:0:
384,192,43369,1,0,0:0:0:0:
128,192,43369,1,0,0:0:0:0:
281,192,43511,1,0,0:0:0:0:
76,192,43654,1,0,0:0:0:0:
76,192,43940,128,0,44797:0:0:0:0:
332,192,43940,1,0,0:0:0:0:
230,192,44083,1,0,0:0:0:0:
384,192,44083,1,0,0:0:0:0:
230,192,44226,128,0,44797:0:0:0:0:
435,192,44226,1,0,0:0:0:0:
25,192,44369,1,0,0:0:0:0:
486,192,44369,1,0,0:0:0:0:
486,192,44511,128,0,44797:0:0:0:0:
435,192,44797,1,0,0:0:0:0:
179,192,44797,1,0,0:0:0:0:
384,192,44869,1,0,0:0:0:0:
128,192,44869,1,0,0:0:0:0:
76,192,44940,1,0,0:0:0:0:
281,192,44940,1,0,0:0:0:0:
128,192,45011,1,0,0:0:0:0:
332,192,45011,1,0,0:0:0:0:
435,192,45083,1,0,0:0:0:0:
179,192,45083,1,0,0:0:0:0:
25,192,45083,1,0,0:0:0:0:
230,192,45154,1,0,0:0:0:0:
76,192,45154,1,0,0:0:0:0:
384,192,45154,1,0,0:0:0:0:
281,192,45226,1,0,0:0:0:0:
128,192,45226,1,0,0:0:0:0:
332,192,45297,1,0,0:0:0:0:
179,192,45297,1,0,0:0:0:0:
384,192,45369,1,0,0:0:0:0:
25,192,45369,1,0,0:0:0:0:
435,192,45440,1,0,0:0:0:0:
76,192,45440,1,0,0:0:0:0:
486,192,45511,1,0,0:0:0:0:
128,192,45511,1,0,0:0:0:0:
332,192,45583,1,0,0:0:0:0:
76,192,45583,1,0,0:0:0:0:
384,192,45654,1,0,0:0:0:0:
25,192,45654,1,0,0:0:0:0:
435,192,45726,1,0,0:0:0:0:
76,192,45726,1,0,0:0:0:0:
384,192,45797,1,0,0:0:0:0:
128,192,45797,1,0,0:0:0:0:
332,192,45869,1,0,0:0:0:0:
179,192,45869,1,0,0:0:0:0:
486,192,45940,1,0,0:0:0:0:
128,192,45940,1,0,0:0:0:0:
281,192,45940,1,0,0:0:0:0:
435,192,45940,1,0,0:0:0:0:
384,192,46011,1,0,0:0:0:0:
76,192,46011,1,0,0:0:0:0:
128,192,46083,1,0,0:0:0:0:
332,192,46083,1,0,0:0:0:0:
179,192,46154,1,0,0:0:0:0:
384,192,46154,1,0,0:0:0:0:
435,192,46226,1,0,0:0:0:0:
230,192,46226,1,0,0:0:0:0:
25,192,46226,1,0,0:0:0:0:
76,192,46226,1,0,0:0:0:0:
128,192,46297,1,0,0:0:0:0:
384,192,46297,1,0,0:0:0:0:
179,192,46369,1,0,0:0:0:0:
332,192,46369,1,0,0:0:0:0:
128,192,46440,1,0,0:0:0:0:
486,192,46440,1,0,0:0:0:0:
76,192,46511,1,0,0:0:0:0:
435,192,46511,1,0,0:0:0:0:
25,192,46583,1,0,0:0:0:0:
384,192,46583,1,0,0:0:0:0:
332,192,46654,1,0,0:0:0:0:
76,192,46654,1,0,0:0:0:0:
384,192,46726,1,0,0:0:0:0:
128,192,46726,1,0,0:0:0:0:
435,192,46797,1,0,0:0:0:0:
179,192,46797,1,0,0:0:0:0:
486,192,46869,1,0,0:0:0:0:
230,192,46869,1,0,0:0:0:0:
281,192,46940,1,0,0:0:0:0:
230,192,47011,1,0,0:0:0:0:
435,192,47083,1,0,0:0:0:0:
128,192,47083,128,0,47654:0:0:0:0:
332,192,47083,128,0,47654:0:0:0:0:
179,192,47083,1,0,0:0:0:0:
179,192,47369,128,0,47654:0:0:0:0:
384,192,47654,128,0,48083:0:0:0:0:
230,192,47654,128,0,48226:0:0:0:0:
435,192,47940,128,0,48369:0:0:0:0:
25,192,47940,128,0,48226:0:0:0:0:
486,192,48226,128,0,48654:0:0:0:0:
76,192,48226,128,0,48797:0:0:0:0:
281,192,48511,128,0,48940:0:0:0:0:
179,192,48511,128,0,48797:0:0:0:0:
332,192,48797,128,0,49226:0:0:0:0:
128,192,48797,128,0,49369:0:0:0:0:
384,192,49083,128,0,49369:0:0:0:0:
76,192,49083,128,0,49369:0:0:0:0:
25,192,49226,128,0,49369:0:0:0:0:
230,192,49369,128,0,50226:0:0:0:0:
486,192,49369,128,0,49654:0:0:0:0:
179,192,49654,128,0,49940:0:0:0:0:
435,192,49654,128,0,50511:0:0:0:0:
128,192,49940,128,0,50226:0:0:0:0:
384,192,49940,128,0,50511:0:0:0:0:
179,192,50226,128,0,50511:0:0:0:0:
25,192,50226,128,0,51083:0:0:0:0:
332,192,50226,128,0,50511:0:0:0:0:
76,192,50511,128,0,50797:0:0:0:0:
281,192,50511,128,0,51083:0:0:0:0:
128,192,50797,128,0,51083:0:0:0:0:
332,192,50797,128,0,51083:0:0:0:0:
179,192,51083,128,0,51369:0:0:0:0:
384,192,51083,128,0,51654:0:0:0:0:
230,192,51369,128,0,51654:0:0:0:0:
76,192,51369,128,0,51654:0:0:0:0:
332,192,51369,128,0,51654:0:0:0:0:
486,192,51654,128,0,52226:0:0:0:0:
281,192,51654,1,0,0:0:0:0:
230,192,51726,1,0,0:0:0:0:
128,192,51797,128,0,52011:0:0:0:0:
179,192,51797,1,0,0:0:0:0:
384,192,51940,128,0,52226:0:0:0:0:
281,192,51940,1,0,0:0:0:0:
76,192,52083,128,0,52297:0:0:0:0:
332,192,52226,128,0,52654:0:0:0:0:
435,192,52226,128,0,52654:0:0:0:0:
128,192,52226,1,0,0:0:0:0:
179,192,52369,128,0,52583:0:0:0:0:
76,192,52511,1,0,0:0:0:0:
384,192,52654,128,0,53083:0:0:0:0:
281,192,52654,128,0,53511:0:0:0:0:
25,192,52654,128,0,52869:0:0:0:0:
76,192,52797,1,0,0:0:0:0:
76,192,52940,128,0,53154:0:0:0:0:
435,192,53083,128,0,53226:0:0:0:0:
128,192,53083,1,0,0:0:0:0:
384,192,53226,128,0,53369:0:0:0:0:
128,192,53226,128,0,53440:0:0:0:0:
332,192,53369,128,0,53511:0:0:0:0:
25,192,53369,1,0,0:0:0:0:
486,192,53511,128,0,53940:0:0:0:0:
179,192,53511,128,0,53726:0:0:0:0:
384,192,53654,128,0,53940:0:0:0:0:
128,192,53654,1,0,0:0:0:0:
281,192,53797,128,0,53940:0:0:0:0:
76,192,53940,128,0,54226:0:0:0:0:
179,192,53940,1,0,0:0:0:0:
384,192,54083,128,0,54226:0:0:0:0:
230,192,54083,1,0,0:0:0:0:
230,192,54226,128,0,54511:0:0:0:0:
435,192,54369,128,0,54511:0:0:0:0:
332,192,54369,1,0,0:0:0:0:
179,192,54511,128,0,54654:0:0:0:0:
384,192,54511,128,0,54654:0:0:0:0:
281,192,54511,1,0,0:0:0:0:
128,192,54654,128,0,54797:0:0:0:0:
332,192,54654,128,0,54797:0:0:0:0:
230,192,54654,1,0,0:0:0:0:
486,192,54797,128,0,55083:0:0:0:0:
179,192,54797,1,0,0:0:0:0:
76,192,54940,128,0,55083:0:0:0:0:
281,192,54940,1,0,0:0:0:0:
435,192,55083,128,0,55369:0:0:0:0:
332,192,55083,1,0,0:0:0:0:
128,192,55226,128,0,55369:0:0:0:0:
384,192,55226,1,0,0:0:0:0:
332,192,55369,128,0,55940:0:0:0:0:
179,192,55369,1,0,0:0:0:0:
230,192,55511,128,0,55654:0:0:0:0:
128,192,55511,1,0,0:0:0:0:
384,192,55654,128,0,55940:0:0:0:0:
76,192,55654,1,0,0:0:0:0:
25,192,55797,128,0,55940:0:0:0:0:
179,192,55797,1,0,0:0:0:0:
281,192,55940,128,0,56226:0:0:0:0:
128,192,55940,1,0,0:0:0:0:
76,192,56083,1,0,0:0:0:0:
179,192,56083,128,0,56226:0:0:0:0:
25,192,56226,1,0,0:0:0:0:
384,192,56226,128,0,57369:0:0:0:0:
486,192,56226,128,0,57369:0:0:0:0:
128,192,56226,1,0,0:0:0:0:
76,192,56369,1,0,0:0:0:0:
179,192,56511,1,0,0:0:0:0:
128,192,56511,1,0,0:0:0:0:
281,192,56654,1,0,0:0:0:0:
76,192,56797,1,0,0:0:0:0:
128,192,56797,1,0,0:0:0:0:
179,192,56940,1,0,0:0:0:0:
230,192,57083,1,0,0:0:0:0:
25,192,57083,1,0,0:0:0:0:
25,192,57226,1,0,0:0:0:0:
128,192,57226,1,0,0:0:0:0:
332,192,57369,128,0,58511:0:0:0:0:
281,192,57369,128,0,58511:0:0:0:0:
179,192,57369,1,0,0:0:0:0:
76,192,57369,1,0,0:0:0:0:
128,192,57511,1,0,0:0:0:0:
179,192,57654,1,0,0:0:0:0:
230,192,57797,1,0,0:0:0:0:
179,192,57940,1,0,0:0:0:0:
76,192,57940,1,0,0:0:0:0:
25,192,58083,1,0,0:0:0:0:
128,192,58083,1,0,0:0:0:0:
230,192,58226,1,0,0:0:0:0:
179,192,58369,1,0,0:0:0:0:
128,192,58511,128,0,59654:0:0:0:0:
25,192,58511,128,0,59654:0:0:0:0:
486,192,58511,1,0,0:0:0:0:
435,192,58511,1,0,0:0:0:0:
230,192,58654,1,0,0:0:0:0:
281,192,58797,1,0,0:0:0:0:
435,192,58797,1,0,0:0:0:0:
230,192,58940,1,0,0:0:0:0:
281,192,59083,1,0,0:0:0:0:
486,192,59083,1,0,0:0:0:0:
384,192,59226,1,0,0:0:0:0:
281,192,59369,1,0,0:0:0:0:
435,192,59369,1,0,0:0:0:0:
332,192,59511,1,0,0:0:0:0:
76,192,59654,128,0,60797:0:0:0:0:
179,192,59654,128,0,60797:0:0:0:0:
384,192,59654,1,0,0:0:0:0:
486,192,59797,1,0,0:0:0:0:
435,192,59940,1,0,0:0:0:0:
384,192,59940,1,0,0:0:0:0:
332,192,60083,1,0,0:0:0:0:
281,192,60226,1,0,0:0:0:0:
435,192,60226,1,0,0:0:0:0:
384,192,60369,1,0,0:0:0:0:
332,192,60511,1,0,0:0:0:0:
486,192,60511,1,0,0:0:0:0:
384,192,60654,1,0,0:0:0:0:
25,192,60797,128,0,63083:0:0:0:0:
128,192,60797,128,0,63083:0:0:0:0:
281,192,60797,1,0,0:0:0:0:
435,192,60797,1,0,0:0:0:0:
230,192,60797,128,0,63083:0:0:0:0:
384,192,60940,1,0,0:0:0:0:
332,192,61083,1,0,0:0:0:0:
281,192,61083,1,0,0:0:0:0:
435,192,61226,1,0,0:0:0:0:
486,192,61369,1,0,0:0:0:0:
384,192,61369,1,0,0:0:0:0:
332,192,61511,1,0,0:0:0:0:
281,192,61654,1,0,0:0:0:0:
435,192,61654,1,0,0:0:0:0:
332,192,61797,1,0,0:0:0:0:
486,192,61797,1,0,0:0:0:0:
384,192,61940,1,0,0:0:0:0:
332,192,62083,1,0,0:0:0:0:
281,192,62226,1,0,0:0:0:0:
486,192,62226,1,0,0:0:0:0:
435,192,62369,1,0,0:0:0:0:
384,192,62511,1,0,0:0:0:0:
486,192,62511,1,0,0:0:0:0:
332,192,62654,1,0,0:0:0:0:
486,192,62797,1,0,0:0:0:0:
281,192,62797,1,0,0:0:0:0:
332,192,62940,1,0,0:0:0:0:
332,192,63083,128,0,64226:0:0:0:0:
384,192,63083,128,0,64226:0:0:0:0:
435,192,63083,128,0,64226:0:0:0:0:
281,192,63226,1,0,0:0:0:0:
230,192,63369,1,0,0:0:0:0:
179,192,63511,1,0,0:0:0:0:
128,192,63654,1,0,0:0:0:0:
25,192,63654,1,0,0:0:0:0:
76,192,63797,1,0,0:0:0:0:
128,192,63940,1,0,0:0:0:0:
179,192,63940,1,0,0:0:0:0:
25,192,64083,1,0,0:0:0:0:
76,192,64226,1,0,0:0:0:0:
128,192,64226,1,0,0:0:0:0:
281,192,64226,128,0,65369:0:0:0:0:
486,192,64226,128,0,65369:0:0:0:0:
230,192,64369,1,0,0:0:0:0:
179,192,64511,1,0,0:0:0:0:
230,192,64654,1,0,0:0:0:0:
25,192,64797,1,0,0:0:0:0:
179,192,64797,1,0,0:0:0:0:
76,192,64940,1,0,0:0:0:0:
128,192,65083,1,0,0:0:0:0:
230,192,65083,1,0,0:0:0:0:
76,192,65226,1,0,0:0:0:0:
179,192,65226,1,0,0:0:0:0:
25,192,65369,128,0,66511:0:0:0:0:
128,192,65369,128,0,66511:0:0:0:0:
435,192,65369,128,0,66511:0:0:0:0:
384,192,65654,1,0,0:0:0:0:
230,192,65654,1,0,0:0:0:0:
179,192,65797,1,0,0:0:0:0:
384,192,65940,1,0,0:0:0:0:
230,192,65940,1,0,0:0:0:0:
281,192,66083,1,0,0:0:0:0:
179,192,66226,1,0,0:0:0:0:
384,192,66369,1,0,0:0:0:0:
230,192,66369,1,0,0:0:0:0:
332,192,66511,128,0,67654:0:0:0:0:
486,192,66511,128,0,67654:0:0:0:0:
76,192,66511,128,0,67654:0:0:0:0:
128,192,66797,1,0,0:0:0:0:
230,192,66797,1,0,0:0:0:0:
281,192,66940,1,0,0:0:0:0:
128,192,67083,1,0,0:0:0:0:
384,192,67083,1,0,0:0:0:0:
230,192,67226,1,0,0:0:0:0:
179,192,67226,1,0,0:0:0:0:
128,192,67369,1,0,0:0:0:0:
281,192,67369,1,0,0:0:0:0:
435,192,67369,1,0,0:0:0:0:
384,192,67511,1,0,0:0:0:0:
281,192,67654,128,0,68797:0:0:0:0:
25,192,67654,128,0,68797:0:0:0:0:
230,192,67940,1,0,0:0:0:0:
435,192,67940,1,0,0:0:0:0:
332,192,68083,1,0,0:0:0:0:
128,192,68226,1,0,0:0:0:0:
435,192,68226,1,0,0:0:0:0:
332,192,68369,1,0,0:0:0:0:
76,192,68511,1,0,0:0:0:0:
179,192,68511,1,0,0:0:0:0:
384,192,68511,1,0,0:0:0:0:
435,192,68654,1,0,0:0:0:0:
179,192,68797,128,0,69940:0:0:0:0:
435,192,68797,128,0,69940:0:0:0:0:
384,192,68940,1,0,0:0:0:0:
332,192,69083,1,0,0:0:0:0:
76,192,69083,1,0,0:0:0:0:
384,192,69226,1,0,0:0:0:0:
25,192,69369,1,0,0:0:0:0:
281,192,69369,1,0,0:0:0:0:
76,192,69511,1,0,0:0:0:0:
25,192,69654,1,0,0:0:0:0:
384,192,69654,1,0,0:0:0:0:
332,192,69797,1,0,0:0:0:0:
25,192,69940,128,0,73369:0:0:0:0:
384,192,70083,1,0,0:0:0:0:
332,192,70226,1,0,0:0:0:0:
281,192,70369,1,0,0:0:0:0:
128,192,70511,1,0,0:0:0:0:
179,192,70511,1,0,0:0:0:0:
230,192,70654,1,0,0:0:0:0:
281,192,70797,1,0,0:0:0:0:
332,192,70797,1,0,0:0:0:0:
384,192,70940,1,0,0:0:0:0:
435,192,71083,1,0,0:0:0:0:
76,192,71083,1,0,0:0:0:0:
128,192,71226,1,0,0:0:0:0:
179,192,71369,1,0,0:0:0:0:
332,192,71369,1,0,0:0:0:0:
486,192,71369,1,0,0:0:0:0:
384,192,71511,1,0,0:0:0:0:
281,192,71654,1,0,0:0:0:0:
486,192,71654,1,0,0:0:0:0:
230,192,71797,1,0,0:0:0:0:
435,192,71797,1,0,0:0:0:0:
384,192,71940,1,0,0:0:0:0:
76,192,71940,1,0,0:0:0:0:
179,192,71940,1,0,0:0:0:0:
281,192,72083,1,0,0:0:0:0:
384,192,72226,128,0,73369:0:0:0:0:
435,192,72226,128,0,73369:0:0:0:0:
76,192,72369,1,0,0:0:0:0:
128,192,72369,1,0,0:0:0:0:
230,192,72511,1,0,0:0:0:0:
281,192,72511,1,0,0:0:0:0:
179,192,72654,1,0,0:0:0:0:
128,192,72797,1,0,0:0:0:0:
281,192,72797,1,0,0:0:0:0:
76,192,72940,1,0,0:0:0:0:
230,192,73083,1,0,0:0:0:0:
179,192,73083,1,0,0:0:0:0:
128,192,73226,1,0,0:0:0:0:
230,192,73369,128,0,73797:0:0:0:0:
281,192,73369,1,0,0:0:0:0:
332,192,73511,1,0,0:0:0:0:
384,192,73654,1,0,0:0:0:0:
435,192,73654,1,0,0:0:0:0:
76,192,73654,1,0,0:0:0:0:
128,192,73797,1,0,0:0:0:0:
332,192,73797,128,0,73940:0:0:0:0:
25,192,73797,128,0,74511:0:0:0:0:
179,192,73940,1,0,0:0:0:0:
435,192,73940,128,0,74226:0:0:0:0:
486,192,73940,1,0,0:0:0:0:
230,192,74083,128,0,74369:0:0:0:0:
281,192,74083,1,0,0:0:0:0:
332,192,74226,128,0,74511:0:0:0:0:
384,192,74226,1,0,0:0:0:0:
128,192,74369,128,0,74511:0:0:0:0:
179,192,74369,1,0,0:0:0:0:
486,192,74511,1,0,0:0:0:0:
435,192,74511,1,0,0:0:0:0:
179,192,74797,1,0,0:0:0:0:
332,192,74797,1,0,0:0:0:0:
230,192,74940,1,0,0:0:0:0:
281,192,75083,1,0,0:0:0:0:
384,192,75083,1,0,0:0:0:0:
76,192,75226,1,0,0:0:0:0:
128,192,75226,1,0,0:0:0:0:
230,192,75369,1,0,0:0:0:0:
486,192,75369,1,0,0:0:0:0:
435,192,75369,1,0,0:0:0:0:
384,192,75511,1,0,0:0:0:0:
281,192,75654,1,0,0:0:0:0:
25,192,75654,1,0,0:0:0:0:
76,192,75654,1,0,0:0:0:0:
486,192,75797,1,0,0:0:0:0:
384,192,75797,1,0,0:0:0:0:
435,192,75940,1,0,0:0:0:0:
332,192,75940,1,0,0:0:0:0:
76,192,75940,1,0,0:0:0:0:
179,192,75940,1,0,0:0:0:0:
384,192,76083,1,0,0:0:0:0:
281,192,76083,1,0,0:0:0:0:
332,192,76226,1,0,0:0:0:0:
76,192,76226,1,0,0:0:0:0:
25,192,76226,1,0,0:0:0:0:
76,192,76369,1,0,0:0:0:0:
128,192,76369,1,0,0:0:0:0:
384,192,76369,1,0,0:0:0:0:
435,192,76369,1,0,0:0:0:0:
179,192,76511,1,0,0:0:0:0:
281,192,76511,1,0,0:0:0:0:
486,192,76511,1,0,0:0:0:0:
25,192,76797,1,0,0:0:0:0:
76,192,76797,1,0,0:0:0:0:
128,192,76797,1,0,0:0:0:0:
332,192,76797,1,0,0:0:0:0:
179,192,77083,1,0,0:0:0:0:
486,192,77083,1,0,0:0:0:0:
435,192,77083,1,0,0:0:0:0:
384,192,77226,1,0,0:0:0:0:
281,192,77226,1,0,0:0:0:0:
76,192,77369,1,0,0:0:0:0:
230,192,77369,1,0,0:0:0:0:
435,192,77511,1,0,0:0:0:0:
384,192,77511,1,0,0:0:0:0:
128,192,77654,1,0,0:0:0:0:
179,192,77654,1,0,0:0:0:0:
332,192,77654,1,0,0:0:0:0:
230,192,77797,1,0,0:0:0:0:
384,192,77797,1,0,0:0:0:0:
486,192,77940,1,0,0:0:0:0:
332,192,77940,1,0,0:0:0:0:
25,192,77940,1,0,0:0:0:0:
76,192,77940,1,0,0:0:0:0:
435,192,78083,1,0,0:0:0:0:
281,192,78083,1,0,0:0:0:0:
384,192,78226,1,0,0:0:0:0:
230,192,78226,1,0,0:0:0:0:
435,192,78369,1,0,0:0:0:0:
179,192,78369,1,0,0:0:0:0:
486,192,78511,1,0,0:0:0:0:
128,192,78511,1,0,0:0:0:0:
76,192,78654,1,0,0:0:0:0:
230,192,78654,1,0,0:0:0:0:
435,192,78797,1,0,0:0:0:0:
179,192,78797,1,0,0:0:0:0:
435,192,79083,1,0,0:0:0:0:
281,192,79083,1,0,0:0:0:0:
76,192,79083,1,0,0:0:0:0:
25,192,79083,1,0,0:0:0:0:
128,192,79369,1,0,0:0:0:0:
230,192,79369,1,0,0:0:0:0:
486,192,79369,1,0,0:0:0:0:
435,192,79369,1,0,0:0:0:0:
179,192,79511,1,0,0:0:0:0:
25,192,79654,1,0,0:0:0:0:
230,192,79654,1,0,0:0:0:0:
384,192,79654,1,0,0:0:0:0:
128,192,79797,1,0,0:0:0:0:
25,192,79940,1,0,0:0:0:0:
179,192,79940,1,0,0:0:0:0:
486,192,79940,1,0,0:0:0:0:
76,192,80083,1,0,0:0:0:0:
128,192,80226,1,0,0:0:0:0:
179,192,80226,1,0,0:0:0:0:
332,192,80226,1,0,0:0:0:0:
435,192,80226,1,0,0:0:0:0:
230,192,80369,1,0,0:0:0:0:
281,192,80511,1,0,0:0:0:0:
25,192,80511,1,0,0:0:0:0:
76,192,80511,1,0,0:0:0:0:
384,192,80511,1,0,0:0:0:0:
179,192,80654,1,0,0:0:0:0:
230,192,80797,1,0,0:0:0:0:
281,192,80940,1,0,0:0:0:0:
332,192,81083,1,0,0:0:0:0:
25,192,81083,1,0,0:0:0:0:
76,192,81083,1,0,0:0:0:0:
486,192,81083,1,0,0:0:0:0:
435,192,81369,1,0,0:0:0:0:
128,192,81369,1,0,0:0:0:0:
230,192,81369,1,0,0:0:0:0:
76,192,81369,1,0,0:0:0:0:
384,192,81511,1,0,0:0:0:0:
25,192,81654,1,0,0:0:0:0:
128,192,81654,1,0,0:0:0:0:
281,192,81654,1,0,0:0:0:0:
486,192,81654,1,0,0:0:0:0:
384,192,81797,1,0,0:0:0:0:
435,192,81940,1,0,0:0:0:0:
486,192,81940,1,0,0:0:0:0:
179,192,81940,1,0,0:0:0:0:
128,192,81940,1,0,0:0:0:0:
281,192,82083,1,0,0:0:0:0:
230,192,82226,1,0,0:0:0:0:
179,192,82226,1,0,0:0:0:0:
435,192,82226,1,0,0:0:0:0:
384,192,82369,1,0,0:0:0:0:
332,192,82511,1,0,0:0:0:0:
25,192,82511,1,0,0:0:0:0:
76,192,82511,1,0,0:0:0:0:
128,192,82511,1,0,0:0:0:0:
486,192,82511,1,0,0:0:0:0:
435,192,82654,1,0,0:0:0:0:
384,192,82654,1,0,0:0:0:0:
179,192,82797,1,0,0:0:0:0:
230,192,82797,1,0,0:0:0:0:
384,192,82940,1,0,0:0:0:0:
332,192,82940,1,0,0:0:0:0:
25,192,82940,1,0,0:0:0:0:
76,192,83083,1,0,0:0:0:0:
179,192,83083,1,0,0:0:0:0:
332,192,83226,1,0,0:0:0:0:
435,192,83226,1,0,0:0:0:0:
230,192,83226,1,0,0:0:0:0:
332,192,83369,1,0,0:0:0:0:
435,192,83369,1,0,0:0:0:0:
128,192,83369,1,0,0:0:0:0:
332,192,83511,1,0,0:0:0:0:
435,192,83511,1,0,0:0:0:0:
179,192,83511,1,0,0:0:0:0:
384,192,83654,1,0,0:0:0:0:
281,192,83654,1,0,0:0:0:0:
486,192,83654,1,0,0:0:0:0:
76,192,83654,1,0,0:0:0:0:
435,192,83940,1,0,0:0:0:0:
332,192,83940,1,0,0:0:0:0:
128,192,83940,1,0,0:0:0:0:
179,192,83940,1,0,0:0:0:0:
384,192,84083,1,0,0:0:0:0:
332,192,84226,1,0,0:0:0:0:
435,192,84226,1,0,0:0:0:0:
128,192,84226,1,0,0:0:0:0:
76,192,84226,1,0,0:0:0:0:
384,192,84369,1,0,0:0:0:0:
281,192,84369,1,0,0:0:0:0:
332,192,84511,1,0,0:0:0:0:
486,192,84511,1,0,0:0:0:0:
25,192,84511,1,0,0:0:0:0:
128,192,84511,1,0,0:0:0:0:
435,192,84654,1,0,0:0:0:0:
281,192,84654,1,0,0:0:0:0:
384,192,84797,1,0,0:0:0:0:
76,192,84797,1,0,0:0:0:0:
179,192,84797,1,0,0:0:0:0:
128,192,84940,1,0,0:0:0:0:
230,192,84940,1,0,0:0:0:0:
179,192,85083,1,0,0:0:0:0:
281,192,85083,1,0,0:0:0:0:
486,192,85083,1,0,0:0:0:0:
76,192,85226,1,0,0:0:0:0:
128,192,85226,1,0,0:0:0:0:
384,192,85369,1,0,0:0:0:0:
435,192,85369,1,0,0:0:0:0:
179,192,85369,1,0,0:0:0:0:
230,192,85511,1,0,0:0:0:0:
332,192,85511,1,0,0:0:0:0:
435,192,85511,1,0,0:0:0:0:
76,192,85511,1,0,0:0:0:0:
332,192,85654,1,0,0:0:0:0:
435,192,85654,1,0,0:0:0:0:
128,192,85654,1,0,0:0:0:0:
486,192,85940,1,0,0:0:0:0:
281,192,85940,1,0,0:0:0:0:
230,192,85940,1,0,0:0:0:0:
76,192,85940,1,0,0:0:0:0:
128,192,86226,1,0,0:0:0:0:
179,192,86226,1,0,0:0:0:0:
435,192,86226,1,0,0:0:0:0:
384,192,86369,1,0,0:0:0:0:
332,192,86511,1,0,0:0:0:0:
25,192,86511,1,0,0:0:0:0:
128,192,86511,1,0,0:0:0:0:
435,192,86654,1,0,0:0:0:0:
384,192,86797,1,0,0:0:0:0:
281,192,86797,1,0,0:0:0:0:
128,192,86797,1,0,0:0:0:0:
179,192,86797,1,0,0:0:0:0:
230,192,86940,1,0,0:0:0:0:
281,192,87083,1,0,0:0:0:0:
435,192,87083,1,0,0:0:0:0:
76,192,87083,1,0,0:0:0:0:
230,192,87226,1,0,0:0:0:0:
128,192,87226,1,0,0:0:0:0:
332,192,87369,1,0,0:0:0:0:
25,192,87369,1,0,0:0:0:0:
384,192,87369,1,0,0:0:0:0:
76,192,87511,1,0,0:0:0:0:
179,192,87511,1,0,0:0:0:0:
128,192,87654,1,0,0:0:0:0:
384,192,87654,1,0,0:0:0:0:
435,192,87654,1,0,0:0:0:0:
230,192,87797,1,0,0:0:0:0:
179,192,87940,1,0,0:0:0:0:
128,192,87940,1,0,0:0:0:0:
435,192,87940,1,0,0:0:0:0:
332,192,88226,1,0,0:0:0:0:
281,192,88226,1,0,0:0:0:0:
25,192,88226,1,0,0:0:0:0:
76,192,88226,1,0,0:0:0:0:
230,192,88369,1,0,0:0:0:0:
128,192,88440,1,0,0:0:0:0:
25,192,88511,1,0,0:0:0:0:
486,192,88511,1,0,0:0:0:0:
435,192,88511,1,0,0:0:0:0:
179,192,88654,1,0,0:0:0:0:
332,192,88654,1,0,0:0:0:0:
230,192,88726,1,0,0:0:0:0:
128,192,88797,1,0,0:0:0:0:
435,192,88797,1,0,0:0:0:0:
384,192,88869,1,0,0:0:0:0:
332,192,88940,1,0,0:0:0:0:
25,192,88940,1,0,0:0:0:0:
76,192,89011,1,0,0:0:0:0:
384,192,89011,1,0,0:0:0:0:
128,192,89083,1,0,0:0:0:0:
435,192,89083,1,0,0:0:0:0:
486,192,89083,1,0,0:0:0:0:
128,192,89226,1,0,0:0:0:0:
179,192,89226,1,0,0:0:0:0:
384,192,89226,1,0,0:0:0:0:
230,192,89297,1,0,0:0:0:0:
281,192,89369,1,0,0:0:0:0:
25,192,89369,1,0,0:0:0:0:
384,192,89369,1,0,0:0:0:0:
76,192,89511,1,0,0:0:0:0:
179,192,89511,1,0,0:0:0:0:
332,192,89511,1,0,0:0:0:0:
486,192,89511,1,0,0:0:0:0:
281,192,89583,1,0,0:0:0:0:
230,192,89654,1,0,0:0:0:0:
435,192,89654,1,0,0:0:0:0:
384,192,89726,1,0,0:0:0:0:
332,192,89797,1,0,0:0:0:0:
281,192,89797,1,0,0:0:0:0:
76,192,89797,1,0,0:0:0:0:
384,192,89869,1,0,0:0:0:0:
128,192,89869,1,0,0:0:0:0:
230,192,89869,1,0,0:0:0:0:
25,192,89940,1,0,0:0:0:0:
435,192,89940,1,0,0:0:0:0:
179,192,89940,1,0,0:0:0:0:
384,192,90083,1,0,0:0:0:0:
435,192,90083,1,0,0:0:0:0:
128,192,90083,1,0,0:0:0:0:
179,192,90154,1,0,0:0:0:0:
230,192,90226,1,0,0:0:0:0:
384,192,90226,1,0,0:0:0:0:
435,192,90226,1,0,0:0:0:0:
128,192,90297,1,0,0:0:0:0:
384,192,90369,1,0,0:0:0:0:
435,192,90369,1,0,0:0:0:0:
76,192,90369,1,0,0:0:0:0:
25,192,90440,1,0,0:0:0:0:
179,192,90511,1,0,0:0:0:0:
128,192,90511,1,0,0:0:0:0:
332,192,90511,1,0,0:0:0:0:
230,192,90583,1,0,0:0:0:0:
25,192,90654,1,0,0:0:0:0:
76,192,90654,1,0,0:0:0:0:
384,192,90654,1,0,0:0:0:0:
281,192,90654,1,0,0:0:0:0:
128,192,90726,1,0,0:0:0:0:
384,192,90797,1,0,0:0:0:0:
179,192,90797,1,0,0:0:0:0:
25,192,90869,1,0,0:0:0:0:
435,192,90869,1,0,0:0:0:0:
76,192,90940,1,0,0:0:0:0:
486,192,90940,1,0,0:0:0:0:
435,192,91011,1,0,0:0:0:0:
128,192,91011,1,0,0:0:0:0:
384,192,91083,1,0,0:0:0:0:
179,192,91083,1,0,0:0:0:0:
128,192,91154,1,0,0:0:0:0:
332,192,91154,1,0,0:0:0:0:
76,192,91226,1,0,0:0:0:0:
281,192,91226,1,0,0:0:0:0:
128,192,91297,1,0,0:0:0:0:
332,192,91297,1,0,0:0:0:0:
179,192,91369,1,0,0:0:0:0:
384,192,91369,1,0,0:0:0:0:
128,192,91440,1,0,0:0:0:0:
435,192,91440,1,0,0:0:0:0:
76,192,91511,1,0,0:0:0:0:
384,192,91511,1,0,0:0:0:0:
25,192,91583,1,0,0:0:0:0:
332,192,91583,1,0,0:0:0:0:
384,192,91654,1,0,0:0:0:0:
76,192,91654,1,0,0:0:0:0:
281,192,91726,1,0,0:0:0:0:
128,192,91726,1,0,0:0:0:0:
384,192,91797,1,0,0:0:0:0:
179,192,91797,1,0,0:0:0:0:
281,192,91869,1,0,0:0:0:0:
128,192,91869,1,0,0:0:0:0:
384,192,91940,1,0,0:0:0:0:
179,192,91940,1,0,0:0:0:0:
332,192,92011,1,0,0:0:0:0:
230,192,92011,1,0,0:0:0:0:
435,192,92083,1,0,0:0:0:0:
179,192,92083,1,0,0:0:0:0:
332,192,92154,1,0,0:0:0:0:
128,192,92154,1,0,0:0:0:0:
435,192,92226,1,0,0:0:0:0:
76,192,92226,1,0,0:0:0:0:
384,192,92297,1,0,0:0:0:0:
25,192,92297,1,0,0:0:0:0:
486,192,92369,1,0,0:0:0:0:
76,192,92369,1,0,0:0:0:0:
435,192,92440,1,0,0:0:0:0:
128,192,92440,1,0,0:0:0:0:
384,192,92511,1,0,0:0:0:0:
179,192,92511,1,0,0:0:0:0:
230,192,92511,1,0,0:0:0:0:
332,192,92583,1,0,0:0:0:0:
281,192,92654,1,0,0:0:0:0:
230,192,92726,1,0,0:0:0:0:
179,192,92797,1,0,0:0:0:0:
128,192,92797,1,0,0:0:0:0:
76,192,92797,1,0,0:0:0:0:
384,192,92797,128,0,92940:0:0:0:0:
486,192,92797,128,0,92940:0:0:0:0:
281,192,92797,1,0,0:0:0:0:
332,192,93083,128,0,93369:0:0:0:0:
435,192,93083,128,0,93369:0:0:0:0:
179,192,93083,1,0,0:0:0:0:
76,192,93226,128,0,93369:0:0:0:0:
128,192,93226,128,0,93369:0:0:0:0:
230,192,93369,1,0,0:0:0:0:
486,192,93511,128,0,93797:0:0:0:0:
384,192,93511,128,0,93654:0:0:0:0:
230,192,93511,1,0,0:0:0:0:
179,192,93654,128,0,93797:0:0:0:0:
128,192,93654,128,0,93797:0:0:0:0:
332,192,93797,1,0,0:0:0:0:
179,192,93940,128,0,94083:0:0:0:0:
230,192,93940,128,0,94083:0:0:0:0:
486,192,93940,1,0,0:0:0:0:
281,192,94083,128,0,94226:0:0:0:0:
332,192,94083,128,0,94226:0:0:0:0:
25,192,94226,1,0,0:0:0:0:
332,192,94369,128,0,94511:0:0:0:0:
486,192,94369,128,0,94511:0:0:0:0:
128,192,94369,1,0,0:0:0:0:
25,192,94511,128,0,94654:0:0:0:0:
230,192,94511,128,0,94654:0:0:0:0:
435,192,94654,1,0,0:0:0:0:
230,192,94797,128,0,94940:0:0:0:0:
25,192,94797,128,0,94940:0:0:0:0:
384,192,94797,1,0,0:0:0:0:
332,192,94940,1,0,0:0:0:0:
230,192,95083,128,0,95226:0:0:0:0:
384,192,95083,128,0,95226:0:0:0:0:
435,192,95083,128,0,95226:0:0:0:0:
128,192,95226,1,0,0:0:0:0:
384,192,95369,128,0,95654:0:0:0:0:
179,192,95369,128,0,95511:0:0:0:0:
25,192,95369,1,0,0:0:0:0:
230,192,95511,128,0,95654:0:0:0:0:
76,192,95654,1,0,0:0:0:0:
128,192,95797,128,0,96083:0:0:0:0:
179,192,95797,128,0,96083:0:0:0:0:
384,192,95797,128,0,95940:0:0:0:0:
332,192,95940,128,0,96083:0:0:0:0:
281,192,95940,1,0,0:0:0:0:
230,192,96083,1,0,0:0:0:0:
230,192,96226,128,0,96511:0:0:0:0:
486,192,96226,128,0,96369:0:0:0:0:
384,192,96226,128,0,96369:0:0:0:0:
435,192,96369,128,0,96511:0:0:0:0:
332,192,96369,128,0,96511:0:0:0:0:
25,192,96511,1,0,0:0:0:0:
76,192,96511,1,0,0:0:0:0:
179,192,96654,128,0,96940:0:0:0:0:
281,192,96654,128,0,96797:0:0:0:0:
435,192,96654,1,0,0:0:0:0:
435,192,96797,128,0,96940:0:0:0:0:
281,192,96940,1,0,0:0:0:0:
384,192,97083,128,0,97226:0:0:0:0:
486,192,97083,128,0,97226:0:0:0:0:
230,192,97083,128,0,97226:0:0:0:0:
128,192,97083,128,0,97226:0:0:0:0:
435,192,97369,128,0,97511:0:0:0:0:
332,192,97369,128,0,97511:0:0:0:0:
179,192,97369,128,0,97511:0:0:0:0:
76,192,97369,128,0,97511:0:0:0:0:
230,192,97654,128,0,97797:0:0:0:0:
128,192,97654,128,0,97797:0:0:0:0:
384,192,97654,128,0,97797:0:0:0:0:
486,192,97654,128,0,97797:0:0:0:0:
179,192,97797,128,0,97940:0:0:0:0:
281,192,97797,128,0,97940:0:0:0:0:
435,192,97797,128,0,97940:0:0:0:0:
25,192,97940,1,0,0:0:0:0:
384,192,98083,128,0,98226:0:0:0:0:
128,192,98083,128,0,98369:0:0:0:0:
332,192,98226,128,0,98369:0:0:0:0:
230,192,98226,128,0,98369:0:0:0:0:
25,192,98369,1,0,0:0:0:0:
230,192,98511,128,0,98797:0:0:0:0:
332,192,98511,128,0,98654:0:0:0:0:
25,192,98511,1,0,0:0:0:0:
384,192,98654,128,0,98797:0:0:0:0:
435,192,98654,128,0,98797:0:0:0:0:
25,192,98797,1,0,0:0:0:0:
332,192,98940,128,0,99226:0:0:0:0:
128,192,98940,128,0,99083:0:0:0:0:
486,192,98940,1,0,0:0:0:0:
25,192,99083,128,0,99226:0:0:0:0:
486,192,99226,1,0,0:0:0:0:
25,192,99369,128,0,99511:0:0:0:0:
384,192,99369,128,0,99511:0:0:0:0:
230,192,99369,1,0,0:0:0:0:
76,192,99369,128,0,99511:0:0:0:0:
281,192,99511,1,0,0:0:0:0:
486,192,99654,128,0,100797:0:0:0:0:
25,192,99654,128,0,100083:0:0:0:0:
179,192,99797,1,0,0:0:0:0:
332,192,99940,1,0,0:0:0:0:
435,192,99940,1,0,0:0:0:0:
128,192,100083,128,0,100797:0:0:0:0:
384,192,100226,1,0,0:0:0:0:
281,192,100226,1,0,0:0:0:0:
179,192,100369,1,0,0:0:0:0:
332,192,100511,1,0,0:0:0:0:
384,192,100511,1,0,0:0:0:0:
281,192,100654,1,0,0:0:0:0:
179,192,100797,128,0,101226:0:0:0:0:
435,192,100797,128,0,101940:0:0:0:0:
230,192,100797,1,0,0:0:0:0:
281,192,101083,1,0,0:0:0:0:
76,192,101226,128,0,101654:0:0:0:0:
332,192,101226,1,0,0:0:0:0:
230,192,101369,1,0,0:0:0:0:
384,192,101369,1,0,0:0:0:0:
332,192,101511,1,0,0:0:0:0:
128,192,101654,128,0,101940:0:0:0:0:
281,192,101654,1,0,0:0:0:0:
384,192,101654,1,0,0:0:0:0:
179,192,101654,1,0,0:0:0:0:
384,192,101940,1,0,0:0:0:0:
25,192,101940,128,0,103083:0:0:0:0:
332,192,101940,128,0,102511:0:0:0:0:
76,192,102226,1,0,0:0:0:0:
128,192,102226,1,0,0:0:0:0:
179,192,102369,1,0,0:0:0:0:
384,192,102511,128,0,103083:0:0:0:0:
230,192,102654,1,0,0:0:0:0:
179,192,102797,1,0,0:0:0:0:
76,192,102940,1,0,0:0:0:0:
230,192,102940,1,0,0:0:0:0:
332,192,103083,128,0,103369:0:0:0:0:
128,192,103226,1,0,0:0:0:0:
230,192,103226,1,0,0:0:0:0:
435,192,103369,128,0,103654:0:0:0:0:
179,192,103369,1,0,0:0:0:0:
25,192,103369,1,0,0:0:0:0:
76,192,103369,1,0,0:0:0:0:
384,192,103511,128,0,104226:0:0:0:0:
128,192,103511,1,0,0:0:0:0:
230,192,103654,1,0,0:0:0:0:
76,192,103797,128,0,104226:0:0:0:0:
179,192,103797,1,0,0:0:0:0:
128,192,103940,1,0,0:0:0:0:
281,192,103940,1,0,0:0:0:0:
332,192,103940,1,0,0:0:0:0:
486,192,104226,128,0,105940:0:0:0:0:
128,192,104226,128,0,104797:0:0:0:0:
281,192,104226,1,0,0:0:0:0:
435,192,104511,1,0,0:0:0:0:
179,192,104511,1,0,0:0:0:0:
384,192,104654,1,0,0:0:0:0:
179,192,104797,128,0,105083:0:0:0:0:
332,192,104940,1,0,0:0:0:0:
384,192,104940,1,0,0:0:0:0:
128,192,105083,128,0,105226:0:0:0:0:
25,192,105083,128,0,105226:0:0:0:0:
281,192,105083,1,0,0:0:0:0:
76,192,105226,128,0,105369:0:0:0:0:
435,192,105226,1,0,0:0:0:0:
230,192,105226,1,0,0:0:0:0:
230,192,105369,128,0,105940:0:0:0:0:
384,192,105369,1,0,0:0:0:0:
128,192,105511,1,0,0:0:0:0:
332,192,105511,1,0,0:0:0:0:
76,192,105654,1,0,0:0:0:0:
281,192,105654,1,0,0:0:0:0:
128,192,105797,1,0,0:0:0:0:
332,192,105797,1,0,0:0:0:0:
179,192,105940,1,0,0:0:0:0:
76,192,105940,128,0,106511:0:0:0:0:
384,192,105940,128,0,106511:0:0:0:0:
332,192,106083,1,0,0:0:0:0:
128,192,106083,1,0,0:0:0:0:
179,192,106226,1,0,0:0:0:0:
281,192,106226,1,0,0:0:0:0:
128,192,106369,1,0,0:0:0:0:
332,192,106369,1,0,0:0:0:0:
179,192,106511,1,0,0:0:0:0:
435,192,106511,128,0,107654:0:0:0:0:
281,192,106583,1,0,0:0:0:0:
230,192,106654,1,0,0:0:0:0:
128,192,106726,1,0,0:0:0:0:
179,192,106797,1,0,0:0:0:0:
332,192,106797,1,0,0:0:0:0:
384,192,106797,1,0,0:0:0:0:
76,192,106869,1,0,0:0:0:0:
128,192,106940,1,0,0:0:0:0:
179,192,107011,1,0,0:0:0:0:
128,192,107083,1,0,0:0:0:0:
281,192,107083,1,0,0:0:0:0:
384,192,107083,1,0,0:0:0:0:
76,192,107154,1,0,0:0:0:0:
179,192,107226,1,0,0:0:0:0:
128,192,107297,1,0,0:0:0:0:
76,192,107369,1,0,0:0:0:0:
332,192,107369,1,0,0:0:0:0:
281,192,107369,1,0,0:0:0:0:
128,192,107440,1,0,0:0:0:0:
179,192,107511,1,0,0:0:0:0:
25,192,107583,1,0,0:0:0:0:
76,192,107654,1,0,0:0:0:0:
332,192,107654,1,0,0:0:0:0:
128,192,107654,128,0,108797:0:0:0:0:
230,192,107654,1,0,0:0:0:0:
384,192,107726,1,0,0:0:0:0:
435,192,107797,1,0,0:0:0:0:
486,192,107869,1,0,0:0:0:0:
332,192,107940,1,0,0:0:0:0:
179,192,107940,1,0,0:0:0:0:
281,192,107940,1,0,0:0:0:0:
384,192,108011,1,0,0:0:0:0:
435,192,108083,1,0,0:0:0:0:
486,192,108154,1,0,0:0:0:0:
435,192,108226,1,0,0:0:0:0:
25,192,108226,128,0,108797:0:0:0:0:
179,192,108226,1,0,0:0:0:0:
230,192,108226,1,0,0:0:0:0:
384,192,108297,1,0,0:0:0:0:
332,192,108369,1,0,0:0:0:0:
384,192,108440,1,0,0:0:0:0:
435,192,108511,1,0,0:0:0:0:
281,192,108511,1,0,0:0:0:0:
179,192,108511,1,0,0:0:0:0:
486,192,108583,1,0,0:0:0:0:
435,192,108654,1,0,0:0:0:0:
384,192,108726,1,0,0:0:0:0:
230,192,108797,1,0,0:0:0:0:
281,192,108797,1,0,0:0:0:0:
179,192,108797,1,0,0:0:0:0:
435,192,108797,1,0,0:0:0:0:
179,192,108940,1,0,0:0:0:0:
76,192,108940,1,0,0:0:0:0:
128,192,108940,1,0,0:0:0:0:
281,192,109083,128,0,109154:0:0:0:0:
384,192,109083,128,0,109154:0:0:0:0:
128,192,109083,1,0,0:0:0:0:
332,192,109226,128,0,109297:0:0:0:0:
435,192,109226,128,0,109297:0:0:0:0:
179,192,109369,1,0,0:0:0:0:
25,192,109369,1,0,0:0:0:0:
332,192,109511,128,0,109583:0:0:0:0:
435,192,109511,128,0,109583:0:0:0:0:
25,192,109511,1,0,0:0:0:0:
179,192,109511,1,0,0:0:0:0:
384,192,109654,128,0,109726:0:0:0:0:
486,192,109654,128,0,109726:0:0:0:0:
76,192,109797,1,0,0:0:0:0:
128,192,109797,1,0,0:0:0:0:
230,192,109797,1,0,0:0:0:0:
435,192,109940,128,0,110011:0:0:0:0:
25,192,109940,128,0,110011:0:0:0:0:
76,192,109940,128,0,110011:0:0:0:0:
384,192,110011,128,0,110083:0:0:0:0:
332,192,110083,128,0,110154:0:0:0:0:
128,192,110083,128,0,110154:0:0:0:0:
179,192,110083,128,0,110154:0:0:0:0:
486,192,110154,128,0,110226:0:0:0:0:
435,192,110154,128,0,110226:0:0:0:0:
76,192,110226,128,0,110297:0:0:0:0:
25,192,110226,128,0,110297:0:0:0:0:
384,192,110226,128,0,110297:0:0:0:0:
332,192,110297,128,0,110369:0:0:0:0:
281,192,110297,128,0,110369:0:0:0:0:
76,192,110369,128,0,110511:0:0:0:0:
128,192,110369,128,0,110511:0:0:0:0:
230,192,110369,128,0,110440:0:0:0:0:
435,192,110369,128,0,110440:0:0:0:0:
179,192,110440,128,0,110511:0:0:0:0:
486,192,110511,5,0,0:0:0:0:
384,192,110511,1,0,0:0:0:0:
281,192,110511,1,0,0:0:0:0:
281,192,110726,1,0,0:0:0:0:
384,192,110726,1,0,0:0:0:0:
230,192,110726,1,0,0:0:0:0:
230,192,110940,1,0,0:0:0:0:
281,192,110940,1,0,0:0:0:0:
128,192,110940,1,0,0:0:0:0:
25,192,111083,128,0,113369:0:0:0:0:
128,192,111083,128,0,113369:0:0:0:0:
230,192,111083,128,0,113369:0:0:0:0:
384,192,113369,128,0,113511:0:0:0:0:
486,192,113511,128,0,113654:0:0:0:0:
332,192,113654,128,0,113797:0:0:0:0:
435,192,113797,128,0,113940:0:0:0:0:
281,192,113940,128,0,114083:0:0:0:0:
384,192,114083,128,0,114226:0:0:0:0:
486,192,114226,128,0,114369:0:0:0:0:
384,192,114369,128,0,114511:0:0:0:0:
332,192,114511,128,0,114654:0:0:0:0:
281,192,114654,128,0,114797:0:0:0:0:
384,192,114797,128,0,114940:0:0:0:0:
332,192,114940,128,0,115083:0:0:0:0:
435,192,115083,128,0,115226:0:0:0:0:
76,192,115083,1,0,0:0:0:0:
179,192,115083,1,0,0:0:0:0:
384,192,115226,128,0,115369:0:0:0:0:
486,192,115369,128,0,115511:0:0:0:0:
435,192,115511,128,0,115654:0:0:0:0:
128,192,115654,128,0,115797:0:0:0:0:
281,192,115654,128,0,117940:0:0:0:0:
230,192,115797,128,0,115940:0:0:0:0:
76,192,115940,128,0,116083:0:0:0:0:
179,192,116083,128,0,116226:0:0:0:0:
25,192,116226,128,0,116369:0:0:0:0:
435,192,116226,1,0,0:0:0:0:
332,192,116297,1,0,0:0:0:0:
128,192,116369,128,0,116511:0:0:0:0:
384,192,116369,1,0,0:0:0:0:
230,192,116511,128,0,116654:0:0:0:0:
435,192,116511,1,0,0:0:0:0:
486,192,116583,1,0,0:0:0:0:
128,192,116654,128,0,116797:0:0:0:0:
384,192,116654,1,0,0:0:0:0:
179,192,116797,128,0,116940:0:0:0:0:
230,192,116940,128,0,117083:0:0:0:0:
128,192,117083,128,0,117226:0:0:0:0:
179,192,117226,128,0,117369:0:0:0:0:
76,192,117369,128,0,117511:0:0:0:0:
435,192,117369,128,0,117654:0:0:0:0:
128,192,117511,128,0,117654:0:0:0:0:
76,192,117654,128,0,117797:0:0:0:0:
332,192,117654,128,0,117940:0:0:0:0:
25,192,117797,128,0,117940:0:0:0:0:
384,192,117940,128,0,118083:0:0:0:0:
230,192,117940,128,0,120226:0:0:0:0:
128,192,117940,1,0,0:0:0:0:
486,192,118083,128,0,118226:0:0:0:0:
384,192,118226,128,0,118369:0:0:0:0:
281,192,118369,128,0,118511:0:0:0:0:
435,192,118511,128,0,118654:0:0:0:0:
128,192,118511,1,0,0:0:0:0:
332,192,118654,128,0,118797:0:0:0:0:
486,192,118797,128,0,118940:0:0:0:0:
384,192,118940,128,0,119083:0:0:0:0:
76,192,118940,1,0,0:0:0:0:
76,192,119011,1,0,0:0:0:0:
332,192,119083,128,0,119226:0:0:0:0:
179,192,119083,1,0,0:0:0:0:
281,192,119226,128,0,119369:0:0:0:0:
25,192,119226,1,0,0:0:0:0:
384,192,119369,128,0,119511:0:0:0:0:
128,192,119369,1,0,0:0:0:0:
332,192,119511,128,0,119654:0:0:0:0:
76,192,119511,1,0,0:0:0:0:
435,192,119654,128,0,119797:0:0:0:0:
179,192,119654,1,0,0:0:0:0:
384,192,119797,128,0,119940:0:0:0:0:
179,192,119797,1,0,0:0:0:0:
486,192,119940,128,0,120083:0:0:0:0:
76,192,119940,1,0,0:0:0:0:
435,192,120083,128,0,120226:0:0:0:0:
25,192,120226,1,0,0:0:0:0:
128,192,120226,1,0,0:0:0:0:
384,192,120226,128,0,121369:0:0:0:0:
281,192,120226,1,0,0:0:0:0:
179,192,120369,1,0,0:0:0:0:
76,192,120511,1,0,0:0:0:0:
281,192,120511,1,0,0:0:0:0:
179,192,120654,1,0,0:0:0:0:
25,192,120797,1,0,0:0:0:0:
281,192,120797,1,0,0:0:0:0:
486,192,120797,1,0,0:0:0:0:
179,192,120940,1,0,0:0:0:0:
486,192,120940,1,0,0:0:0:0:
76,192,121083,1,0,0:0:0:0:
281,192,121083,1,0,0:0:0:0:
179,192,121226,1,0,0:0:0:0:
25,192,121369,1,0,0:0:0:0:
435,192,121369,128,0,121940:0:0:0:0:
281,192,121369,1,0,0:0:0:0:
179,192,121511,1,0,0:0:0:0:
76,192,121654,1,0,0:0:0:0:
281,192,121654,1,0,0:0:0:0:
179,192,121797,1,0,0:0:0:0:
25,192,121940,1,0,0:0:0:0:
332,192,121940,128,0,122511:0:0:0:0:
281,192,121940,1,0,0:0:0:0:
486,192,121940,1,0,0:0:0:0:
179,192,122083,1,0,0:0:0:0:
486,192,122083,1,0,0:0:0:0:
281,192,122226,1,0,0:0:0:0:
25,192,122226,1,0,0:0:0:0:
179,192,122369,1,0,0:0:0:0:
230,192,122511,1,0,0:0:0:0:
384,192,122511,1,0,0:0:0:0:
76,192,122511,128,0,123654:0:0:0:0:
435,192,122654,1,0,0:0:0:0:
230,192,122797,1,0,0:0:0:0:
332,192,122797,1,0,0:0:0:0:
435,192,122940,1,0,0:0:0:0:
230,192,123083,1,0,0:0:0:0:
384,192,123083,1,0,0:0:0:0:
25,192,123083,1,0,0:0:0:0:
435,192,123226,1,0,0:0:0:0:
25,192,123226,1,0,0:0:0:0:
230,192,123369,1,0,0:0:0:0:
332,192,123369,1,0,0:0:0:0:
435,192,123511,1,0,0:0:0:0:
230,192,123654,1,0,0:0:0:0:
384,192,123654,1,0,0:0:0:0:
179,192,123654,128,0,124797:0:0:0:0:
435,192,123797,1,0,0:0:0:0:
230,192,123940,1,0,0:0:0:0:
332,192,123940,1,0,0:0:0:0:
435,192,124083,1,0,0:0:0:0:
230,192,124226,1,0,0:0:0:0:
384,192,124226,1,0,0:0:0:0:
25,192,124226,1,0,0:0:0:0:
435,192,124369,1,0,0:0:0:0:
25,192,124369,1,0,0:0:0:0:
230,192,124511,1,0,0:0:0:0:
384,192,124511,1,0,0:0:0:0:
435,192,124654,1,0,0:0:0:0:
128,192,124797,1,0,0:0:0:0:
281,192,124797,1,0,0:0:0:0:
25,192,124797,128,0,125940:0:0:0:0:
384,192,124940,1,0,0:0:0:0:
179,192,125083,1,0,0:0:0:0:
281,192,125083,1,0,0:0:0:0:
384,192,125226,1,0,0:0:0:0:
281,192,125369,1,0,0:0:0:0:
128,192,125369,1,0,0:0:0:0:
230,192,125369,1,0,0:0:0:0:
384,192,125511,1,0,0:0:0:0:
128,192,125511,1,0,0:0:0:0:
179,192,125654,1,0,0:0:0:0:
281,192,125654,1,0,0:0:0:0:
384,192,125797,1,0,0:0:0:0:
486,192,125940,128,0,126511:0:0:0:0:
230,192,125940,1,0,0:0:0:0:
435,192,126083,1,0,0:0:0:0:
128,192,126083,1,0,0:0:0:0:
230,192,126226,1,0,0:0:0:0:
384,192,126369,1,0,0:0:0:0:
128,192,126369,1,0,0:0:0:0:
25,192,126511,128,0,128226:0:0:0:0:
230,192,126511,1,0,0:0:0:0:
332,192,126511,1,0,0:0:0:0:
435,192,126654,1,0,0:0:0:0:
128,192,126654,1,0,0:0:0:0:
332,192,126654,1,0,0:0:0:0:
230,192,126797,1,0,0:0:0:0:
384,192,126940,1,0,0:0:0:0:
486,192,127083,128,0,128226:0:0:0:0:
76,192,127083,1,0,0:0:0:0:
435,192,127083,1,0,0:0:0:0:
435,192,127226,1,0,0:0:0:0:
76,192,127369,1,0,0:0:0:0:
435,192,127369,1,0,0:0:0:0:
76,192,127511,1,0,0:0:0:0:
76,192,127654,1,0,0:0:0:0:
435,192,127654,1,0,0:0:0:0:
179,192,127797,1,0,0:0:0:0:
332,192,127797,1,0,0:0:0:0:
76,192,127940,1,0,0:0:0:0:
435,192,127940,1,0,0:0:0:0:
384,192,128083,1,0,0:0:0:0:
128,192,128083,1,0,0:0:0:0:
384,192,128226,128,0,129369:0:0:0:0:
128,192,128226,128,0,129369:0:0:0:0:
281,192,128226,128,0,128511:0:0:0:0:
332,192,128226,1,0,0:0:0:0:
435,192,128226,1,0,0:0:0:0:
486,192,128369,128,0,128511:0:0:0:0:
332,192,128511,128,0,128797:0:0:0:0:
435,192,128654,128,0,128797:0:0:0:0:
76,192,128654,1,0,0:0:0:0:
179,192,128654,1,0,0:0:0:0:
281,192,128797,128,0,129083:0:0:0:0:
230,192,128940,128,0,129083:0:0:0:0:
179,192,129083,128,0,129369:0:0:0:0:
332,192,129083,1,0,0:0:0:0:
435,192,129083,1,0,0:0:0:0:
76,192,129226,128,0,129369:0:0:0:0:
25,192,129369,128,0,130654:0:0:0:0:
486,192,129369,1,0,0:0:0:0:
281,192,129369,1,0,0:0:0:0:
486,192,129511,1,0,0:0:0:0:
281,192,129654,1,0,0:0:0:0:
128,192,129654,1,0,0:0:0:0:
486,192,129797,1,0,0:0:0:0:
435,192,129940,1,0,0:0:0:0:
332,192,129940,1,0,0:0:0:0:
435,192,130083,1,0,0:0:0:0:
281,192,130226,1,0,0:0:0:0:
230,192,130226,1,0,0:0:0:0:
435,192,130369,1,0,0:0:0:0:
281,192,130511,1,0,0:0:0:0:
486,192,130511,1,0,0:0:0:0:
486,192,130654,1,0,0:0:0:0:
25,192,130797,1,0,0:0:0:0:
332,192,130797,1,0,0:0:0:0:
435,192,130797,1,0,0:0:0:0:
128,192,130797,1,0,0:0:0:0:
486,192,130940,1,0,0:0:0:0:
230,192,131083,1,0,0:0:0:0:
384,192,131083,1,0,0:0:0:0:
179,192,131083,1,0,0:0:0:0:
384,192,131226,1,0,0:0:0:0:
281,192,131369,1,0,0:0:0:0:
486,192,131369,1,0,0:0:0:0:
332,192,131369,1,0,0:0:0:0:
25,192,131369,1,0,0:0:0:0:
128,192,131369,1,0,0:0:0:0:
486,192,131654,128,0,135226:0:0:0:0:
25,192,131654,1,0,0:0:0:0:
230,192,131654,1,0,0:0:0:0:
384,192,131654,1,0,0:0:0:0:
332,192,131797,1,0,0:0:0:0:
25,192,131797,1,0,0:0:0:0:
230,192,131940,1,0,0:0:0:0:
281,192,131940,1,0,0:0:0:0:
332,192,132083,1,0,0:0:0:0:
25,192,132083,1,0,0:0:0:0:
76,192,132226,1,0,0:0:0:0:
435,192,132226,128,0,132297:0:0:0:0:
179,192,132369,1,0,0:0:0:0:
332,192,132369,128,0,132440:0:0:0:0:
179,192,132511,1,0,0:0:0:0:
76,192,132511,1,0,0:0:0:0:
384,192,132511,128,0,132583:0:0:0:0:
281,192,132654,128,0,132726:0:0:0:0:
76,192,132654,1,0,0:0:0:0:
230,192,132797,1,0,0:0:0:0:
25,192,132797,1,0,0:0:0:0:
25,192,132940,1,0,0:0:0:0:
179,192,133083,1,0,0:0:0:0:
76,192,133083,1,0,0:0:0:0:
384,192,133083,128,0,133369:0:0:0:0:
25,192,133226,1,0,0:0:0:0:
435,192,133226,1,0,0:0:0:0:
128,192,133369,1,0,0:0:0:0:
281,192,133369,128,0,133654:0:0:0:0:
128,192,133511,1,0,0:0:0:0:
384,192,133511,1,0,0:0:0:0:
25,192,133654,1,0,0:0:0:0:
230,192,133654,128,0,133940:0:0:0:0:
332,192,133797,1,0,0:0:0:0:
25,192,133940,128,0,136226:0:0:0:0:
281,192,133940,1,0,0:0:0:0:
179,192,133940,1,0,0:0:0:0:
76,192,134083,1,0,0:0:0:0:
281,192,134226,128,0,134511:0:0:0:0:
179,192,134226,1,0,0:0:0:0:
332,192,134369,128,0,134511:0:0:0:0:
76,192,134369,1,0,0:0:0:0:
384,192,134511,128,0,134797:0:0:0:0:
230,192,134511,1,0,0:0:0:0:
435,192,134654,128,0,134797:0:0:0:0:
128,192,134654,1,0,0:0:0:0:
332,192,134797,128,0,135083:0:0:0:0:
230,192,134797,1,0,0:0:0:0:
179,192,134940,128,0,135083:0:0:0:0:
128,192,134940,1,0,0:0:0:0:
76,192,135083,128,0,135511:0:0:0:0:
281,192,135083,1,0,0:0:0:0:
230,192,135226,128,0,135940:0:0:0:0:
384,192,135226,1,0,0:0:0:0:
486,192,135369,1,0,0:0:0:0:
435,192,135369,1,0,0:0:0:0:
179,192,135369,128,0,135797:0:0:0:0:
128,192,135511,128,0,135654:0:0:0:0:
332,192,135511,1,0,0:0:0:0:
384,192,135654,1,0,0:0:0:0:
435,192,135654,1,0,0:0:0:0:
76,192,135654,1,0,0:0:0:0:
128,192,135797,1,0,0:0:0:0:
281,192,135797,1,0,0:0:0:0:
332,192,135940,1,0,0:0:0:0:
384,192,135940,1,0,0:0:0:0:
179,192,135940,1,0,0:0:0:0:
230,192,136083,1,0,0:0:0:0:
435,192,136083,1,0,0:0:0:0:
332,192,136226,1,0,0:0:0:0:
281,192,136226,128,0,138511:0:0:0:0:
128,192,136226,128,0,136511:0:0:0:0:
230,192,136369,128,0,136511:0:0:0:0:
179,192,136511,128,0,136797:0:0:0:0:
435,192,136511,1,0,0:0:0:0:
76,192,136654,128,0,136797:0:0:0:0:
230,192,136797,128,0,137083:0:0:0:0:
332,192,136797,1,0,0:0:0:0:
128,192,136940,128,0,137083:0:0:0:0:
76,192,137083,128,0,137369:0:0:0:0:
435,192,137083,1,0,0:0:0:0:
179,192,137226,128,0,137369:0:0:0:0:
384,192,137369,1,0,0:0:0:0:
230,192,137369,1,0,0:0:0:0:
486,192,137511,1,0,0:0:0:0:
128,192,137511,1,0,0:0:0:0:
25,192,137654,1,0,0:0:0:0:
76,192,137654,1,0,0:0:0:0:
332,192,137654,1,0,0:0:0:0:
435,192,137797,1,0,0:0:0:0:
179,192,137797,1,0,0:0:0:0:
76,192,137940,1,0,0:0:0:0:
128,192,137940,1,0,0:0:0:0:
486,192,137940,128,0,138226:0:0:0:0:
435,192,138083,128,0,138226:0:0:0:0:
230,192,138083,1,0,0:0:0:0:
128,192,138226,1,0,0:0:0:0:
179,192,138226,1,0,0:0:0:0:
384,192,138226,128,0,138511:0:0:0:0:
332,192,138369,128,0,138511:0:0:0:0:
25,192,138369,1,0,0:0:0:0:
230,192,138511,128,0,140654:0:0:0:0:
76,192,138511,1,0,0:0:0:0:
486,192,138511,128,0,139083:0:0:0:0:
128,192,138511,1,0,0:0:0:0:
384,192,138654,128,0,138797:0:0:0:0:
179,192,138797,1,0,0:0:0:0:
435,192,138797,128,0,138940:0:0:0:0:
76,192,138940,1,0,0:0:0:0:
332,192,138940,128,0,139083:0:0:0:0:
281,192,139083,128,0,139940:0:0:0:0:
76,192,139226,1,0,0:0:0:0:
384,192,139226,128,0,139369:0:0:0:0:
179,192,139369,1,0,0:0:0:0:
332,192,139369,128,0,139511:0:0:0:0:
25,192,139511,1,0,0:0:0:0:
435,192,139511,128,0,139654:0:0:0:0:
128,192,139654,1,0,0:0:0:0:
486,192,139654,128,0,140511:0:0:0:0:
76,192,139797,1,0,0:0:0:0:
179,192,139940,1,0,0:0:0:0:
332,192,139940,128,0,140226:0:0:0:0:
384,192,139940,1,0,0:0:0:0:
76,192,140083,1,0,0:0:0:0:
128,192,140226,1,0,0:0:0:0:
384,192,140226,128,0,140511:0:0:0:0:
435,192,140226,1,0,0:0:0:0:
25,192,140369,1,0,0:0:0:0:
76,192,140511,1,0,0:0:0:0:
435,192,140511,128,0,140797:0:0:0:0:
486,192,140797,128,0,141940:0:0:0:0:
25,192,140797,1,0,0:0:0:0:
281,192,140797,1,0,0:0:0:0:
230,192,140797,1,0,0:0:0:0:
230,192,140940,1,0,0:0:0:0:
281,192,141083,1,0,0:0:0:0:
128,192,141083,1,0,0:0:0:0:
179,192,141226,1,0,0:0:0:0:
25,192,141369,128,0,142226:0:0:0:0:
281,192,141369,1,0,0:0:0:0:
230,192,141369,1,0,0:0:0:0:
281,192,141511,1,0,0:0:0:0:
384,192,141654,1,0,0:0:0:0:
230,192,141654,1,0,0:0:0:0:
332,192,141797,1,0,0:0:0:0:
435,192,141940,128,0,142369:0:0:0:0:
179,192,141940,1,0,0:0:0:0:
179,192,142083,1,0,0:0:0:0:
76,192,142226,128,0,142654:0:0:0:0:
384,192,142226,1,0,0:0:0:0:
128,192,142226,1,0,0:0:0:0:
332,192,142369,128,0,142940:0:0:0:0:
281,192,142369,1,0,0:0:0:0:
128,192,142511,1,0,0:0:0:0:
384,192,142511,1,0,0:0:0:0:
179,192,142654,128,0,142940:0:0:0:0:
230,192,142654,1,0,0:0:0:0:
25,192,142797,1,0,0:0:0:0:
486,192,142797,1,0,0:0:0:0:
230,192,142940,128,0,145369:0:0:0:0:
281,192,142940,128,0,145369:0:0:0:0:
25,192,143083,1,0,0:0:0:0:
128,192,143083,1,0,0:0:0:0:
486,192,143083,1,0,0:0:0:0:
435,192,143083,128,0,143369:0:0:0:0:
25,192,143226,1,0,0:0:0:0:
332,192,143226,128,0,143369:0:0:0:0:
128,192,143297,1,0,0:0:0:0:
179,192,143369,1,0,0:0:0:0:
486,192,143369,128,0,143654:0:0:0:0:
179,192,143511,1,0,0:0:0:0:
435,192,143511,128,0,143654:0:0:0:0:
76,192,143583,1,0,0:0:0:0:
384,192,143654,128,0,143940:0:0:0:0:
25,192,143654,1,0,0:0:0:0:
435,192,143797,128,0,143940:0:0:0:0:
25,192,143797,1,0,0:0:0:0:
128,192,143869,1,0,0:0:0:0:
332,192,143940,128,0,144226:0:0:0:0:
179,192,143940,1,0,0:0:0:0:
384,192,144083,128,0,144226:0:0:0:0:
179,192,144083,1,0,0:0:0:0:
76,192,144154,1,0,0:0:0:0:
435,192,144226,128,0,144511:0:0:0:0:
128,192,144226,1,0,0:0:0:0:
486,192,144226,1,0,0:0:0:0:
486,192,144369,128,0,144511:0:0:0:0:
128,192,144369,1,0,0:0:0:0:
25,192,144440,1,0,0:0:0:0:
384,192,144511,128,0,144797:0:0:0:0:
76,192,144511,1,0,0:0:0:0:
332,192,144511,1,0,0:0:0:0:
332,192,144654,128,0,144797:0:0:0:0:
76,192,144654,1,0,0:0:0:0:
179,192,144726,1,0,0:0:0:0:
486,192,144797,128,0,145083:0:0:0:0:
128,192,144797,1,0,0:0:0:0:
435,192,144797,1,0,0:0:0:0:
435,192,144940,128,0,145083:0:0:0:0:
128,192,144940,1,0,0:0:0:0:
25,192,145011,1,0,0:0:0:0:
384,192,145083,128,0,145369:0:0:0:0:
76,192,145083,1,0,0:0:0:0:
332,192,145083,1,0,0:0:0:0:
332,192,145226,128,0,145369:0:0:0:0:
76,192,145226,1,0,0:0:0:0:
179,192,145297,1,0,0:0:0:0:
25,192,145369,1,0,0:0:0:0:
128,192,145369,1,0,0:0:0:0:
486,192,145369,128,0,145464:0:0:0:0:
435,192,145464,128,0,145559:0:0:0:0:
25,192,145511,1,0,0:0:0:0:
384,192,145559,128,0,145654:0:0:0:0:
435,192,145654,128,0,145749:0:0:0:0:
25,192,145654,1,0,0:0:0:0:
384,192,145749,128,0,145845:0:0:0:0:
128,192,145797,1,0,0:0:0:0:
230,192,145797,1,0,0:0:0:0:
332,192,145845,128,0,145940:0:0:0:0:
384,192,145940,128,0,146035:0:0:0:0:
128,192,145940,1,0,0:0:0:0:
435,192,146035,128,0,146130:0:0:0:0:
128,192,146083,1,0,0:0:0:0:
384,192,146130,128,0,146226:0:0:0:0:
230,192,146226,1,0,0:0:0:0:
281,192,146226,1,0,0:0:0:0:
332,192,146226,128,0,146321:0:0:0:0:
179,192,146321,128,0,146416:0:0:0:0:
281,192,146369,1,0,0:0:0:0:
128,192,146416,128,0,146511:0:0:0:0:
179,192,146511,128,0,146607:0:0:0:0:
281,192,146511,1,0,0:0:0:0:
230,192,146607,128,0,146702:0:0:0:0:
384,192,146654,1,0,0:0:0:0:
486,192,146654,1,0,0:0:0:0:
179,192,146702,128,0,146797:0:0:0:0:
128,192,146797,128,0,146892:0:0:0:0:
486,192,146797,1,0,0:0:0:0:
76,192,146892,128,0,146988:0:0:0:0:
486,192,146940,1,0,0:0:0:0:
128,192,146988,128,0,147083:0:0:0:0:
76,192,147083,128,0,147178:0:0:0:0:
486,192,147083,1,0,0:0:0:0:
25,192,147178,128,0,147273:0:0:0:0:
384,192,147178,1,0,0:0:0:0:
435,192,147273,128,0,147369:0:0:0:0:
281,192,147273,1,0,0:0:0:0:
332,192,147369,128,0,147464:0:0:0:0:
230,192,147369,1,0,0:0:0:0:
179,192,147464,128,0,147559:0:0:0:0:
128,192,147464,1,0,0:0:0:0:
76,192,147559,128,0,147654:0:0:0:0:
25,192,147559,1,0,0:0:0:0:
486,192,147654,128,0,149083:0:0:0:0:
179,192,147654,1,0,0:0:0:0:
281,192,147654,1,0,0:0:0:0:
76,192,147797,1,0,0:0:0:0:
179,192,147940,1,0,0:0:0:0:
230,192,147940,1,0,0:0:0:0:
384,192,147940,1,0,0:0:0:0:
76,192,148083,1,0,0:0:0:0:
179,192,148226,1,0,0:0:0:0:
281,192,148226,1,0,0:0:0:0:
76,192,148369,1,0,0:0:0:0:
128,192,148511,1,0,0:0:0:0:
179,192,148511,1,0,0:0:0:0:
384,192,148511,1,0,0:0:0:0:
76,192,148654,1,0,0:0:0:0:
179,192,148797,1,0,0:0:0:0:
281,192,148797,1,0,0:0:0:0:
76,192,148940,1,0,0:0:0:0:
179,192,149083,1,0,0:0:0:0:
25,192,149083,1,0,0:0:0:0:
435,192,149083,128,0,149369:0:0:0:0:
384,192,149083,1,0,0:0:0:0:
230,192,149226,1,0,0:0:0:0:
128,192,149369,1,0,0:0:0:0:
384,192,149369,128,0,149654:0:0:0:0:
332,192,149369,1,0,0:0:0:0:
179,192,149511,1,0,0:0:0:0:
76,192,149654,1,0,0:0:0:0:
332,192,149654,128,0,149940:0:0:0:0:
281,192,149654,1,0,0:0:0:0:
128,192,149797,1,0,0:0:0:0:
281,192,149940,1,0,0:0:0:0:
25,192,149940,128,0,151369:0:0:0:0:
230,192,149940,1,0,0:0:0:0:
435,192,150083,1,0,0:0:0:0:
332,192,150226,1,0,0:0:0:0:
281,192,150226,1,0,0:0:0:0:
128,192,150226,1,0,0:0:0:0:
435,192,150369,1,0,0:0:0:0:
230,192,150511,128,0,150583:0:0:0:0:
332,192,150511,1,0,0:0:0:0:
128,192,150654,128,0,150726:0:0:0:0:
435,192,150654,1,0,0:0:0:0:
384,192,150797,1,0,0:0:0:0:
179,192,150797,128,0,150869:0:0:0:0:
332,192,150797,1,0,0:0:0:0:
76,192,150940,128,0,151011:0:0:0:0:
435,192,150940,1,0,0:0:0:0:
332,192,151083,1,0,0:0:0:0:
230,192,151083,1,0,0:0:0:0:
435,192,151226,1,0,0:0:0:0:
332,192,151369,1,0,0:0:0:0:
76,192,151369,128,0,151654:0:0:0:0:
486,192,151369,1,0,0:0:0:0:
128,192,151369,1,0,0:0:0:0:
281,192,151511,1,0,0:0:0:0:
128,192,151654,128,0,151940:0:0:0:0:
384,192,151654,1,0,0:0:0:0:
179,192,151654,1,0,0:0:0:0:
332,192,151797,1,0,0:0:0:0:
179,192,151940,128,0,152226:0:0:0:0:
435,192,151940,1,0,0:0:0:0:
230,192,151940,1,0,0:0:0:0:
384,192,152083,1,0,0:0:0:0:
230,192,152226,1,0,0:0:0:0:
486,192,152226,128,0,153654:0:0:0:0:
25,192,152226,128,0,153226:0:0:0:0:
332,192,152226,1,0,0:0:0:0:
76,192,152369,128,0,153083:0:0:0:0:
435,192,152369,1,0,0:0:0:0:
128,192,152511,128,0,152940:0:0:0:0:
281,192,152511,1,0,0:0:0:0:
384,192,152511,1,0,0:0:0:0:
179,192,152654,128,0,152797:0:0:0:0:
435,192,152654,1,0,0:0:0:0:
230,192,152797,128,0,153797:0:0:0:0:
332,192,152797,1,0,0:0:0:0:
179,192,152940,128,0,153654:0:0:0:0:
435,192,152940,1,0,0:0:0:0:
128,192,153083,128,0,153511:0:0:0:0:
281,192,153083,1,0,0:0:0:0:
384,192,153083,1,0,0:0:0:0:
76,192,153226,128,0,153369:0:0:0:0:
435,192,153226,1,0,0:0:0:0:
25,192,153369,1,0,0:0:0:0:
332,192,153369,1,0,0:0:0:0:
76,192,153511,1,0,0:0:0:0:
435,192,153511,1,0,0:0:0:0:
435,192,153654,128,0,153940:0:0:0:0:
128,192,153654,1,0,0:0:0:0:
332,192,153654,1,0,0:0:0:0:
179,192,153797,1,0,0:0:0:0:
384,192,153797,1,0,0:0:0:0:
384,192,153940,128,0,154226:0:0:0:0:
230,192,153940,1,0,0:0:0:0:
281,192,153940,1,0,0:0:0:0:
179,192,154083,1,0,0:0:0:0:
332,192,154083,1,0,0:0:0:0:
332,192,154226,128,0,154511:0:0:0:0:
128,192,154226,1,0,0:0:0:0:
76,192,154369,1,0,0:0:0:0:
281,192,154369,1,0,0:0:0:0:
230,192,154511,1,0,0:0:0:0:
25,192,154511,128,0,155940:0:0:0:0:
486,192,154511,128,0,155511:0:0:0:0:
435,192,154654,128,0,155369:0:0:0:0:
128,192,154654,1,0,0:0:0:0:
384,192,154797,128,0,155226:0:0:0:0:
230,192,154797,1,0,0:0:0:0:
179,192,154797,1,0,0:0:0:0:
332,192,154940,128,0,155083:0:0:0:0:
128,192,154940,1,0,0:0:0:0:
281,192,155083,128,0,156511:0:0:0:0:
179,192,155083,1,0,0:0:0:0:
332,192,155226,128,0,156226:0:0:0:0:
76,192,155226,1,0,0:0:0:0:
384,192,155369,128,0,155940:0:0:0:0:
179,192,155369,1,0,0:0:0:0:
128,192,155369,1,0,0:0:0:0:
435,192,155511,128,0,155654:0:0:0:0:
76,192,155511,1,0,0:0:0:0:
486,192,155654,1,0,0:0:0:0:
230,192,155654,1,0,0:0:0:0:
486,192,155797,1,0,0:0:0:0:
128,192,155797,1,0,0:0:0:0:
76,192,155940,128,0,156226:0:0:0:0:
435,192,155940,1,0,0:0:0:0:
435,192,156083,1,0,0:0:0:0:
179,192,156083,1,0,0:0:0:0:
384,192,156226,1,0,0:0:0:0:
128,192,156226,128,0,156511:0:0:0:0:
384,192,156369,1,0,0:0:0:0:
230,192,156369,1,0,0:0:0:0:
332,192,156511,1,0,0:0:0:0:
179,192,156511,128,0,156797:0:0:0:0:
332,192,156654,1,0,0:0:0:0:
76,192,156654,1,0,0:0:0:0:
230,192,156797,1,0,0:0:0:0:
281,192,156797,1,0,0:0:0:0:
486,192,156797,128,0,157940:0:0:0:0:
25,192,157083,1,0,0:0:0:0:
128,192,157083,1,0,0:0:0:0:
281,192,157226,1,0,0:0:0:0:
25,192,157369,1,0,0:0:0:0:
230,192,157369,1,0,0:0:0:0:
281,192,157511,1,0,0:0:0:0:
25,192,157654,1,0,0:0:0:0:
128,192,157654,1,0,0:0:0:0:
230,192,157940,1,0,0:0:0:0:
281,192,157940,1,0,0:0:0:0:
76,192,157940,1,0,0:0:0:0:
435,192,157940,1,0,0:0:0:0:
486,192,158226,1,0,0:0:0:0:
76,192,158226,128,0,158511:0:0:0:0:
384,192,158226,1,0,0:0:0:0:
230,192,158369,1,0,0:0:0:0:
486,192,158511,1,0,0:0:0:0:
281,192,158511,1,0,0:0:0:0:
179,192,158511,128,0,158797:0:0:0:0:
230,192,158654,1,0,0:0:0:0:
486,192,158797,1,0,0:0:0:0:
332,192,158797,128,0,159083:0:0:0:0:
384,192,158797,1,0,0:0:0:0:
435,192,159083,128,0,159178:0:0:0:0:
179,192,159083,128,0,159654:0:0:0:0:
384,192,159178,128,0,159273:0:0:0:0:
332,192,159273,128,0,159369:0:0:0:0:
281,192,159369,128,0,159464:0:0:0:0:
486,192,159369,1,0,0:0:0:0:
25,192,159369,1,0,0:0:0:0:
128,192,159369,1,0,0:0:0:0:
332,192,159464,128,0,159559:0:0:0:0:
384,192,159559,128,0,159654:0:0:0:0:
332,192,159654,128,0,159749:0:0:0:0:
76,192,159654,128,0,160226:0:0:0:0:
486,192,159654,1,0,0:0:0:0:
281,192,159749,128,0,159845:0:0:0:0:
230,192,159845,128,0,159940:0:0:0:0:
179,192,159940,128,0,160035:0:0:0:0:
486,192,159940,1,0,0:0:0:0:
25,192,159940,1,0,0:0:0:0:
128,192,159940,1,0,0:0:0:0:
230,192,160035,128,0,160130:0:0:0:0:
281,192,160130,128,0,160226:0:0:0:0:
332,192,160226,128,0,160321:0:0:0:0:
25,192,160226,128,0,161369:0:0:0:0:
384,192,160226,1,0,0:0:0:0:
486,192,160226,1,0,0:0:0:0:
230,192,160321,128,0,160416:0:0:0:0:
128,192,160416,128,0,160511:0:0:0:0:
384,192,160511,128,0,160607:0:0:0:0:
76,192,160511,128,0,163226:0:0:0:0:
486,192,160511,1,0,0:0:0:0:
281,192,160607,128,0,160702:0:0:0:0:
128,192,160654,128,0,161369:0:0:0:0:
486,192,160654,1,0,0:0:0:0:
179,192,160702,128,0,160797:0:0:0:0:
435,192,160797,128,0,160892:0:0:0:0:
384,192,160797,1,0,0:0:0:0:
332,192,160892,128,0,160988:0:0:0:0:
179,192,160940,128,0,163369:0:0:0:0:
281,192,160940,1,0,0:0:0:0:
230,192,160988,128,0,161083:0:0:0:0:
486,192,161083,128,0,161178:0:0:0:0:
435,192,161083,1,0,0:0:0:0:
384,192,161178,128,0,161273:0:0:0:0:
230,192,161226,128,0,161369:0:0:0:0:
332,192,161226,1,0,0:0:0:0:
281,192,161273,128,0,161369:0:0:0:0:
486,192,161369,128,0,161511:0:0:0:0:
384,192,161511,128,0,161654:0:0:0:0:
435,192,161654,128,0,161797:0:0:0:0:
332,192,161797,128,0,161940:0:0:0:0:
281,192,161940,128,0,162083:0:0:0:0:
384,192,162083,128,0,162226:0:0:0:0:
332,192,162226,128,0,162369:0:0:0:0:
435,192,162369,128,0,162511:0:0:0:0:
25,192,162440,1,0,0:0:0:0:
486,192,162511,128,0,162654:0:0:0:0:
128,192,162511,1,0,0:0:0:0:
230,192,162583,1,0,0:0:0:0:
332,192,162654,128,0,162797:0:0:0:0:
435,192,162797,128,0,162940:0:0:0:0:
230,192,162797,1,0,0:0:0:0:
281,192,162940,128,0,163083:0:0:0:0:
128,192,162940,1,0,0:0:0:0:
384,192,163083,128,0,163226:0:0:0:0:
486,192,163226,128,0,164797:0:0:0:0:
25,192,163226,1,0,0:0:0:0:
384,192,163369,128,0,165511:0:0:0:0:
128,192,163369,1,0,0:0:0:0:
281,192,163511,128,0,165797:0:0:0:0:
230,192,163511,1,0,0:0:0:0:
25,192,163654,128,0,163797:0:0:0:0:
128,192,163797,128,0,163940:0:0:0:0:
76,192,163940,128,0,164083:0:0:0:0:
179,192,164083,128,0,164226:0:0:0:0:
230,192,164226,128,0,164369:0:0:0:0:
128,192,164369,128,0,164511:0:0:0:0:
179,192,164511,128,0,164654:0:0:0:0:
76,192,164654,128,0,164797:0:0:0:0:
25,192,164797,128,0,164940:0:0:0:0:
435,192,164797,1,0,0:0:0:0:
179,192,164940,128,0,165083:0:0:0:0:
76,192,165083,128,0,165226:0:0:0:0:
332,192,165083,1,0,0:0:0:0:
230,192,165226,128,0,165369:0:0:0:0:
435,192,165226,1,0,0:0:0:0:
128,192,165369,128,0,165511:0:0:0:0:
25,192,165511,128,0,165940:0:0:0:0:
435,192,165511,1,0,0:0:0:0:
128,192,165654,128,0,165940:0:0:0:0:
384,192,165654,1,0,0:0:0:0:
230,192,165797,128,0,165940:0:0:0:0:
332,192,165797,1,0,0:0:0:0:
281,192,165940,1,0,0:0:0:0:
384,192,165940,128,0,166226:0:0:0:0:
281,192,166083,128,0,166511:0:0:0:0:
179,192,166226,1,0,0:0:0:0:
76,192,166226,128,0,166511:0:0:0:0:
435,192,166226,1,0,0:0:0:0:
179,192,166369,128,0,166797:0:0:0:0:
332,192,166511,1,0,0:0:0:0:
435,192,166511,128,0,166797:0:0:0:0:
25,192,166511,1,0,0:0:0:0:
332,192,166654,128,0,167083:0:0:0:0:
230,192,166797,1,0,0:0:0:0:
128,192,166797,128,0,167083:0:0:0:0:
486,192,166797,1,0,0:0:0:0:
230,192,166940,128,0,167226:0:0:0:0:
281,192,167083,1,0,0:0:0:0:
435,192,167083,128,0,168226:0:0:0:0:
76,192,167083,1,0,0:0:0:0:
486,192,167083,1,0,0:0:0:0:
281,192,167226,128,0,169226:0:0:0:0:
230,192,167369,1,0,0:0:0:0:
76,192,167369,128,0,168226:0:0:0:0:
25,192,167369,1,0,0:0:0:0:
230,192,167511,128,0,169226:0:0:0:0:
384,192,167654,128,0,168654:0:0:0:0:
332,192,167654,1,0,0:0:0:0:
486,192,167654,1,0,0:0:0:0:
332,192,167797,128,0,169083:0:0:0:0:
128,192,167940,128,0,168654:0:0:0:0:
179,192,167940,1,0,0:0:0:0:
25,192,167940,1,0,0:0:0:0:
179,192,168083,128,0,169083:0:0:0:0:
25,192,168226,1,0,0:0:0:0:
486,192,168226,1,0,0:0:0:0:
76,192,168369,1,0,0:0:0:0:
435,192,168369,1,0,0:0:0:0:
76,192,168654,1,0,0:0:0:0:
435,192,168654,1,0,0:0:0:0:
128,192,168797,1,0,0:0:0:0:
384,192,168797,1,0,0:0:0:0:
128,192,169083,1,0,0:0:0:0:
384,192,169083,1,0,0:0:0:0:
179,192,169226,1,0,0:0:0:0:
332,192,169226,1,0,0:0:0:0:
179,192,169511,1,0,0:0:0:0:
332,192,169511,1,0,0:0:0:0:
230,192,169654,1,0,0:0:0:0:
281,192,169654,1,0,0:0:0:0:
76,192,169940,1,0,0:0:0:0:
230,192,169940,1,0,0:0:0:0:
281,192,169940,1,0,0:0:0:0:
435,192,169940,1,0,0:0:0:0:
76,192,170226,1,0,0:0:0:0:
435,192,170226,1,0,0:0:0:0:
179,192,170511,1,0,0:0:0:0:
332,192,170511,1,0,0:0:0:0:
230,192,170511,128,0,173083:0:0:0:0:
281,192,170511,128,0,171654:0:0:0:0:
486,192,171654,128,0,180869:0:0:0:0:
25,192,173083,128,0,180869:0:0:0:0:
281,192,174511,128,0,180869:0:0:0:0:
230,192,175797,128,0,180869:0:0:0:0:
179,192,175797,1,0,0:0:0:0:
128,192,175869,1,0,0:0:0:0:
76,192,175940,1,0,0:0:0:0:
128,192,176011,1,0,0:0:0:0:
179,192,176083,1,0,0:0:0:0:
332,192,176154,1,0,0:0:0:0:
384,192,176226,1,0,0:0:0:0:
435,192,176297,1,0,0:0:0:0:
384,192,176369,1,0,0:0:0:0:
332,192,176440,1,0,0:0:0:0:
179,192,176511,1,0,0:0:0:0:
128,192,176583,1,0,0:0:0:0:
76,192,176654,1,0,0:0:0:0:
179,192,176726,1,0,0:0:0:0:
435,192,176797,1,0,0:0:0:0:
332,192,176869,1,0,0:0:0:0:
179,192,176940,1,0,0:0:0:0:
76,192,177011,1,0,0:0:0:0:
332,192,177083,1,0,0:0:0:0:
435,192,177154,1,0,0:0:0:0:
128,192,177654,128,0,179654:0:0:0:0:
384,192,177654,128,0,178369:0:0:0:0:
76,192,177690,128,0,177833:0:0:0:0:
332,192,177690,128,0,177833:0:0:0:0:
435,192,177690,128,0,177833:0:0:0:0:
179,192,177690,128,0,177833:0:0:0:0:
384,192,178511,128,0,180869:0:0:0:0:
128,192,179797,128,0,180869:0:0:0:0:
76,192,180797,128,0,181369:0:0:0:0:
179,192,180797,128,0,181547:0:0:0:0:
332,192,180797,128,0,181547:0:0:0:0:
435,192,180797,128,0,181547:0:0:0:0:
25,192,181083,128,0,182369:0:0:0:0:
128,192,181083,128,0,183797:0:0:0:0:
230,192,181083,128,0,186226:0:0:0:0:
281,192,181083,128,0,186226:0:0:0:0:
486,192,181083,128,0,182369:0:0:0:0:
384,192,181083,128,0,183797:0:0:0:0:
179,192,185083,128,0,186226:0:0:0:0:
332,192,185083,128,0,186226:0:0:0:0:
