osu file format v14

[General]
AudioFilename: audio.mp3
AudioLeadIn: 0
PreviewTime: 20899
Countdown: 0
SampleSet: Soft
StackLeniency: 0.7
Mode: 3
LetterboxInBreaks: 0
SpecialStyle: 0
WidescreenStoryboard: 0

[Editor]
Bookmarks: 74814
DistanceSpacing: 2.5
BeatDivisor: 4
GridSize: 8
TimelineZoom: 1

[Metadata]
Title:Sealed Away
TitleUnicode:Sealed Away
Artist:Kane Parsons
ArtistUnicode:Kane Parsons
Creator:Maxim-Miau
Version:Level 0
Source:
Tags:the backrooms volume vol 1 back rooms async not pixels instrumental dark ambience ambient spooky 4chan eerie urban legend atmosphere creepypasta creepy ost original soundtrack (Original Score) Original Score lo-fi lofi liminal spaces keksikosu
BeatmapID:4051818
BeatmapSetID:1955956

[Difficulty]
HPDrainRate:7.5
CircleSize:10
OverallDifficulty:7.5
ApproachRate:5
SliderMultiplier:1.4
SliderTickRate:1

[Events]
//Background and Video events
0,0,"wp10146487-the-backrooms-wallpapers.jpg",0,0
//Break Periods
//Storyboard Layer 0 (Background)
//Storyboard Layer 1 (Fail)
//Storyboard Layer 2 (Pass)
//Storyboard Layer 3 (Foreground)
//Storyboard Layer 4 (Overlay)
//Storyboard Sound Samples

[TimingPoints]
30,869.565217391304,4,2,1,5,1,0
24377,941.176470588235,4,2,1,5,1,0
24377,-92.39130435,4,2,1,5,0,0
25318,974.025974025974,4,2,1,5,1,0
25318,-89.27536232,4,2,1,5,0,0
26292,768.245838668374,4,2,1,5,1,0
26292,-113.1884058,4,2,1,5,0,0
27060,795.755968169761,4,2,1,5,1,0
27060,-109.2753623,4,2,1,5,0,0
27855,869.565217391304,4,2,1,5,1,0
32202,948.616600790514,4,2,1,5,1,0
32202,-91.66666667,4,2,1,5,0,0
33150,983.606557377049,4,2,1,5,1,0
33150,-88.4057971,4,2,1,5,0,0
34133,685.714285714286,4,2,1,5,1,0
34133,-126.8115942,4,2,1,5,0,0
34818,869.565217391304,4,2,1,5,1,0
38296,940.438871473354,4,2,1,5,1,0
38296,-92.46376812,4,2,1,5,0,0
39236,869.565217391304,4,2,1,5,1,0
40975,797.872340425532,4,2,1,5,1,0
40975,-108.9855072,4,2,1,5,0,0
41772,869.565217391304,4,2,1,5,1,0
52206,942.655145326002,4,2,1,5,1,0
52206,-92.24637681,4,2,1,5,0,0
53148,909.090909090909,4,2,1,5,1,0
53148,-95.65217391,4,2,1,5,0,0
54511,1174.16829745597,4,2,1,5,1,0
54511,-74.05797101,4,2,1,5,0,0
55685,869.565217391304,4,2,1,5,1,0
59163,927.357032457496,4,2,1,5,1,0
59163,-93.76811594,4,2,1,5,0,0
60090,838.574423480084,4,2,1,5,1,0
60090,-103.6956522,4,2,1,5,0,0
60509,877.19298245614,4,2,1,5,1,0
60509,-99.13043478,4,2,1,5,0,0
60947,869.565217391304,4,2,1,5,1,0
61816,825.309491059147,4,2,1,5,1,0
61816,-105.3623188,4,2,1,5,0,0
62641,869.565217391304,4,2,1,5,1,0
83510,-100,4,2,1,5,0,1
93075,-100,4,2,1,5,0,0
97423,-100,4,2,1,5,0,1
103510,-100,4,2,1,5,0,0
107858,-100,4,2,1,5,0,1
117423,-100,4,2,1,5,0,0
122640,937.5,4,2,1,5,1,0
122640,-92.75362319,4,2,1,5,0,0
125452,895.522388059701,4,2,1,5,1,0
125452,-97.10144928,4,2,1,5,0,0
126347,790.253539677313,4,2,1,5,1,0
126347,-110.0362319,4,2,1,5,0,0
128717,869.565217391304,4,2,1,5,1,0

[HitObjects]
25,192,30,5,0,0:0:0:0:
76,192,899,1,0,0:0:0:0:
230,192,1769,1,0,0:0:0:0:
179,192,2638,1,0,0:0:0:0:
25,192,6986,1,0,0:0:0:0:
76,192,7856,1,0,0:0:0:0:
230,192,8725,1,0,0:0:0:0:
179,192,9595,1,0,0:0:0:0:
25,192,13943,1,0,0:0:0:0:
76,192,14812,1,0,0:0:0:0:
230,192,15682,1,0,0:0:0:0:
179,192,16551,1,0,0:0:0:0:
25,192,20899,1,0,0:0:0:0:
384,192,20899,128,0,22638:0:0:0:0:
76,192,21769,1,0,0:0:0:0:
230,192,22638,1,0,0:0:0:0:
281,192,22638,128,0,25318:0:0:0:0:
179,192,23508,1,0,0:0:0:0:
435,192,25318,128,0,26292:0:0:0:0:
384,192,26292,128,0,27060:0:0:0:0:
281,192,27060,128,0,27855:0:0:0:0:
25,192,27855,1,0,0:0:0:0:
486,192,27855,128,0,29594:0:0:0:0:
76,192,28724,1,0,0:0:0:0:
230,192,29594,1,0,0:0:0:0:
384,192,29594,128,0,33150:0:0:0:0:
179,192,30463,1,0,0:0:0:0:
435,192,33150,128,0,34133:0:0:0:0:
384,192,34133,128,0,34818:0:0:0:0:
25,192,34818,1,0,0:0:0:0:
332,192,34818,128,0,35687:0:0:0:0:
76,192,35687,1,0,0:0:0:0:
128,192,35687,128,0,37426:0:0:0:0:
230,192,36557,1,0,0:0:0:0:
179,192,37426,1,0,0:0:0:0:
384,192,37426,128,0,39236:0:0:0:0:
435,192,39236,128,0,40975:0:0:0:0:
281,192,40975,128,0,41772:0:0:0:0:
25,192,41772,1,0,0:0:0:0:
435,192,41772,128,0,42641:0:0:0:0:
76,192,42641,1,0,0:0:0:0:
281,192,42641,128,0,43148:0:0:0:0:
128,192,43148,128,0,43293:0:0:0:0:
230,192,43511,1,0,0:0:0:0:
128,192,43511,128,0,43945:0:0:0:0:
332,192,43945,128,0,46337:0:0:0:0:
179,192,44380,1,0,0:0:0:0:
435,192,46337,128,0,46880:0:0:0:0:
281,192,46880,128,0,47532:0:0:0:0:
128,192,47532,128,0,48293:0:0:0:0:
332,192,48293,128,0,48728:0:0:0:0:
25,192,48728,1,0,0:0:0:0:
435,192,48728,128,0,51337:0:0:0:0:
76,192,49598,1,0,0:0:0:0:
230,192,50467,1,0,0:0:0:0:
179,192,51337,1,0,0:0:0:0:
486,192,51337,128,0,52206:0:0:0:0:
384,192,52206,128,0,53148:0:0:0:0:
332,192,53148,128,0,54511:0:0:0:0:
435,192,54511,128,0,55685:0:0:0:0:
25,192,55685,1,0,0:0:0:0:
486,192,55685,128,0,58293:0:0:0:0:
76,192,56554,1,0,0:0:0:0:
230,192,57424,1,0,0:0:0:0:
179,192,58293,1,0,0:0:0:0:
128,192,60090,128,0,60509:0:0:0:0:
332,192,60509,128,0,60947:0:0:0:0:
435,192,60947,128,0,61816:0:0:0:0:
486,192,61816,128,0,65249:0:0:0:0:
25,192,62641,1,0,0:0:0:0:
76,192,63510,1,0,0:0:0:0:
230,192,64380,1,0,0:0:0:0:
179,192,65249,1,0,0:0:0:0:
25,192,69597,1,0,0:0:0:0:
76,192,70467,1,0,0:0:0:0:
230,192,71336,1,0,0:0:0:0:
435,192,71336,128,0,71554:0:0:0:0:
128,192,71554,128,0,71717:0:0:0:0:
25,192,71717,128,0,71880:0:0:0:0:
332,192,71880,128,0,72097:0:0:0:0:
128,192,72097,128,0,74814:0:0:0:0:
179,192,72206,1,0,0:0:0:0:
25,192,76554,1,0,0:0:0:0:
76,192,77423,1,0,0:0:0:0:
230,192,78293,1,0,0:0:0:0:
179,192,79162,1,0,0:0:0:0:
25,192,83510,1,0,0:0:0:0:
281,192,83510,1,0,0:0:0:0:
76,192,84380,1,0,0:0:0:0:
332,192,84380,1,0,0:0:0:0:
230,192,85249,1,0,0:0:0:0:
486,192,85249,1,0,0:0:0:0:
179,192,86119,1,0,0:0:0:0:
435,192,86119,1,0,0:0:0:0:
25,192,86988,1,0,0:0:0:0:
281,192,86988,1,0,0:0:0:0:
76,192,87858,1,0,0:0:0:0:
332,192,87858,1,0,0:0:0:0:
230,192,88727,1,0,0:0:0:0:
486,192,88727,1,0,0:0:0:0:
179,192,89597,1,0,0:0:0:0:
435,192,89597,1,0,0:0:0:0:
25,192,90467,1,0,0:0:0:0:
281,192,90467,1,0,0:0:0:0:
76,192,91336,1,0,0:0:0:0:
332,192,91336,1,0,0:0:0:0:
230,192,92206,1,0,0:0:0:0:
486,192,92206,1,0,0:0:0:0:
179,192,93075,1,0,0:0:0:0:
384,192,93075,1,0,0:0:0:0:
25,192,97423,1,0,0:0:0:0:
486,192,97423,1,0,0:0:0:0:
76,192,98293,1,0,0:0:0:0:
435,192,98293,1,0,0:0:0:0:
230,192,99162,1,0,0:0:0:0:
281,192,99162,1,0,0:0:0:0:
179,192,100032,1,0,0:0:0:0:
332,192,100032,1,0,0:0:0:0:
25,192,100901,1,0,0:0:0:0:
486,192,100901,1,0,0:0:0:0:
76,192,101771,1,0,0:0:0:0:
435,192,101771,1,0,0:0:0:0:
230,192,102640,1,0,0:0:0:0:
281,192,102640,1,0,0:0:0:0:
179,192,103510,1,0,0:0:0:0:
332,192,103510,1,0,0:0:0:0:
25,192,107858,1,0,0:0:0:0:
332,192,107858,1,0,0:0:0:0:
76,192,108727,1,0,0:0:0:0:
435,192,108727,1,0,0:0:0:0:
230,192,109597,1,0,0:0:0:0:
332,192,109597,1,0,0:0:0:0:
179,192,110467,1,0,0:0:0:0:
486,192,110467,1,0,0:0:0:0:
25,192,111336,1,0,0:0:0:0:
332,192,111336,1,0,0:0:0:0:
76,192,112206,1,0,0:0:0:0:
435,192,112206,1,0,0:0:0:0:
230,192,113075,1,0,0:0:0:0:
332,192,113075,1,0,0:0:0:0:
179,192,113945,1,0,0:0:0:0:
486,192,113945,1,0,0:0:0:0:
25,192,114814,1,0,0:0:0:0:
281,192,114814,1,0,0:0:0:0:
76,192,115684,1,0,0:0:0:0:
332,192,115684,1,0,0:0:0:0:
230,192,116554,1,0,0:0:0:0:
384,192,116554,1,0,0:0:0:0:
179,192,117423,1,0,0:0:0:0:
435,192,117423,1,0,0:0:0:0:
486,192,120032,1,0,0:0:0:0:
128,192,122640,1,0,0:0:0:0:
230,192,125452,1,0,0:0:0:0:
281,192,125899,1,0,0:0:0:0:
384,192,128717,1,0,0:0:0:0:
332,192,129586,1,0,0:0:0:0:
128,192,130021,1,0,0:0:0:0:
281,192,130456,128,0,139151:0:0:0:0:
