osu file format v14

[General]
AudioFilename: audio.mp3
AudioLeadIn: 0
PreviewTime: 12412
Countdown: 0
SampleSet: Normal
StackLeniency: 0
Mode: 1
LetterboxInBreaks: 0
WidescreenStoryboard: 1

[Editor]
DistanceSpacing: 1
BeatDivisor: 2
GridSize: 32
TimelineZoom: 2.8

[Metadata]
Title:Hoshine Shi-ney 64 Nihongo de Kireru Gaikokujin Sen
TitleUnicode:星ねシーネィ64 日本語でキレる外国人戦
Artist:Kandan-san
ArtistUnicode:寒暖 さん
Creator:liku
Version:Kantan
Source:星のカービィ64
Tags:kirby 64 64: the crystal shards boss battle theme video game ost sound track jun ishikawa 石川淳 hirokazu ando 安藤浩和 niconico nico douga nnd ニコニコ動画 instrumental novelty nintendo original soundtrack 音MAD OTOmad electronic
BeatmapID:3614464
BeatmapSetID:1765558

[Difficulty]
HPDrainRate:9
CircleSize:5
OverallDifficulty:3
ApproachRate:5
SliderMultiplier:1.2
SliderTickRate:1

[Events]
//Background and Video events
0,0,"chrome_or61iCZamV.jpg",0,0
Video,0,"output.mp4"
//Break Periods
//Storyboard Layer 0 (Background)
//Storyboard Layer 1 (Fail)
//Storyboard Layer 2 (Pass)
//Storyboard Layer 3 (Foreground)
//Storyboard Layer 4 (Overlay)
//Storyboard Sound Samples

[TimingPoints]
177,335.214257779764,4,1,0,90,1,8
344,335.214257779764,4,1,0,90,1,0
1684,335.214257779764,4,1,0,90,1,0
12410,-100,4,1,0,90,0,1
23137,-100,4,1,0,90,0,0
33864,-100,4,1,0,90,0,1
44591,-100,4,1,0,90,0,0

[HitObjects]
108,144,1684,5,8,0:0:0:0:
102,129,2186,1,8,0:0:0:0:
133,164,2689,1,0,0:0:0:0:
150,167,3024,1,8,0:0:0:0:
66,126,3527,1,8,0:0:0:0:
206,158,4365,1,0,0:0:0:0:
132,140,4868,1,8,0:0:0:0:
265,86,5371,1,0,0:0:0:0:
102,153,5706,1,0,0:0:0:0:
102,153,6209,1,8,0:0:0:0:
158,141,7047,1,0,0:0:0:0:
130,134,7550,1,8,0:0:0:0:
245,54,8053,1,8,0:0:0:0:
245,54,8388,1,0,0:0:0:0:
113,134,8891,1,8,0:0:0:0:
157,202,9729,1,0,0:0:0:0:
106,135,10231,1,8,0:0:0:0:
232,71,10734,1,8,0:0:0:0:
152,204,11069,1,0,0:0:0:0:
152,204,11572,1,8,0:0:0:0:
145,206,12410,1,0,0:0:0:0:
111,85,13081,1,0,0:0:0:0:
139,209,13751,1,8,0:0:0:0:
139,209,14422,1,0,0:0:0:0:
165,44,14757,1,8,0:0:0:0:
139,209,15092,1,8,0:0:0:0:
153,45,15762,1,0,0:0:0:0:
136,209,16433,1,0,0:0:0:0:
130,137,16768,1,0,0:0:0:0:
130,137,17103,1,8,0:0:0:0:
94,138,17774,1,8,0:0:0:0:
90,120,18444,1,8,0:0:0:0:
90,120,18779,1,0,0:0:0:0:
90,120,19115,1,8,0:0:0:0:
90,120,19785,1,0,0:0:0:0:
90,120,20455,1,8,0:0:0:0:
90,120,21126,1,8,0:0:0:0:
123,123,21796,1,0,0:0:0:0:
143,120,22132,1,8,0:0:0:0:
143,120,22467,1,0,0:0:0:0:
119,202,23137,1,8,0:0:0:0:
191,50,23640,1,8,0:0:0:0:
242,141,24143,1,0,0:0:0:0:
114,203,24478,1,8,0:0:0:0:
181,50,24981,1,8,0:0:0:0:
132,213,25819,1,0,0:0:0:0:
172,51,26322,1,8,0:0:0:0:
205,79,26825,1,8,0:0:0:0:
135,204,27160,1,0,0:0:0:0:
170,51,27663,1,8,0:0:0:0:
135,204,28501,1,0,0:0:0:0:
225,112,29003,1,8,0:0:0:0:
212,84,29506,1,0,0:0:0:0:
134,204,29841,1,8,0:0:0:0:
205,106,30344,1,8,0:0:0:0:
121,206,31182,1,0,0:0:0:0:
205,106,31685,1,8,0:0:0:0:
159,88,32188,1,0,0:0:0:0:
119,207,32523,1,0,0:0:0:0:
195,108,33026,1,8,0:0:0:0:
145,206,33864,1,0,0:0:0:0:
88,131,34534,1,0,0:0:0:0:
139,209,35205,1,8,0:0:0:0:
139,209,35875,1,0,0:0:0:0:
165,44,36211,1,8,0:0:0:0:
139,209,36546,1,8,0:0:0:0:
153,45,37216,1,0,0:0:0:0:
136,209,37887,1,0,0:0:0:0:
130,137,38222,1,8,0:0:0:0:
130,137,38557,1,8,0:0:0:0:
94,138,39227,1,8,0:0:0:0:
90,120,39898,1,8,0:0:0:0:
90,120,40233,1,0,0:0:0:0:
90,120,40568,1,8,0:0:0:0:
90,120,41239,1,0,0:0:0:0:
90,120,41909,1,8,0:0:0:0:
90,120,42580,1,8,0:0:0:0:
123,123,43250,1,0,0:0:0:0:
143,120,43585,1,8,0:0:0:0:
143,120,43920,1,0,0:0:0:0:
163,77,44256,1,8,0:0:0:0:
150,71,44591,1,4,0:0:0:0:
256,192,44759,12,0,50541,0:0:0:0:
