osu file format v14

[General]
AudioFilename: audio.mp3
AudioLeadIn: 0
PreviewTime: 54411
Countdown: 0
SampleSet: Soft
StackLeniency: 1
Mode: 0
LetterboxInBreaks: 0
WidescreenStoryboard: 1

[Editor]
Bookmarks: 32957,43804
DistanceSpacing: 1
BeatDivisor: 4
GridSize: 32
TimelineZoom: 2.3

[Metadata]
Title:the last day of my adolescence ~TV size mix~
TitleUnicode:the last day of my adolescence ~TV size mix~
Artist:Kanbaru Suruga (CV: Miyuki Sawashiro)
ArtistUnicode:Kanbaru Suruga (CV: Miyuki Sawashiro)
Creator:SuperJSpectrixV
Version:Hard
Source:花物語
Tags:沢城みゆき hanamonogatari op opening full kabaru suruga devil basketball monogatari series 神原 駿河 Numachi Rouka 沼地 蠟花
BeatmapID:1866042
BeatmapSetID:892740

[Difficulty]
HPDrainRate:5
CircleSize:3
OverallDifficulty:5
ApproachRate:7.5
SliderMultiplier:1.5
SliderTickRate:1

[Events]
//Background and Video events
0,0,"hanabg.jpg",0,0
//Break Periods
//Storyboard Layer 0 (Background)
//Storyboard Layer 1 (Fail)
//Storyboard Layer 2 (Pass)
//Storyboard Layer 3 (Foreground)
//Storyboard Sound Samples

[TimingPoints]
415,338.983050847458,4,2,1,35,1,0
415,-125,4,2,1,35,0,0
4991,-125,4,2,1,50,0,0
5838,-111.111111111111,4,2,1,60,0,0
10415,-111.111111111111,4,2,1,40,0,0
11092,-117.647058823529,4,2,1,50,0,0
21940,-111.111111111111,4,2,1,60,0,0
32957,-90.9090909090909,4,2,1,55,0,0
43296,-90.9090909090909,4,2,1,55,0,0
43804,-117.647058823529,4,2,1,50,0,0
49059,-117.647058823529,4,2,1,60,0,0
51770,-117.647058823529,4,2,1,65,0,0
54652,-105.263157894737,4,2,1,70,0,1
76347,-111.111111111111,4,2,1,60,0,0
84482,-111.111111111111,4,2,1,70,0,0
86770,-111.111111111111,4,2,1,10,0,0

[Colours]
Combo1 : 255,166,210
Combo2 : 128,128,255
Combo3 : 255,91,173

[HitObjects]
123,88,415,6,0,P|113:149|121:216,1,120,0|0,0:0|0:0,0:0:0:0:
211,226,923,2,0,P|219:189|218:151,1,60,0|0,0:0|0:0,0:0:0:0:
302,80,1262,2,0,P|304:128|317:157,1,60,0|0,0:0|0:0,0:0:0:0:
375,231,1601,6,0,P|337:231|259:263,1,120,0|0,0:0|0:0,0:0:0:0:
177,320,2109,2,0,L|172:254,1,60,0|0,0:0|0:0,0:0:0:0:
123,186,2448,2,0,L|130:119,1,60,0|0,0:0|0:0,0:0:0:0:
227,94,2787,2,0,L|224:17,1,60,0|0,0:0|0:0,0:0:0:0:
333,182,3126,6,0,P|331:232|264:272,1,120,0|0,0:0|0:0,0:0:0:0:
183,259,3635,2,0,L|100:257,1,60,0|0,0:0|0:0,0:0:0:0:
89,171,3974,2,0,L|168:167,1,60,0|0,0:0|0:0,0:0:0:0:
270,136,4313,6,0,P|269:91|193:43,1,120,0|0,0:0|0:0,0:0:0:0:
122,88,4821,1,0,0:0:0:0:
158,188,4991,1,8,0:0:0:0:
158,188,5076,1,8,0:0:0:0:
158,188,5160,1,8,0:0:0:0:
77,258,5330,1,8,0:0:0:0:
77,258,5415,1,8,0:0:0:0:
77,258,5499,2,0,L|27:263,2,30,8|8|8,0:0|0:0|0:0,0:0:0:0:
213,253,5838,6,0,P|226:307|312:352,1,134.999995880127,4|0,0:0|0:0,0:0:0:0:
353,295,6347,2,0,L|358:216,1,67.4999979400635,0|8,0:0|0:0,0:0:0:0:
300,165,6686,1,8,0:0:0:0:
300,165,6770,1,8,0:0:0:0:
300,165,6855,6,0,P|247:142|154:174,1,134.999995880127,12|0,0:0|0:0,0:0:0:0:
116,240,7364,1,0,0:0:0:0:
70,154,7533,1,0,0:0:0:0:
133,73,7703,2,0,L|210:47,1,67.4999979400635,8|8,0:0|0:0,0:0:0:0:
39,77,8042,2,0,L|-6:68,4,33.7499989700318,8|8|8|8|8,0:0|0:0|0:0|0:0|0:0,0:0:0:0:
160,222,8550,5,8,0:0:0:0:
160,222,8720,1,8,0:0:0:0:
361,86,9059,5,8,0:0:0:0:
361,86,9228,1,8,0:0:0:0:
301,306,9567,5,8,0:0:0:0:
301,306,9737,1,8,0:0:0:0:
137,96,10076,5,8,0:0:0:0:
137,96,10245,1,8,0:0:0:0:
220,189,10415,1,8,0:0:0:0:
220,189,10499,1,8,0:0:0:0:
220,189,10584,2,0,L|271:187,4,33.7499989700318,8|8|8|8|8,0:0|0:0|0:0|0:0|0:0,0:0:0:0:
110,268,11092,6,0,P|124:323|200:344,1,127.50000243187,4|0,0:0|0:0,0:0:0:0:
276,295,11601,1,0,0:0:0:0:
276,295,11770,2,0,P|271:255|306:172,1,127.50000243187,0|0,0:0|0:0,0:0:0:0:
401,237,12279,1,0,0:0:0:0:
401,237,12448,6,0,P|399:298|332:333,1,127.50000243187,0|0,0:0|0:0,0:0:0:0:
309,250,12957,1,0,0:0:0:0:
346,165,13126,2,0,P|291:157|202:191,1,127.50000243187,0|0,0:0|0:0,0:0:0:0:
119,141,13635,1,0,0:0:0:0:
119,141,13804,6,0,L|102:212,1,63.7500012159348,0|0,0:0|0:0,0:0:0:0:
131,300,14143,1,0,0:0:0:0:
200,210,14313,1,0,0:0:0:0:
200,210,14482,2,0,P|174:156|120:119,1,127.50000243187,0|0,0:0|0:0,0:0:0:0:
61,192,14991,1,0,0:0:0:0:
61,192,15160,6,0,L|133:196,1,63.7500012159348,0|0,0:0|0:0,0:0:0:0:
220,278,15499,2,0,L|139:283,1,63.7500012159348,0|0,0:0|0:0,0:0:0:0:
107,191,15838,2,0,P|100:137|101:116,1,63.7500012159348,0|0,0:0|0:0,0:0:0:0:
210,122,16177,2,0,P|210:166|201:197,1,63.7500012159348,0|0,0:0|0:0,0:0:0:0:
231,332,16516,6,0,P|220:289|219:256,1,63.7500012159348,4|0,0:0|0:0,0:0:0:0:
282,177,16855,1,0,0:0:0:0:
349,279,17025,1,0,0:0:0:0:
349,279,17194,2,0,P|394:282|454:199,1,127.50000243187,0|0,0:0|0:0,0:0:0:0:
402,109,17703,1,0,0:0:0:0:
402,109,17872,6,0,L|315:114,1,63.7500012159348,0|0,0:0|0:0,0:0:0:0:
251,188,18211,1,0,0:0:0:0:
251,188,18381,2,0,L|324:189,1,63.7500012159348,0|0,0:0|0:0,0:0:0:0:
395,262,18720,1,0,0:0:0:0:
395,262,18889,1,0,0:0:0:0:
291,337,19059,1,0,0:0:0:0:
291,337,19228,6,0,P|287:282|306:187,1,127.50000243187,0|0,0:0|0:0,0:0:0:0:
269,107,19737,1,0,0:0:0:0:
269,107,19906,2,0,P|215:107|130:144,1,127.50000243187,0|0,0:0|0:0,0:0:0:0:
32,134,20415,1,0,0:0:0:0:
32,134,20584,6,0,L|29:224,1,63.7500012159348,0|0,0:0|0:0,0:0:0:0:
101,277,20923,1,0,0:0:0:0:
155,192,21092,1,0,0:0:0:0:
155,192,21940,6,0,P|161:230|154:283,1,67.4999979400635,4|0,0:0|0:0,0:0:0:0:
215,335,22279,1,0,0:0:0:0:
287,251,22448,2,0,L|361:254,1,67.4999979400635,8|0,0:0|0:0,0:0:0:0:
324,161,22787,2,0,L|243:165,1,67.4999979400635,0|0,0:0|0:0,0:0:0:0:
184,227,23126,1,8,0:0:0:0:
184,227,23296,6,0,P|133:227|54:288,1,134.999995880127,0|0,0:0|0:0,0:0:0:0:
25,186,23804,1,8,0:0:0:0:
25,186,23974,2,0,P|27:137|92:76,1,134.999995880127,0|0,0:0|0:0,0:0:0:0:
125,178,24482,1,8,0:0:0:0:
125,178,24652,6,0,P|151:222|176:245,1,67.4999979400635,0|0,0:0|0:0,0:0:0:0:
261,250,24991,1,0,0:0:0:0:
347,184,25160,1,8,0:0:0:0:
347,184,25330,2,0,L|371:347,1,134.999995880127,0|0,0:0|0:0,0:0:0:0:
473,270,25838,1,8,0:0:0:0:
473,270,26008,6,0,P|473:234|469:195,1,67.4999979400635,0|0,0:0|0:0,0:0:0:0:
388,128,26347,2,0,P|388:164|392:203,1,67.4999979400635,0|8,0:0|0:0,0:0:0:0:
323,274,26686,2,0,P|315:234|294:198,1,67.4999979400635,0|0,0:0|0:0,0:0:0:0:
202,202,27025,2,0,P|216:248|245:273,1,67.4999979400635,0|8,0:0|0:0,0:0:0:0:
247,121,27364,6,0,P|211:113|161:112,1,67.4999979400635,4|0,0:0|0:0,0:0:0:0:
101,167,27703,1,0,0:0:0:0:
128,268,27872,1,8,0:0:0:0:
128,268,28042,2,0,P|142:320|175:372,1,101.249996910095,0|0,0:0|0:0,0:0:0:0:
263,310,28550,1,8,0:0:0:0:
263,310,28720,6,0,P|268:267|267:236,1,67.4999979400635,0|0,0:0|0:0,0:0:0:0:
205,159,29059,1,0,0:0:0:0:
205,159,29228,2,0,P|181:196|171:230,1,67.4999979400635,8|0,0:0|0:0,0:0:0:0:
220,299,29567,1,0,0:0:0:0:
285,228,29737,1,0,0:0:0:0:
354,290,29906,1,8,0:0:0:0:
354,290,30076,6,0,P|408:313|485:314,1,134.999995880127,0|0,0:0|0:0,0:0:0:0:
494,230,30584,1,8,0:0:0:0:
494,230,30753,2,0,P|486:146|461:94,1,134.999995880127,0|0,0:0|0:0,0:0:0:0:
378,185,31262,1,8,0:0:0:0:
378,185,31431,1,0,0:0:0:0:
298,124,31601,6,0,L|243:129,4,33.7499989700318,8|8|8|8|8,0:0|0:0|0:0|0:0|0:0,0:0:0:0:
382,67,32109,1,8,0:0:0:0:
382,67,32194,1,8,0:0:0:0:
382,67,32279,2,0,L|439:70,4,33.7499989700318,8|8|8|8|8,0:0|0:0|0:0|0:0|0:0,0:0:0:0:
195,170,32957,6,0,B|191:185|191:185|189:220|189:220|181:254,1,82.5000025177003,4|0,0:0|0:0,0:0:0:0:
190,286,33211,1,0,0:0:0:0:
205,313,33296,2,0,B|239:307|239:307|260:317|260:317|312:318,1,82.5000025177003,0|0,0:0|0:0,0:0:0:0:
417,263,33635,2,0,B|383:262|383:262|358:246|333:248,1,82.5000025177003,4|0,0:0|0:0,0:0:0:0:
261,182,33974,2,0,B|284:167|284:167|344:163,1,82.5000025177003,0|0,0:0|0:0,0:0:0:0:
460,138,34313,5,4,0:0:0:0:
460,138,34482,2,0,B|406:152|406:152|353:134|353:134|278:152,1,165.000005035401,0|0,0:0|0:0,0:0:0:0:
208,197,34991,2,0,B|202:210|202:210|189:112,1,82.5000025177003,4|0,0:0|0:0,0:0:0:0:
281,75,35330,2,0,B|309:126|309:126|307:180,1,82.5000025177003,0|0,0:0|0:0,0:0:0:0:
280,256,35669,6,0,B|310:259|310:259|342:247|342:247|360:215,1,82.5000025177003,4|0,0:0|0:0,0:0:0:0:
407,100,36008,2,0,B|418:140|406:170|406:170|417:184,1,82.5000025177003,0|0,0:0|0:0,0:0:0:0:
327,134,36347,2,0,B|316:94|328:64|328:64|317:50,1,82.5000025177003,4|0,0:0|0:0,0:0:0:0:
215,102,36686,2,0,B|222:119|222:119|223:167|223:167|256:182,1,82.5000025177003,0|0,0:3|0:3,0:0:0:0:
375,200,37025,5,4,0:0:0:0:
375,200,37194,2,0,B|343:192|311:207|311:207|284:203|284:203|246:220|203:205,1,165.000005035401,0|0,0:0|0:0,0:0:0:0:
111,165,37703,2,0,B|123:197|123:197|112:230|112:230|128:273,1,82.5000025177003,4|0,0:0|0:0,0:0:0:0:
197,314,38042,2,0,B|219:297|219:297|264:326|313:306,1,123.75000377655,8|0,0:0|0:0,0:0:0:0:
345,278,38381,5,4,0:0:0:0:
374,243,38465,2,0,B|373:212|373:212|331:186|291:192,1,82.5000025177003,0|0,0:0|0:0,0:0:0:0:
273,191,38720,2,0,B|216:204|216:204|191:196,1,82.5000025177003,0|0,0:0|0:0,0:0:0:0:
96,151,39059,2,0,B|119:142|135:112|135:112|184:98,1,82.5000025177003,4|0,0:0|0:0,0:0:0:0:
258,133,39398,2,0,B|252:200|252:200|281:182,1,82.5000025177003,0|0,0:0|0:0,0:0:0:0:
373,145,39737,5,4,0:0:0:0:
373,145,39906,2,0,B|402:199|399:263|399:263|371:251|358:227,1,165.000005035401,0|0,0:0|0:0,0:0:0:0:
265,164,40415,2,0,B|264:207|264:207|275:224|275:224|291:275,1,82.5000025177003,4|0,0:0|0:0,0:0:0:0:
360,322,40753,1,0,0:0:0:0:
420,248,40923,2,0,L|426:198,1,41.2500012588501,0|0,0:0|0:0,0:0:0:0:
412,149,41092,6,0,B|381:157|348:143|348:143|323:160,1,82.5000025177003,4|0,0:0|0:0,0:0:0:0:
267,222,41431,2,0,B|268:263|268:263|278:264|278:264|276:319,1,82.5000025177003,0|0,0:0|0:0,0:0:0:0:
179,343,41770,2,0,B|156:302|156:302|168:259,1,82.5000025177003,4|0,0:0|0:0,0:0:0:0:
224,189,42109,1,0,0:0:0:0:
224,189,42279,6,0,B|176:191|176:191|165:166|165:166|134:184,1,82.5000025177003,0|4,0:0|0:0,0:0:0:0:
65,206,42618,2,0,B|67:256|67:256|112:255,1,82.5000025177003,0|0,0:0|0:0,0:0:0:0:
184,199,42957,2,0,B|179:159|179:159|181:134|181:134|171:85,1,82.5000025177003,0|12,0:0|0:0,0:0:0:0:
90,51,43296,1,8,0:0:0:0:
90,51,43381,1,8,0:0:0:0:
90,51,43465,2,0,L|42:54,2,41.2500012588501,8|8|8,0:0|0:0|0:0,0:0:0:0:
166,108,43804,5,0,0:0:0:0:
264,84,43974,1,0,0:0:0:0:
344,141,44143,1,0,0:0:0:0:
344,141,44313,2,0,P|348:196|291:271,1,127.50000243187,0|0,0:0|0:0,0:0:0:0:
220,192,44821,1,0,0:0:0:0:
220,192,44991,6,0,L|224:112,1,63.7500012159348,0|0,0:0|0:0,0:0:0:0:
282,57,45330,1,0,0:0:0:0:
282,57,45499,2,0,P|307:97|317:182,1,127.50000243187,0|0,0:0|0:0,0:0:0:0:
283,271,46008,1,0,0:0:0:0:
381,327,46177,1,0,0:0:0:0:
381,327,46347,6,0,P|380:273|386:238,1,63.7500012159348,0|0,0:0|0:0,0:0:0:0:
449,183,46686,1,0,0:0:0:0:
449,183,46855,2,0,P|461:219|463:254,1,63.7500012159348,0|0,0:0|0:0,0:0:0:0:
367,224,47194,1,0,0:0:0:0:
367,224,47364,2,0,P|319:221|284:227,1,63.7500012159348,0|0,0:0|0:0,0:0:0:0:
396,305,47703,6,0,P|428:288|456:256,1,63.7500012159348,0|0,0:0|0:0,0:0:0:0:
449,172,48042,1,0,0:0:0:0:
449,172,48211,2,0,P|411:170|320:226,1,127.50000243187,0|0,0:0|0:0,0:0:0:0:
239,176,48720,1,0,0:0:0:0:
171,258,48889,1,0,0:0:0:0:
171,258,49059,6,0,P|123:256|28:289,1,127.50000243187,4|0,0:0|0:0,0:0:0:0:
39,193,49567,1,8,0:0:0:0:
129,146,49737,2,0,L|205:147,1,63.7500012159348,0|0,0:0|0:0,0:0:0:0:
269,222,50076,1,0,0:0:0:0:
367,162,50245,1,8,0:0:0:0:
367,162,50415,6,0,P|377:211|326:285,1,127.50000243187,0|0,0:0|0:0,0:0:0:0:
242,250,50923,1,8,0:0:0:0:
160,315,51092,2,0,L|89:314,1,63.7500012159348,0|0,0:0|0:0,0:0:0:0:
46,235,51431,1,0,0:0:0:0:
150,182,51601,1,8,0:0:0:0:
150,182,51770,6,0,P|204:179|276:244,1,127.50000243187,0|0,0:0|0:0,0:0:0:0:
358,188,52279,1,8,0:0:0:0:
436,267,52448,2,0,L|427:343,1,63.7500012159348,8|8,0:0|0:0,0:0:0:0:
345,284,52787,2,0,L|339:202,1,63.7500012159348,8|8,0:0|0:0,0:0:0:0:
261,145,53126,1,8,0:0:0:0:
210,241,53296,5,8,0:0:0:0:
210,241,53381,1,8,0:0:0:0:
210,241,53465,2,0,L|160:242,2,31.8750006079674,8|8|8,0:0|0:0|0:0,0:0:0:0:
394,192,54652,6,0,P|398:232|392:267,1,71.2499980974198,4|0,0:0|0:0,0:0:0:0:
297,313,54991,1,8,0:0:0:0:
199,231,55160,2,0,L|193:139,1,71.2499980974198,0|0,0:0|0:0,0:0:0:0:
302,220,55499,2,0,L|286:324,1,71.2499980974198,0|8,0:0|0:0,0:0:0:0:
402,252,55838,6,0,P|403:192|327:141,1,142.49999619484,0|0,0:0|0:0,0:0:0:0:
252,195,56347,1,8,0:0:0:0:
219,106,56516,1,0,0:0:0:0:
126,137,56686,2,0,P|78:141|41:163,1,71.2499980974198,0|0,0:0|0:0,0:0:0:0:
131,227,57025,2,0,P|165:232|215:227,1,71.2499980974198,8|0,0:0|0:0,0:0:0:0:
328,197,57364,6,0,P|311:251|366:332,1,142.49999619484,0|8,0:0|0:0,0:0:0:0:
471,276,57872,2,0,L|467:200,1,71.2499980974198,0|0,0:0|0:0,0:0:0:0:
385,144,58211,2,0,L|379:247,1,71.2499980974198,0|8,0:0|0:0,0:0:0:0:
286,144,58550,6,0,P|245:130|135:173,1,142.49999619484,0|0,0:0|0:0,0:0:0:0:
170,254,59059,1,8,0:0:0:0:
283,233,59228,1,0,0:0:0:0:
399,280,59398,2,0,L|393:191,1,71.2499980974198,0|0,0:0|0:0,0:0:0:0:
470,161,59737,2,0,L|474:78,1,71.2499980974198,8|0,0:0|0:0,0:0:0:0:
381,43,60076,6,0,P|326:81|248:75,1,142.49999619484,4|10,0:0|0:0,0:0:0:0:
158,99,60584,1,0,0:0:0:0:
146,195,60753,2,0,L|157:279,1,71.2499980974198,8|0,0:0|0:0,0:0:0:0:
238,317,61092,2,0,L|248:237,1,71.2499980974198,8|0,0:0|0:0,0:0:0:0:
337,198,61431,6,0,P|350:242|286:302,1,142.49999619484,0|8,0:0|0:0,0:0:0:0:
184,261,61940,1,0,0:0:0:0:
270,177,62109,2,0,P|316:170|371:174,1,71.2499980974198,0|0,0:0|0:0,0:0:0:0:
282,289,62448,2,0,P|243:291|203:283,1,71.2499980974198,8|0,0:0|0:0,0:0:0:0:
141,173,62787,6,0,P|203:202|284:192,1,142.49999619484,0|8,0:0|0:0,0:0:0:0:
389,137,63296,1,0,0:0:0:0:
389,137,63465,2,0,P|325:122|297:117,1,71.2499980974198,0|0,0:0|0:0,0:0:0:0:
200,144,63804,1,8,0:0:0:0:
257,50,63974,1,0,0:0:0:0:
330,147,64143,6,0,L|367:151,4,35.6249990487099,8|8|8|8|8,0:0|0:0|0:0|0:0|0:0,0:0:0:0:
246,211,64652,1,8,0:0:0:0:
246,211,64737,1,8,0:0:0:0:
246,211,64821,2,0,L|194:215,2,35.6249990487099,8|8|8,0:0|0:0|0:0,0:0:0:0:
339,262,65160,2,0,L|391:269,3,35.6249990487099,8|8|8|8,0:0|0:0|0:0|0:0,0:0:0:0:
421,261,65499,6,0,P|433:212|371:152,1,142.49999619484,4|8,0:0|0:0,0:0:0:0:
269,210,66008,2,0,L|276:298,1,71.2499980974198,0|0,0:0|0:0,0:0:0:0:
179,239,66347,2,0,L|185:158,1,71.2499980974198,0|8,0:0|0:0,0:0:0:0:
104,92,66686,6,0,P|77:137|94:233,1,142.49999619484,0|0,0:0|0:0,0:0:0:0:
204,187,67194,1,8,0:0:0:0:
277,268,67364,1,0,0:0:0:0:
357,187,67533,2,0,P|356:142|344:117,1,71.2499980974198,0|0,0:0|0:0,0:0:0:0:
251,91,67872,2,0,P|246:137|272:181,1,71.2499980974198,8|0,0:0|0:0,0:0:0:0:
159,123,68211,6,0,P|97:170|13:172,1,142.49999619484,0|8,0:0|0:0,0:0:0:0:
102,269,68720,2,0,P|155:261|199:265,1,71.2499980974198,0|0,0:0|0:0,0:0:0:0:
282,340,69059,2,0,P|230:343|194:336,1,71.2499980974198,0|8,0:0|0:0,0:0:0:0:
172,261,69398,6,0,P|153:184|199:152,1,142.49999619484,0|0,0:0|0:0,0:0:0:0:
293,204,69906,1,8,0:0:0:0:
362,132,70076,1,0,0:0:0:0:
432,227,70245,2,0,P|436:273|430:318,1,71.2499980974198,0|0,0:0|0:0,0:0:0:0:
336,265,70584,2,0,P|327:228|324:188,1,71.2499980974198,8|0,0:0|0:0,0:0:0:0:
421,148,70923,6,0,P|416:192|322:251,1,142.49999619484,0|10,0:0|0:0,0:0:0:0:
231,184,71431,2,0,L|232:108,1,71.2499980974198,0|8,0:0|0:0,0:0:0:0:
311,57,71770,1,8,0:0:0:0:
311,57,71940,6,0,P|320:128|315:202,1,142.49999619484,4|0,0:0|0:0,0:0:0:0:
235,262,72448,1,0,0:0:0:0:
172,192,72618,1,8,0:0:0:0:
95,265,72787,1,0,0:0:0:0:
190,284,72957,2,0,L|194:212,1,71.2499980974198,0|0,0:0|0:0,0:0:0:0:
95,265,73296,2,0,L|99:336,1,71.2499980974198,8|0,0:0|0:0,0:0:0:0:
203,354,73635,6,0,P|256:358|344:307,1,142.49999619484,0|8,0:0|0:0,0:0:0:0:
282,234,74143,1,0,0:0:0:0:
282,234,74313,2,0,P|205:235|117:258,1,142.49999619484,0|8,0:0|0:0,0:0:0:0:
98,167,74821,1,0,0:0:0:0:
197,153,74991,6,0,L|251:156,6,35.6249990487099,8|8|8|8|8|8|8,0:0|0:0|0:0|0:0|0:0|0:0|0:0,0:0:0:0:
271,184,75584,2,0,L|268:268,1,71.2499980974198
368,179,75923,2,0,L|364:95,1,71.2499980974198
362,61,76177,1,0,0:0:0:0:
163,80,76347,6,0,P|163:128|78:166,1,134.999995880127,6|0,0:0|0:0,0:0:0:0:
43,87,76855,1,0,0:0:0:0:
151,149,77025,2,0,P|156:191|155:239,1,67.4999979400635,0|0,0:0|0:0,0:0:0:0:
59,252,77364,2,0,P|62:213|73:170,1,67.4999979400635,8|0,0:0|0:0,0:0:0:0:
153,131,77703,6,0,P|231:148|308:139,1,134.999995880127,0|8,0:0|0:0,0:0:0:0:
236,62,78211,1,0,0:0:0:0:
148,126,78381,2,0,L|153:209,1,67.4999979400635,0|0,0:0|0:0,0:0:0:0:
59,133,78720,2,0,L|66:57,1,67.4999979400635,8|0,0:0|0:0,0:0:0:0:
186,141,79059,6,0,P|192:177|129:268,1,134.999995880127,4|8,0:0|0:0,0:0:0:0:
31,212,79567,2,0,L|36:135,1,67.4999979400635,0|0,0:0|0:0,0:0:0:0:
128,203,79906,1,0,0:0:0:0:
128,203,80076,6,0,B|197:177|200:225|276:191,1,134.999995880127,8|0,0:0|0:0,0:0:0:0:
344,139,80584,1,0,0:0:0:0:
405,220,80753,1,0,0:0:0:0:
325,300,80923,1,0,0:0:0:0:
325,300,81092,2,0,L|234:308,1,67.4999979400635,0|0,0:0|0:0,0:0:0:0:
194,233,81431,2,0,P|248:212|277:212,1,67.4999979400635,0|4,0:0|0:0,0:0:0:0:
356,290,81770,6,0,P|312:294|278:285,1,67.4999979400635,2|0,0:0|0:0,0:0:0:0:
210,221,82109,1,8,0:0:0:0:
210,221,82279,2,0,L|208:127,1,67.4999979400635,0|0,0:0|0:0,0:0:0:0:
308,108,82618,1,0,0:0:0:0:
308,108,82787,2,0,L|301:192,1,67.4999979400635,8|0,0:0|0:0,0:0:0:0:
387,249,83126,6,0,P|393:207|389:173,1,67.4999979400635,0|0,0:0|0:0,0:0:0:0:
318,120,83465,1,8,0:0:0:0:
318,120,83635,2,0,P|261:129|219:126,1,67.4999979400635,0|0,0:0|0:0,0:0:0:0:
156,87,83974,1,0,0:0:0:0:
116,180,84143,2,0,L|121:256,1,67.4999979400635,8|0,0:0|0:0,0:0:0:0:
211,309,84482,6,0,P|219:265|208:212,1,67.4999979400635,2|0,0:0|0:0,0:0:0:0:
136,180,84821,1,8,0:0:0:0:
136,180,84991,2,0,P|64:195|52:270,1,134.999995880127,0|0,0:0|0:0,0:0:0:0:
97,325,85499,1,8,0:0:0:0:
195,333,85669,1,0,0:0:0:0:
251,248,85838,6,0,L|249:172,1,67.4999979400635,0|0,0:0|0:0,0:0:0:0:
341,224,86177,2,0,L|333:316,1,67.4999979400635,8|0,0:0|0:0,0:0:0:0:
405,358,86516,1,8,0:0:0:0:
405,358,86686,1,8,0:0:0:0:
256,192,86855,12,0,88550,0:0:0:0:
