osu file format v14

[General]
AudioFilename: Mimpi blang.mp3
AudioLeadIn: 0
PreviewTime: 65864
Countdown: 0
SampleSet: Soft
StackLeniency: 0.7
Mode: 2
LetterboxInBreaks: 0
WidescreenStoryboard: 0

[Editor]
Bookmarks: 31864,53864
DistanceSpacing: 0.8
BeatDivisor: 4
GridSize: 8
TimelineZoom: 1.3

[Metadata]
Title:Kohaku no Yume
TitleUnicode:虚白ノ夢
Artist:Kanawo
ArtistUnicode:カナヲ
Creator:Surono
Version:Volta's Salad
Source:虚白ノ夢
Tags:teriyaki tomato blank dream usui mishiro volta
BeatmapID:905750
BeatmapSetID:411705

[Difficulty]
HPDrainRate:4
CircleSize:3
OverallDifficulty:6.5
ApproachRate:6.5
SliderMultiplier:1.8
SliderTickRate:2

[Events]
//Background and Video events
0,0,"ngeblank.jpg",0,0
//Break Periods
//Storyboard Layer 0 (Background)
//Storyboard Layer 1 (Fail)
//Storyboard Layer 2 (Pass)
//Storyboard Layer 3 (Foreground)
//Storyboard Sound Samples

[TimingPoints]
531,666.666666666667,4,2,1,30,1,0
19031,-76.9230769230769,4,2,1,30,0,0
21197,-100,4,2,1,30,0,0
67197,-100,4,2,1,30,0,1
88531,-100,4,2,1,30,0,0
93864,750,4,2,1,30,1,0
96676,-66.6666666666667,4,2,1,30,0,0

[Colours]
Combo1 : 131,131,131
Combo2 : 255,85,85
Combo3 : 111,175,255
Combo4 : 180,180,180

[HitObjects]
104,200,531,5,2,0:0:0:0:
320,208,1031,1,2,0:0:0:0:
112,208,1531,2,0,L|272:112,1,180,2|0,0:0|0:0,0:0:0:0:
120,56,2531,1,0,0:0:0:0:
408,200,3197,5,2,0:0:0:0:
192,208,3697,1,2,0:0:0:0:
400,208,4197,2,0,L|232:120,1,180,2|0,0:0|0:0,0:0:0:0:
392,56,5197,1,0,0:0:0:0:
104,208,5864,5,2,0:0:0:0:
288,208,6364,1,2,0:0:0:0:
472,208,6864,1,2,0:0:0:0:
232,88,7531,1,0,0:0:0:0:
72,72,8197,6,0,L|168:72,1,90
320,72,8864,1,2,0:0:0:0:
248,112,9031,1,0,0:0:0:0:
176,152,9197,1,2,0:0:0:0:
88,208,10197,6,0,L|104:160,1,45
296,208,10531,1,8,0:0:0:0:
80,208,11197,6,0,L|168:120,1,90
288,128,11864,1,8,0:0:0:0:
136,144,12197,1,2,0:0:0:0:
304,128,12864,1,0,0:0:0:0:
136,128,13197,2,0,L|256:128,1,90,8|0,0:0|0:0,0:0:0:0:
408,208,13864,6,0,L|344:144,1,90
200,128,14531,1,8,0:0:0:0:
352,144,14864,1,2,0:0:0:0:
208,128,15531,1,0,0:0:0:0:
376,128,15864,2,0,L|264:128,1,90,8|0,0:0|0:0,0:0:0:0:
80,208,16531,6,0,L|168:120,1,90
288,128,17198,1,8,0:0:0:0:
136,144,17531,1,2,0:0:0:0:
280,128,18198,1,0,0:0:0:0:
112,128,18531,2,0,L|232:128,1,90,8|0,0:0|0:0,0:0:0:0:
480,128,19197,2,2,L|200:176,2,233.999989288331,4|0|0,0:0|0:0|0:0,0:0:0:0:
360,200,21864,5,2,0:0:0:0:
152,192,22364,1,2,0:0:0:0:
360,200,22864,1,2,0:0:0:0:
200,216,24197,1,0,0:0:0:0:
48,216,24531,5,2,0:0:0:0:
256,216,25031,1,2,0:0:0:0:
464,216,25531,1,2,0:0:0:0:
216,208,26531,1,0,0:0:0:0:
448,208,27197,5,2,0:0:0:0:
240,208,27697,1,2,0:0:0:0:
32,208,28197,1,2,0:0:0:0:
304,208,28864,1,0,0:0:0:0:
184,208,29531,1,0,0:0:0:0:
32,200,29864,5,2,0:0:0:0:
240,200,30364,1,2,0:0:0:0:
448,200,30864,1,2,0:0:0:0:
336,208,31531,2,0,L|312:168,1,45
136,296,31864,2,0,P|56:264|64:192,1,135,8|0,0:0|0:0,0:0:0:0:
120,192,32531,5,0,0:0:0:0:
216,192,32864,1,0,0:0:0:0:
472,200,33197,2,0,L|352:200,1,90,8|2,0:0|0:0,0:0:0:0:
232,192,34197,1,0,0:0:0:0:
400,296,34531,2,0,P|472:280|464:208,1,135,8|0,0:0|0:0,0:0:0:0:
408,192,35198,5,0,0:0:0:0:
296,192,35531,1,0,0:0:0:0:
40,200,35864,2,0,L|160:200,1,90,8|2,0:0|0:0,0:0:0:0:
280,192,36864,1,0,0:0:0:0:
112,296,37197,2,0,P|40:280|48:208,1,135,8|0,0:0|0:0,0:0:0:0:
104,192,37864,5,0,0:0:0:0:
216,192,38197,1,0,0:0:0:0:
472,200,38531,2,2,L|352:200,1,90,8|2,0:0|0:0,0:0:0:0:
232,192,39530,1,2,0:0:0:0:
400,296,39864,2,0,P|472:280|464:208,1,135,8|0,0:0|0:0,0:0:0:0:
408,192,40531,5,0,0:0:0:0:
296,192,40864,1,0,0:0:0:0:
40,200,41197,2,0,L|160:200,1,90,8|2,0:0|0:0,0:0:0:0:
280,192,42197,1,0,0:0:0:0:
120,192,42531,1,8,0:0:0:0:
216,192,42864,1,2,0:0:0:0:
472,192,43197,5,4,0:0:0:0:
264,192,43864,2,0,L|136:192,1,90
48,192,44531,1,2,0:0:0:0:
152,192,44864,1,0,0:0:0:0:
256,192,45197,2,0,L|166:192,1,90
56,192,45864,5,2,0:0:0:0:
240,192,46531,1,0,0:0:0:0:
352,192,46864,2,0,L|448:192,1,90,0|2,0:0|0:0,0:0:0:0:
288,192,47531,2,0,L|168:192,1,90,0|2,0:0|0:0,0:0:0:0:
88,192,48197,1,0,0:0:0:0:
352,192,48531,5,2,0:0:0:0:
208,192,49197,2,0,L|336:192,1,90
424,192,49864,1,2,0:0:0:0:
320,192,50197,1,0,0:0:0:0:
216,192,50530,2,0,L|306:192,1,90
424,192,51197,5,2,0:0:0:0:
264,192,51864,1,0,0:0:0:0:
152,192,52197,2,0,L|56:192,1,90,0|2,0:0|0:0,0:0:0:0:
208,264,52864,2,0,L|118:264,1,90,0|8,0:0|0:0,0:0:0:0:
248,264,53530,1,0,0:0:0:0:
424,264,53864,5,0,0:0:0:0:
344,264,54197,1,0,0:0:0:0:
104,216,54531,2,0,L|193:215,1,90,8|0,0:0|0:0,0:0:0:0:
288,136,55197,1,2,0:0:0:0:
192,112,55531,1,0,0:0:0:0:
432,256,55864,2,0,L|342:255,1,90,8|0,0:0|0:0,0:0:0:0:
224,192,56531,5,2,0:0:0:0:
72,144,57197,2,0,L|168:144,1,90,8|0,0:0|0:0,0:0:0:0:
248,144,57864,1,2,0:0:0:0:
376,144,58197,1,0,0:0:0:0:
176,240,58531,2,0,L|64:240,1,90,8|0,0:0|0:0,0:0:0:0:
168,224,59197,5,2,0:0:0:0:
272,168,59531,1,0,0:0:0:0:
424,168,59864,1,8,0:0:0:0:
168,168,60197,1,4,0:0:0:0:
336,184,60864,5,0,0:0:0:0:
168,184,61197,1,8,0:0:0:0:
304,184,61531,1,0,0:0:0:0:
464,184,61864,1,2,0:0:0:0:
296,184,62531,5,0,0:0:0:0:
184,184,62864,1,0,0:0:0:0:
64,184,63197,1,2,0:0:0:0:
184,104,63531,1,0,0:0:0:0:
256,104,63697,1,0,0:0:0:0:
400,112,64031,1,2,0:0:0:0:
176,112,64531,6,0,L|288:112,1,90,2|0,0:0|0:0,0:0:0:0:
448,112,65197,1,8,0:0:0:0:
368,112,65531,1,0,0:0:0:0:
112,144,65864,1,12,0:0:0:0:
32,112,66531,2,0,L|152:112,1,90,0|8,0:0|0:0,0:0:0:0:
360,112,67197,5,4,0:0:0:0:
472,112,67531,2,0,L|368:112,1,90,2|8,0:0|0:0,0:0:0:0:
144,112,68197,1,4,0:0:0:0:
264,112,68864,1,0,0:0:0:0:
408,112,69197,1,8,0:0:0:0:
320,112,69531,1,2,0:0:0:0:
80,120,69864,5,4,0:0:0:0:
168,120,70197,2,0,L|296:120,1,90,2|8,0:0|0:0,0:0:0:0:
464,136,70864,1,4,0:0:0:0:
304,136,71531,1,0,0:0:0:0:
152,136,71864,2,0,L|96:136,2,45,8|0|2,0:0|0:0|0:0,0:0:0:0:
368,136,72531,5,4,0:0:0:0:
480,136,73197,1,8,0:0:0:0:
352,136,73531,2,0,L|240:136,1,90,4|0,0:0|0:0,0:0:0:0:
160,136,74197,1,2,0:0:0:0:
40,136,74531,1,8,0:0:0:0:
160,136,74864,1,0,0:0:0:0:
408,144,75197,5,4,0:0:0:0:
184,144,75697,1,4,0:0:0:0:
432,152,76197,1,4,0:0:0:0:
288,120,76864,1,0,0:0:0:0:
480,112,77197,2,0,L|360:112,1,90,8|0,0:0|0:0,0:0:0:0:
160,112,77864,5,4,0:0:0:0:
40,112,78197,2,0,L|144:112,1,90,2|8,0:0|0:0,0:0:0:0:
368,112,78863,1,4,0:0:0:0:
248,112,79530,1,0,0:0:0:0:
104,112,79863,1,8,0:0:0:0:
192,112,80197,1,2,0:0:0:0:
432,128,80530,5,4,0:0:0:0:
328,128,80863,2,0,L|200:128,1,90,2|8,0:0|0:0,0:0:0:0:
48,136,81531,1,4,0:0:0:0:
208,136,82197,1,0,0:0:0:0:
360,136,82530,2,0,L|416:136,2,45,8|0|2,0:0|0:0|0:0,0:0:0:0:
224,136,83197,5,4,0:0:0:0:
96,136,83531,2,0,L|208:136,1,90,2|8,0:0|0:0,0:0:0:0:
424,144,84197,1,4,0:0:0:0:
264,144,84864,1,2,0:0:0:0:
416,144,85197,1,8,0:0:0:0:
336,144,85531,1,2,0:0:0:0:
96,144,85864,5,12,0:0:0:0:
200,144,86197,1,2,0:0:0:0:
376,144,86531,1,12,0:0:0:0:
200,144,86864,1,12,0:0:0:0:
152,144,87531,1,2,0:0:0:0:
352,144,87864,1,8,0:0:0:0:
280,144,88197,1,0,0:0:0:0:
80,208,88531,6,0,L|168:120,1,90
288,128,89198,1,8,0:0:0:0:
136,144,89531,1,2,0:0:0:0:
304,128,90198,1,0,0:0:0:0:
136,128,90531,2,0,L|256:128,1,90,8|0,0:0|0:0,0:0:0:0:
408,208,91198,6,0,L|344:144,1,90
200,128,91864,1,8,0:0:0:0:
352,144,92198,1,2,0:0:0:0:
208,128,92865,1,0,0:0:0:0:
376,128,93198,2,0,L|264:128,1,90,8|0,0:0|0:0,0:0:0:0:
40,208,93864,6,0,L|128:120,1,90
272,144,94614,1,8,0:0:0:0:
120,144,94989,1,2,0:0:0:0:
304,128,95739,1,0,0:0:0:0:
112,128,96114,2,0,L|232:128,1,90,8|0,0:0|0:0,0:0:0:0:
472,80,96864,6,2,P|168:80|168:80,2,270.000010299683,2|0|0,0:0|0:0|0:0,0:0:0:0:
256,192,98739,12,2,101364,0:0:0:0:
