osu file format v14

[General]
AudioFilename: Mimpi blang.mp3
AudioLeadIn: 0
PreviewTime: 65864
Countdown: 0
SampleSet: Normal
StackLeniency: 0.7
Mode: 1
LetterboxInBreaks: 0
WidescreenStoryboard: 0

[Editor]
DistanceSpacing: 0.8
BeatDivisor: 4
GridSize: 32
TimelineZoom: 1

[Metadata]
Title:Kohaku no Yume
TitleUnicode:虚白ノ夢
Artist:Kanawo
ArtistUnicode:カナヲ
Creator:Surono
Version:Muzukashii
Source:虚白ノ夢
Tags:teriyaki tomato blank dream usui mishiro volta
BeatmapID:893332
BeatmapSetID:411705

[Difficulty]
HPDrainRate:7
CircleSize:2
OverallDifficulty:4.5
ApproachRate:0
SliderMultiplier:1.4
SliderTickRate:1

[Events]
//Background and Video events
0,0,"ngeblank.jpg",0,0
//Break Periods
//Storyboard Layer 0 (Background)
//Storyboard Layer 1 (Fail)
//Storyboard Layer 2 (Pass)
//Storyboard Layer 3 (Foreground)
//Storyboard Sound Samples

[TimingPoints]
531,666.666666666667,4,1,0,25,1,0
10197,-100,4,1,0,50,0,0
67197,-100,4,1,0,50,0,1
88531,-100,4,1,0,50,0,0
92864,-102.827763496144,4,1,0,50,0,0
93197,-105.263157894737,4,1,0,50,0,0
93864,750,4,1,0,50,1,0

[HitObjects]
256,192,531,5,0,0:0:0:0:
256,192,1031,1,8,0:0:0:0:
256,192,1531,1,0,0:0:0:0:
256,192,2197,1,0,0:0:0:0:
256,192,2531,1,0,0:0:0:0:
256,192,3197,1,8,0:0:0:0:
256,192,3697,1,0,0:0:0:0:
256,192,4197,1,8,0:0:0:0:
256,192,4864,1,8,0:0:0:0:
256,192,5197,1,8,0:0:0:0:
256,192,5864,1,0,0:0:0:0:
256,192,6364,1,8,0:0:0:0:
256,192,6864,1,0,0:0:0:0:
256,192,7531,1,8,0:0:0:0:
256,192,8197,1,8,0:0:0:0:
256,192,8531,1,0,0:0:0:0:
256,192,8864,1,8,0:0:0:0:
256,192,9197,1,8,0:0:0:0:
256,192,10197,1,0,0:0:0:0:
256,192,10531,1,8,0:0:0:0:
256,192,11197,1,0,0:0:0:0:
256,192,11531,1,0,0:0:0:0:
256,192,11864,1,8,0:0:0:0:
256,192,12197,1,0,0:0:0:0:
256,192,12864,1,0,0:0:0:0:
256,192,13197,1,8,0:0:0:0:
256,192,13864,1,0,0:0:0:0:
256,192,14197,1,0,0:0:0:0:
256,192,14531,1,8,0:0:0:0:
256,192,14864,1,0,0:0:0:0:
256,192,15531,1,8,0:0:0:0:
256,192,15864,1,8,0:0:0:0:
256,192,16531,1,0,0:0:0:0:
256,192,16864,1,0,0:0:0:0:
256,192,17197,1,8,0:0:0:0:
256,192,17531,1,0,0:0:0:0:
256,192,18197,1,0,0:0:0:0:
256,192,18531,1,8,0:0:0:0:
256,192,18864,1,0,0:0:0:0:
256,192,19197,1,0,0:0:0:0:
256,192,19364,1,0,0:0:0:0:
256,192,19531,1,8,0:0:0:0:
256,192,19864,1,8,0:0:0:0:
256,192,20197,1,8,0:0:0:0:
256,192,20531,1,0,0:0:0:0:
256,192,21864,1,0,0:0:0:0:
256,192,22197,1,8,0:0:0:0:
256,192,22364,1,8,0:0:0:0:
256,192,22864,1,0,0:0:0:0:
256,192,24531,1,8,0:0:0:0:
256,192,24864,1,0,0:0:0:0:
256,192,25031,1,0,0:0:0:0:
256,192,25531,1,8,0:0:0:0:
256,192,26531,1,0,0:0:0:0:
256,192,27197,1,0,0:0:0:0:
256,192,27531,1,0,0:0:0:0:
256,192,27697,1,0,0:0:0:0:
256,192,28197,1,8,0:0:0:0:
256,192,28864,1,0,0:0:0:0:
256,192,29864,1,8,0:0:0:0:
256,192,30197,1,8,0:0:0:0:
256,192,30364,1,8,0:0:0:0:
256,192,30864,1,0,0:0:0:0:
256,192,31531,1,0,0:0:0:0:
256,192,31864,1,8,0:0:0:0:
256,192,32031,1,8,0:0:0:0:
256,192,32197,1,8,0:0:0:0:
256,192,32531,1,0,0:0:0:0:
256,192,32864,1,0,0:0:0:0:
256,192,33031,1,0,0:0:0:0:
256,192,33531,1,0,0:0:0:0:
256,192,34197,1,8,0:0:0:0:
256,192,34531,1,0,0:0:0:0:
256,192,35197,1,8,0:0:0:0:
256,192,35531,1,0,0:0:0:0:
256,192,35697,1,0,0:0:0:0:
256,192,36197,1,8,0:0:0:0:
256,192,36864,1,0,0:0:0:0:
256,192,37197,1,8,0:0:0:0:
256,192,37864,1,0,0:0:0:0:
256,192,38197,1,8,0:0:0:0:
256,192,38364,1,8,0:0:0:0:
256,192,38864,1,0,0:0:0:0:
256,192,39531,1,0,0:0:0:0:
256,192,39864,1,8,0:0:0:0:
256,192,40197,1,0,0:0:0:0:
256,192,40531,1,8,0:0:0:0:
256,192,40864,1,8,0:0:0:0:
256,192,41031,1,8,0:0:0:0:
256,192,41197,1,8,0:0:0:0:
256,192,41531,1,0,0:0:0:0:
256,192,42197,1,0,0:0:0:0:
256,192,42531,1,8,0:0:0:0:
256,192,42864,1,0,0:0:0:0:
256,192,43197,1,8,0:0:0:0:
256,192,43864,1,8,0:0:0:0:
256,192,44531,1,0,0:0:0:0:
256,192,45197,1,0,0:0:0:0:
256,192,45531,1,0,0:0:0:0:
256,192,45864,1,8,0:0:0:0:
256,192,46531,1,0,0:0:0:0:
256,192,46864,1,0,0:0:0:0:
256,192,47197,1,8,0:0:0:0:
256,192,47531,1,0,0:0:0:0:
256,192,47697,1,0,0:0:0:0:
256,192,47864,1,0,0:0:0:0:
256,192,48197,1,0,0:0:0:0:
256,192,48531,1,8,0:0:0:0:
256,192,49197,1,8,0:0:0:0:
256,192,49864,1,0,0:0:0:0:
256,192,50531,1,0,0:0:0:0:
256,192,50864,1,8,0:0:0:0:
256,192,51197,1,8,0:0:0:0:
256,192,51864,1,0,0:0:0:0:
256,192,52197,1,8,0:0:0:0:
256,192,52531,1,0,0:0:0:0:
256,192,52864,1,8,0:0:0:0:
256,192,53031,1,8,0:0:0:0:
256,192,53197,1,8,0:0:0:0:
256,192,53531,1,8,0:0:0:0:
256,192,53864,1,0,0:0:0:0:
256,192,54531,1,8,0:0:0:0:
256,192,54864,1,0,0:0:0:0:
256,192,55197,1,0,0:0:0:0:
263,185,55531,1,0,0:0:0:0:
256,192,55864,1,8,0:0:0:0:
256,192,56197,1,8,0:0:0:0:
256,192,56531,1,0,0:0:0:0:
256,192,57197,1,8,0:0:0:0:
256,192,57531,1,0,0:0:0:0:
256,192,57864,1,8,0:0:0:0:
256,192,58197,1,0,0:0:0:0:
256,192,58364,1,0,0:0:0:0:
256,192,58531,1,8,0:0:0:0:
256,192,58864,1,0,0:0:0:0:
256,192,59197,1,0,0:0:0:0:
256,192,59864,1,8,0:0:0:0:
256,192,60197,1,12,0:0:0:0:
256,192,60864,1,0,0:0:0:0:
256,192,61197,1,8,0:0:0:0:
256,192,61864,1,0,0:0:0:0:
256,192,62531,1,0,0:0:0:0:
256,192,62864,1,8,0:0:0:0:
256,192,63197,1,8,0:0:0:0:
256,192,63531,1,0,0:0:0:0:
256,192,63697,1,0,0:0:0:0:
256,192,64031,1,8,0:0:0:0:
256,192,64531,1,8,0:0:0:0:
256,192,65197,1,8,0:0:0:0:
256,192,65531,1,0,0:0:0:0:
256,192,65864,1,12,0:0:0:0:
256,192,66531,1,0,0:0:0:0:
256,192,66864,1,8,0:0:0:0:
256,192,67031,1,8,0:0:0:0:
256,192,67197,1,8,0:0:0:0:
256,192,67697,1,0,0:0:0:0:
256,192,68031,1,8,0:0:0:0:
256,192,68197,1,8,0:0:0:0:
256,192,68864,1,0,0:0:0:0:
256,192,69197,1,8,0:0:0:0:
256,192,69531,1,8,0:0:0:0:
256,192,69864,1,0,0:0:0:0:
256,192,70364,1,8,0:0:0:0:
256,192,70697,1,0,0:0:0:0:
256,192,70864,1,0,0:0:0:0:
256,192,71531,1,0,0:0:0:0:
256,192,71864,1,8,0:0:0:0:
256,192,72031,1,8,0:0:0:0:
256,192,72197,1,8,0:0:0:0:
256,192,72531,1,0,0:0:0:0:
256,192,73197,1,8,0:0:0:0:
256,192,73531,1,0,0:0:0:0:
256,192,73864,1,8,0:0:0:0:
256,192,74197,1,8,0:0:0:0:
256,192,74364,1,8,0:0:0:0:
256,192,74531,1,0,0:0:0:0:
256,192,74864,1,0,0:0:0:0:
256,192,75197,1,8,0:0:0:0:
256,192,75697,1,0,0:0:0:0:
256,192,76031,1,8,0:0:0:0:
256,192,76197,1,8,0:0:0:0:
256,192,76864,1,0,0:0:0:0:
256,192,77197,1,8,0:0:0:0:
256,192,77531,1,8,0:0:0:0:
256,192,77864,1,0,0:0:0:0:
256,192,78364,1,0,0:0:0:0:
256,192,78697,1,8,0:0:0:0:
256,192,78864,1,8,0:0:0:0:
256,192,79531,1,0,0:0:0:0:
256,192,79864,1,8,0:0:0:0:
256,192,80197,1,8,0:0:0:0:
256,192,80531,1,0,0:0:0:0:
256,192,81031,1,8,0:0:0:0:
256,192,81364,1,0,0:0:0:0:
256,192,81531,1,0,0:0:0:0:
256,192,82197,1,0,0:0:0:0:
256,192,82531,1,8,0:0:0:0:
256,192,82697,1,8,0:0:0:0:
256,192,82864,1,8,0:0:0:0:
256,192,83197,1,0,0:0:0:0:
256,192,83531,1,0,0:0:0:0:
256,192,83864,1,8,0:0:0:0:
256,192,84197,1,12,0:0:0:0:
256,192,84864,1,8,0:0:0:0:
256,192,85197,1,8,0:0:0:0:
256,192,85531,1,0,0:0:0:0:
256,192,85864,1,8,0:0:0:0:
256,192,86531,1,0,0:0:0:0:
256,192,86864,1,12,0:0:0:0:
256,192,87531,1,8,0:0:0:0:
256,192,87864,1,8,0:0:0:0:
256,192,88531,1,0,0:0:0:0:
256,192,88864,1,0,0:0:0:0:
256,192,89197,1,8,0:0:0:0:
256,192,89531,1,0,0:0:0:0:
256,192,90197,1,0,0:0:0:0:
256,192,90531,1,8,0:0:0:0:
256,192,91197,1,0,0:0:0:0:
256,192,91531,1,0,0:0:0:0:
256,192,91864,1,8,0:0:0:0:
256,192,92197,1,0,0:0:0:0:
256,192,92864,5,8,0:0:0:0:
256,192,93197,1,8,0:0:0:0:
256,192,93864,1,0,0:0:0:0:
256,192,94239,1,0,0:0:0:0:
256,192,94614,1,8,0:0:0:0:
256,192,94989,1,0,0:0:0:0:
256,192,95739,1,0,0:0:0:0:
256,192,96114,1,8,0:0:0:0:
256,192,96489,1,0,0:0:0:0:
256,192,96864,1,0,0:0:0:0:
256,192,97051,1,0,0:0:0:0:
256,192,97239,1,8,0:0:0:0:
256,192,97614,1,8,0:0:0:0:
256,192,97989,1,8,0:0:0:0:
256,192,98364,1,0,0:0:0:0:
256,192,98739,12,0,100989,0:0:0:0:
256,192,101364,5,8,0:0:0:0:
