osu file format v14

[General]
AudioFilename: Mimpi blang.mp3
AudioLeadIn: 0
PreviewTime: 65864
Countdown: 0
SampleSet: Normal
StackLeniency: 0.7
Mode: 1
LetterboxInBreaks: 0
WidescreenStoryboard: 0

[Editor]
DistanceSpacing: 0.8
BeatDivisor: 4
GridSize: 32
TimelineZoom: 1

[Metadata]
Title:Kohaku no Yume
TitleUnicode:虚白ノ夢
Artist:Kanawo
ArtistUnicode:カナヲ
Creator:Surono
Version:Kantan
Source:虚白ノ夢
Tags:teriyaki tomato blank dream usui mishiro volta
BeatmapID:905749
BeatmapSetID:411705

[Difficulty]
HPDrainRate:8
CircleSize:2
OverallDifficulty:3.5
ApproachRate:0
SliderMultiplier:1.4
SliderTickRate:1

[Events]
//Background and Video events
0,0,"ngeblank.jpg",0,0
//Break Periods
//Storyboard Layer 0 (Background)
//Storyboard Layer 1 (Fail)
//Storyboard Layer 2 (Pass)
//Storyboard Layer 3 (Foreground)
//Storyboard Sound Samples

[TimingPoints]
531,666.666666666667,4,1,0,25,1,0
10197,-100,4,1,0,50,0,0
67197,-100,4,1,0,50,0,1
88531,-100,4,1,0,50,0,0
93864,750,4,1,0,50,1,0

[HitObjects]
256,192,531,5,0,0:0:0:0:
256,192,1531,1,0,0:0:0:0:
256,192,3197,1,8,0:0:0:0:
256,192,4197,1,8,0:0:0:0:
256,192,5864,1,0,0:0:0:0:
256,192,6864,1,0,0:0:0:0:
256,192,8531,1,0,0:0:0:0:
256,192,9197,1,0,0:0:0:0:
256,192,10531,1,8,0:0:0:0:
256,192,11197,1,0,0:0:0:0:
256,192,12197,1,0,0:0:0:0:
256,192,13197,1,0,0:0:0:0:
256,192,13864,1,8,0:0:0:0:
256,192,14864,1,8,0:0:0:0:
256,192,15864,1,8,0:0:0:0:
256,192,16531,1,0,0:0:0:0:
256,192,17531,1,0,0:0:0:0:
256,192,18531,1,0,0:0:0:0:
256,192,19197,2,0,L|-32:192,1,280
256,192,21864,5,0,0:0:0:0:
256,192,22864,1,0,0:0:0:0:
256,192,24531,1,8,0:0:0:0:
256,192,25531,1,8,0:0:0:0:
256,192,27197,1,0,0:0:0:0:
256,192,28197,1,8,0:0:0:0:
256,192,29864,1,8,0:0:0:0:
256,192,30864,1,0,0:0:0:0:
256,192,31864,1,8,0:0:0:0:
256,192,32531,1,0,0:0:0:0:
256,192,33197,1,0,0:0:0:0:
256,192,33531,1,0,0:0:0:0:
256,192,34531,1,0,0:0:0:0:
256,192,35197,1,8,0:0:0:0:
256,192,35864,1,8,0:0:0:0:
256,192,36197,1,8,0:0:0:0:
256,192,37197,1,8,0:0:0:0:
256,192,37864,1,0,0:0:0:0:
256,192,38531,1,0,0:0:0:0:
256,192,38864,1,8,0:0:0:0:
256,192,39864,1,0,0:0:0:0:
256,192,40531,1,8,0:0:0:0:
256,192,41197,1,8,0:0:0:0:
256,192,41531,1,0,0:0:0:0:
256,192,42531,1,8,0:0:0:0:
256,192,43197,1,8,0:0:0:0:
256,192,44531,1,8,0:0:0:0:
256,192,45197,1,0,0:0:0:0:
256,192,45864,1,8,0:0:0:0:
256,192,47197,1,0,0:0:0:0:
256,192,47531,1,0,0:0:0:0:
256,192,47864,1,0,0:0:0:0:
256,192,48531,1,8,0:0:0:0:
256,192,49864,1,0,0:0:0:0:
256,192,50531,1,8,0:0:0:0:
256,192,51197,1,0,0:0:0:0:
256,192,52531,1,8,0:0:0:0:
256,192,52864,1,8,0:0:0:0:
256,192,53197,1,8,0:0:0:0:
256,192,53864,1,0,0:0:0:0:
256,192,54531,1,8,0:0:0:0:
256,192,55197,1,8,0:0:0:0:
256,192,55864,1,8,0:0:0:0:
256,192,56531,1,0,0:0:0:0:
256,192,57864,1,8,0:0:0:0:
256,192,58531,1,8,0:0:0:0:
256,192,58864,1,8,0:0:0:0:
256,192,59197,1,0,0:0:0:0:
256,192,60197,1,12,0:0:0:0:
256,192,61197,1,8,0:0:0:0:
256,192,61864,1,0,0:0:0:0:
256,192,63197,1,8,0:0:0:0:
256,192,63697,1,8,0:0:0:0:
256,192,64531,1,0,0:0:0:0:
256,192,65197,1,0,0:0:0:0:
256,192,65864,1,12,0:0:0:0:
256,192,67197,5,0,0:0:0:0:
256,192,67864,1,0,0:0:0:0:
256,192,68197,1,0,0:0:0:0:
256,192,69197,1,0,0:0:0:0:
256,192,69864,1,8,0:0:0:0:
256,192,70531,1,8,0:0:0:0:
256,192,70864,1,8,0:0:0:0:
256,192,71864,1,8,0:0:0:0:
256,192,72531,1,0,0:0:0:0:
256,192,73531,1,0,0:0:0:0:
256,192,73864,1,0,0:0:0:0:
256,192,74197,1,0,0:0:0:0:
256,192,74864,1,8,0:0:0:0:
256,192,75197,1,8,0:0:0:0:
256,192,75864,1,0,0:0:0:0:
256,192,76197,1,0,0:0:0:0:
256,192,77197,1,8,0:0:0:0:
256,192,77864,5,0,0:0:0:0:
256,192,78531,1,0,0:0:0:0:
256,192,78864,1,0,0:0:0:0:
256,192,79864,1,0,0:0:0:0:
256,192,80531,1,8,0:0:0:0:
256,192,81197,1,8,0:0:0:0:
256,192,81531,1,8,0:0:0:0:
256,192,82531,1,8,0:0:0:0:
256,192,83197,1,0,0:0:0:0:
256,192,84197,1,12,0:0:0:0:
256,192,84864,1,0,0:0:0:0:
256,192,85197,1,8,0:0:0:0:
256,192,85864,1,4,0:0:0:0:
256,192,86864,1,12,0:0:0:0:
256,192,87864,1,8,0:0:0:0:
256,192,88531,1,0,0:0:0:0:
256,192,89531,1,0,0:0:0:0:
256,192,90531,1,0,0:0:0:0:
256,192,91197,1,8,0:0:0:0:
256,192,92197,1,8,0:0:0:0:
256,192,93197,1,8,0:0:0:0:
256,192,93864,1,0,0:0:0:0:
256,192,94989,1,0,0:0:0:0:
256,192,96114,1,0,0:0:0:0:
256,192,96864,1,8,0:0:0:0:
256,192,97239,1,8,0:0:0:0:
256,192,97614,1,8,0:0:0:0:
256,192,98364,12,0,100989,0:0:0:0:
256,192,101364,5,8,0:0:0:0:
