osu file format v14

[General]
AudioFilename: Mimpi blang.mp3
AudioLeadIn: 0
PreviewTime: 65864
Countdown: 0
SampleSet: Soft
StackLeniency: 0.7
Mode: 2
LetterboxInBreaks: 0
WidescreenStoryboard: 0

[Editor]
DistanceSpacing: 0.8
BeatDivisor: 4
GridSize: 8
TimelineZoom: 2.2

[Metadata]
Title:Kohaku no Yume
TitleUnicode:虚白ノ夢
Artist:Kanawo
ArtistUnicode:カナヲ
Creator:Surono
Version:Cup
Source:虚白ノ夢
Tags:teriyaki tomato blank dream usui mishiro volta
BeatmapID:893331
BeatmapSetID:411705

[Difficulty]
HPDrainRate:3
CircleSize:3
OverallDifficulty:5.5
ApproachRate:5.5
SliderMultiplier:1.2
SliderTickRate:2

[Events]
//Background and Video events
0,0,"ngeblank.jpg",0,0
//Break Periods
//Storyboard Layer 0 (Background)
//Storyboard Layer 1 (Fail)
//Storyboard Layer 2 (Pass)
//Storyboard Layer 3 (Foreground)
//Storyboard Sound Samples

[TimingPoints]
531,666.666666666667,4,2,1,30,1,0
67197,-100,4,2,1,30,0,1
88531,-100,4,2,1,30,0,0
93864,750,4,2,1,30,1,0

[Colours]
Combo1 : 131,131,131
Combo2 : 255,85,85
Combo3 : 111,175,255
Combo4 : 180,180,180

[HitObjects]
154,192,531,6,0,L|64:192,2,90,2|0|2,0:0|0:0|0:0,0:0:0:0:
256,192,2197,1,2,0:0:0:0:
152,200,2531,1,0,0:0:0:0:
256,192,2864,1,2,0:0:0:0:
396,192,3197,6,0,L|492:192,2,90,2|0|2,0:0|0:0|0:0,0:0:0:0:
288,192,4864,1,2,0:0:0:0:
192,192,5197,1,0,0:0:0:0:
80,192,5531,1,2,0:0:0:0:
224,192,5864,6,0,L|314:192,2,90,2|0|2,0:0|0:0|0:0,0:0:0:0:
96,192,7531,2,0,L|216:192,1,120,2|2,0:0|0:0,0:0:0:0:
352,192,8864,5,2,0:0:0:0:
288,192,9197,1,2,0:0:0:0:
160,192,10197,1,0,0:0:0:0:
288,192,10531,1,8,0:0:0:0:
160,192,11197,6,0,L|40:192,1,120,2|8,0:0|0:0,0:0:0:0:
160,192,12197,1,2,0:0:0:0:
256,192,12864,1,2,0:0:0:0:
352,192,13197,1,8,0:0:0:0:
256,192,13531,1,0,0:0:0:0:
384,192,13864,6,0,L|504:192,1,120,2|8,0:0|0:0,0:0:0:0:
384,192,14864,1,2,0:0:0:0:
288,192,15531,1,2,0:0:0:0:
160,192,15864,1,8,0:0:0:0:
256,192,16197,1,0,0:0:0:0:
160,192,16531,6,0,L|32:192,1,120,2|8,0:0|0:0,0:0:0:0:
160,192,17531,1,2,0:0:0:0:
256,192,18197,1,2,0:0:0:0:
352,192,18531,1,8,0:0:0:0:
256,192,19197,12,2,20531,0:0:0:0:
32,192,21864,6,0,L|224:192,1,180,2|2,0:0|0:0,0:0:0:0:
384,288,24197,1,2,0:0:0:0:
480,192,24531,6,0,L|300:192,1,180,2|2,0:0|0:0,0:0:0:0:
96,192,26864,1,2,0:0:0:0:
192,192,27197,6,0,L|64:64,1,180,2|2,0:0|0:0,0:0:0:0:
240,64,28864,1,2,0:0:0:0:
416,64,29531,1,2,0:0:0:0:
320,160,29864,6,0,L|500:160,1,180,2|2,0:0|0:0,0:0:0:0:
384,192,31531,1,0,0:0:0:0:
256,192,31864,1,8,0:0:0:0:
64,192,32531,6,0,L|160:192,2,90,2|0|2,0:0|0:0|0:0,0:0:0:0:
224,192,34197,1,2,0:0:0:0:
320,192,34531,1,8,0:0:0:0:
160,192,35197,6,0,L|64:192,2,90,2|0|2,0:0|0:0|0:0,0:0:0:0:
288,192,36864,1,0,0:0:0:0:
384,192,37197,1,8,0:0:0:0:
192,192,37864,6,0,L|282:192,2,90,2|0|2,0:0|0:0|0:0,0:0:0:0:
96,192,39531,1,2,0:0:0:0:
176,192,39864,1,8,0:0:0:0:
256,192,40197,1,2,0:0:0:0:
384,192,40531,6,0,L|474:192,2,90,2|2|2,0:0|0:0|0:0,0:0:0:0:
256,192,42197,1,0,0:0:0:0:
160,192,42531,2,0,L|96:192,1,60,8|0,0:0|0:0,0:0:0:0:
224,192,43197,5,6,0:0:0:0:
320,192,43864,1,0,0:0:0:0:
224,192,44531,1,2,0:0:0:0:
128,192,45197,1,0,0:0:0:0:
256,192,45864,1,2,0:0:0:0:
384,192,46864,5,0,0:0:0:0:
480,192,47197,2,0,L|384:96,2,120,2|2|4,0:0|0:0|0:0,0:0:0:0:
384,192,49197,5,0,0:0:0:0:
288,192,49864,1,2,0:0:0:0:
384,192,50530,1,0,0:0:0:0:
224,192,51197,1,2,0:0:0:0:
128,192,52197,5,0,0:0:0:0:
32,192,52531,2,0,L|160:128,2,120,2|8|0,0:0|0:0|0:0,0:0:0:0:
128,192,54531,5,8,0:0:0:0:
256,192,55197,1,2,0:0:0:0:
384,192,55864,1,8,0:0:0:0:
256,192,56531,1,2,0:0:0:0:
384,192,57197,1,8,0:0:0:0:
288,192,57531,1,2,0:0:0:0:
192,192,57864,6,0,L|64:192,2,120,2|8|2,0:0|0:0|0:0,0:0:0:0:
288,192,59864,5,8,0:0:0:0:
416,192,60197,1,6,0:0:0:0:
320,192,60864,1,0,0:0:0:0:
224,192,61197,2,0,L|160:192,2,60,8|0|0,0:0|0:0|0:0,0:0:0:0:
352,192,62531,5,0,0:0:0:0:
256,192,62864,1,2,0:0:0:0:
160,192,63197,1,2,0:0:0:0:
32,192,63697,1,2,0:0:0:0:
160,192,64031,1,2,0:0:0:0:
320,192,64531,2,0,L|448:192,1,120,2|8,0:0|0:0,0:0:0:0:
192,192,65864,1,12,0:0:0:0:
320,192,66531,5,0,0:0:0:0:
224,192,66864,1,8,0:0:0:0:
96,192,67197,2,0,L|192:192,2,90,4|0|4,0:0|0:0|0:0,0:0:0:0:
288,192,68864,1,0,0:0:0:0:
384,192,69197,1,8,0:0:0:0:
496,192,69531,1,0,0:0:0:0:
336,192,69864,6,0,L|240:192,2,90,4|4|4,0:0|0:0|0:0,0:0:0:0:
272,192,71531,1,0,0:0:0:0:
160,192,71864,1,8,0:0:0:0:
64,192,72197,1,0,0:0:0:0:
208,192,72531,6,0,L|336:192,1,120,4|8,0:0|0:0,0:0:0:0:
416,192,73531,1,4,0:0:0:0:
480,192,73864,1,0,0:0:0:0:
256,192,74531,1,8,0:0:0:0:
144,192,74864,1,0,0:0:0:0:
256,192,75197,6,0,L|352:192,2,90,4|4|4,0:0|0:0|0:0,0:0:0:0:
128,192,76864,1,0,0:0:0:0:
224,192,77197,1,8,0:0:0:0:
304,192,77530,1,0,0:0:0:0:
416,192,77864,6,0,L|320:192,2,90,4|0|4,0:0|0:0|0:0,0:0:0:0:
224,192,79530,1,0,0:0:0:0:
112,192,79863,1,8,0:0:0:0:
0,192,80197,1,0,0:0:0:0:
160,192,80531,6,0,L|256:192,2,90,4|4|4,0:0|0:0|0:0,0:0:0:0:
256,192,82197,1,0,0:0:0:0:
352,192,82530,1,8,0:0:0:0:
448,192,82863,1,0,0:0:0:0:
352,192,83197,1,4,0:0:0:0:
152,192,83864,5,8,0:0:0:0:
208,192,84197,2,0,L|336:192,1,120,4|0,0:0|0:0,0:0:0:0:
384,192,85197,1,8,0:0:0:0:
448,192,85531,1,0,0:0:0:0:
320,192,85864,5,12,0:0:0:0:
224,192,86197,1,0,0:0:0:0:
96,192,86531,1,12,0:0:0:0:
224,192,86864,1,12,0:0:0:0:
320,192,87531,5,2,0:0:0:0:
192,192,87865,1,8,0:0:0:0:
352,192,88531,6,0,L|472:192,1,120,2|8,0:0|0:0,0:0:0:0:
352,192,89531,1,2,0:0:0:0:
256,192,90197,1,2,0:0:0:0:
160,192,90531,1,8,0:0:0:0:
256,192,90865,1,0,0:0:0:0:
160,192,91197,6,0,L|40:192,1,120,2|8,0:0|0:0,0:0:0:0:
160,192,92198,1,2,0:0:0:0:
224,192,92865,1,2,0:0:0:0:
352,192,93198,1,8,0:0:0:0:
256,192,93531,1,0,0:0:0:0:
352,192,93864,6,0,L|480:192,1,120,2|8,0:0|0:0,0:0:0:0:
352,192,94989,1,2,0:0:0:0:
256,192,95739,1,2,0:0:0:0:
160,192,96114,1,8,0:0:0:0:
256,192,96864,12,2,101364,0:0:0:0:
