osu file format v14

[General]
AudioFilename: audio.mp3
AudioLeadIn: 0
PreviewTime: 59706
Countdown: 0
SampleSet: None
StackLeniency: 0.2
Mode: 0
LetterboxInBreaks: 0
WidescreenStoryboard: 0

[Editor]
DistanceSpacing: 0.9
BeatDivisor: 3
GridSize: 4
TimelineZoom: 1.4

[Metadata]
Title:Kyousou Kodomo-bushi
TitleUnicode:狂騒こども節
Artist:Kanata.N
ArtistUnicode:かなたん
Creator:Kroytz
Version:MAXIMUM
Source:SOUND VOLTEX IV HEAVENLY HAVEN
Tags:Continuing the Seniors! Second Vocalist Contest Song Winner SDVX Mir Realazy Lanturn
BeatmapID:1460697
BeatmapSetID:690136

[Difficulty]
HPDrainRate:5.5
CircleSize:4.3
OverallDifficulty:8.5
ApproachRate:9.4
SliderMultiplier:2.5
SliderTickRate:1

[Events]
//Background and Video events
0,0,"BG.jpg",0,0
//Break Periods
//Storyboard Layer 0 (Background)
//Storyboard Layer 1 (Fail)
//Storyboard Layer 2 (Pass)
//Storyboard Layer 3 (Foreground)
//Storyboard Sound Samples

[TimingPoints]
616,303.030303030303,4,3,1,70,1,0
616,-125,4,3,1,70,0,0
1828,-100,4,3,1,70,0,0
10818,-66.6666666666667,4,3,1,70,0,0
11222,-100,4,3,1,70,0,0
11828,-117.647058823529,4,3,1,70,0,0
19908,-90.9090909090909,4,3,1,70,0,0
20919,-192.307692307692,4,3,1,70,0,0
21222,-117.647058823529,4,3,1,70,0,0
23949,-90.9090909090909,4,3,1,70,0,0
28191,-333.333333333333,4,3,1,70,0,0
28393,-333.333333333333,4,2,1,5,0,0
28493,-166.666666666667,4,3,1,70,0,0
29605,-66.6666666666667,4,3,1,70,0,0
30919,-100,4,3,1,70,0,0
31525,-333.333333333333,4,3,1,70,0,0
32030,-66.6666666666667,4,3,1,70,0,0
32434,-83.3333333333333,4,3,1,70,0,0
33343,-83.3333333333333,4,3,2,70,0,0
35767,-83.3333333333333,4,3,1,70,0,0
38494,-200,4,3,1,70,0,0
40615,-83.3333333333333,4,3,1,70,0,0
41727,-66.6666666666667,4,3,1,70,0,0
42131,-76.9230769230769,4,3,1,70,0,0
43040,-100,4,3,1,70,0,0
44151,-66.6666666666667,4,3,1,70,0,0
44555,-55.5555555555556,4,3,1,70,0,0
44858,-76.9230769230769,4,3,1,70,0,0
45464,-58.8235294117647,4,3,1,70,0,0
47282,-52.6315789473684,4,3,1,70,0,0
48999,-51.2820512820513,4,3,1,70,0,0
49403,-71.4285714285714,4,3,1,70,0,0
50615,-400,4,3,1,20,0,0
51828,-200,4,3,1,20,0,0
52333,-50,4,3,1,70,0,0
53040,-400,4,3,1,20,0,0
54252,-200,4,3,1,20,0,0
54757,-50,4,3,1,70,0,0
55161,-100,4,3,1,70,0,0
55464,-200,4,3,1,40,0,0
55969,-57.1428571428571,4,3,1,70,0,0
56676,-200,4,3,1,50,0,0
57181,-57.1428571428571,4,3,1,70,0,0
57585,-250,4,3,1,70,0,0
58797,-125,4,3,1,70,0,0
59100,-125,4,3,1,70,0,0
59403,-83.3333333333333,4,3,1,70,0,0
59706,-125,4,3,1,70,0,0
60009,-83.3333333333333,4,3,2,70,0,1
60211,-83.3333333333333,4,3,1,70,0,1
60312,-83.3333333333333,4,3,2,70,0,1
60514,-83.3333333333333,4,3,1,70,0,1
60615,-83.3333333333333,4,3,2,70,0,1
60818,-83.3333333333333,4,3,1,70,0,1
60919,-83.3333333333333,4,3,2,70,0,1
61121,-83.3333333333333,4,3,1,70,0,1
61424,-83.3333333333333,4,3,1,70,0,1
61525,-83.3333333333333,4,3,2,70,0,1
61727,-83.3333333333333,4,3,1,70,0,1
61828,-83.3333333333333,4,3,2,70,0,1
62030,-83.3333333333333,4,3,1,70,0,1
62131,-83.3333333333333,4,3,2,70,0,1
62333,-83.3333333333333,4,3,1,70,0,1
62434,-83.3333333333333,4,3,2,70,0,1
62636,-83.3333333333333,4,3,1,70,0,1
62737,-83.3333333333333,4,3,2,70,0,1
62939,-83.3333333333333,4,3,1,70,0,1
63040,-83.3333333333333,4,3,2,70,0,1
63242,-83.3333333333333,4,3,1,70,0,1
63343,-83.3333333333333,4,3,2,70,0,1
63545,-83.3333333333333,4,3,1,70,0,1
63848,-83.3333333333333,4,3,1,70,0,1
63949,-86.2068965517241,4,3,2,70,0,1
64151,-86.2068965517241,4,3,1,70,0,1
64252,-83.3333333333333,4,3,2,70,0,1
64353,-83.3333333333333,4,3,1,70,0,1
64555,-83.3333333333333,4,3,2,70,0,1
64757,-83.3333333333333,4,3,1,70,0,1
64858,-86.2068965517241,4,3,2,70,0,1
65060,-86.2068965517241,4,3,1,70,0,1
65161,-86.2068965517241,4,3,2,70,0,1
65363,-86.2068965517241,4,3,1,70,0,1
65464,-86.2068965517241,4,3,2,70,0,1
65666,-86.2068965517241,4,3,1,70,0,1
65767,-86.2068965517241,4,3,2,70,0,1
65969,-76.9230769230769,4,3,1,70,0,1
66272,-83.3333333333333,4,3,1,70,0,1
66373,-83.3333333333333,4,3,2,70,0,1
66575,-83.3333333333333,4,3,1,70,0,1
66676,-83.3333333333333,4,3,2,70,0,1
66878,-83.3333333333333,4,3,1,70,0,1
66979,-83.3333333333333,4,3,2,70,0,1
67181,-83.3333333333333,4,3,1,70,0,1
67282,-83.3333333333333,4,3,1,70,0,1
69302,-50,4,3,1,70,0,1
69605,-83.3333333333333,4,3,1,70,0,0
69706,-71.4285714285714,4,3,2,70,0,1
69908,-71.4285714285714,4,3,1,70,0,1
70009,-71.4285714285714,4,3,2,70,0,1
70211,-71.4285714285714,4,3,1,70,0,1
70312,-71.4285714285714,4,3,2,70,0,1
70514,-71.4285714285714,4,3,1,70,0,1
70615,-71.4285714285714,4,3,2,70,0,1
70818,-71.4285714285714,4,3,1,70,0,1
71222,-71.4285714285714,4,3,2,70,0,1
71424,-71.4285714285714,4,3,1,70,0,1
71525,-71.4285714285714,4,3,2,70,0,1
71727,-71.4285714285714,4,3,1,70,0,1
71828,-71.4285714285714,4,3,2,70,0,1
72030,-71.4285714285714,4,3,1,70,0,1
72131,-71.4285714285714,4,3,2,70,0,1
72333,-71.4285714285714,4,3,1,70,0,1
72434,-71.4285714285714,4,3,2,70,0,1
72636,-71.4285714285714,4,3,1,70,0,1
72737,-71.4285714285714,4,3,2,70,0,1
72939,-71.4285714285714,4,3,1,70,0,1
73040,-71.4285714285714,4,3,2,70,0,1
73242,-71.4285714285714,4,3,1,70,0,1
73646,-71.4285714285714,4,3,2,70,0,1
73848,-71.4285714285714,4,3,1,70,0,1
73949,-71.4285714285714,4,3,2,70,0,1
74050,-71.4285714285714,4,3,1,70,0,1
74252,-71.4285714285714,4,3,2,70,0,1
74454,-71.4285714285714,4,3,1,70,0,1
74555,-71.4285714285714,4,3,2,70,0,1
74757,-71.4285714285714,4,3,1,70,0,1
74858,-71.4285714285714,4,3,2,70,0,1
75060,-71.4285714285714,4,3,1,70,0,1
75161,-71.4285714285714,4,3,2,70,0,1
75363,-71.4285714285714,4,3,1,70,0,1
75464,-71.4285714285714,4,3,2,70,0,1
75666,-71.4285714285714,4,3,1,70,0,1
75969,-71.4285714285714,4,3,1,70,0,1
76070,-71.4285714285714,4,3,2,70,0,1
76272,-71.4285714285714,4,3,1,70,0,1
76373,-71.4285714285714,4,3,2,70,0,1
76575,-71.4285714285714,4,3,1,70,0,1
76676,-71.4285714285714,4,3,2,70,0,1
76878,-71.4285714285714,4,3,1,70,0,1
76979,-55.5555555555556,4,3,1,70,0,1
79403,-76.9230769230769,4,3,1,70,0,0
80514,-66.6666666666667,4,3,1,70,0,0
81222,-76.9230769230769,4,3,1,70,0,0
88999,-151.515151515152,4,3,1,70,0,0
90312,-151.515151515152,4,2,1,5,0,0

[Colours]
Combo1 : 137,171,85
Combo2 : 179,60,68
Combo3 : 198,151,109
Combo4 : 64,43,64
Combo5 : 125,87,83

[HitObjects]
260,362,616,6,0,P|240:336|233:304,2,66.6666666666667,4|4|4,0:0|0:0|0:0,0:0:0:0:
399,347,919,2,0,P|408:316|408:283,2,66.6666666666667,8|8|8,0:0|0:0|0:0,0:0:0:0:
313,234,1222,2,0,L|321:300,2,66.6666666666667,4|4|4,0:0|0:0|0:0,0:0:0:0:
296,121,1525,2,0,L|284:37,2,66.6666666666667,8|8|0,0:0|0:0|0:0,0:0:0:0:
152,79,1828,6,0,P|73:57|6:103,1,166.666666666667,4|0,0:2|0:0,0:0:0:0:
25,225,2131,2,0,P|102:245|169:199,1,166.666666666667,10|0,0:2|0:0,0:0:0:0:
88,151,2434,2,0,L|116:329,1,166.666666666667,10|2,0:2|0:2,0:0:0:0:
88,151,2737,1,2,0:2:0:0:
228,298,2939,6,0,B|299:286|299:286|346:303|346:303|389:272|389:272|468:259,2,250,4|2|2,0:2|0:2|0:2,0:0:0:0:
359,381,3646,2,0,L|333:216,1,166.666666666667,10|0,0:2|0:0,0:0:0:0:
304,31,3949,2,0,L|329:195,1,166.666666666667,10|0,0:2|0:0,0:0:0:0:
359,381,4252,5,4,0:2:0:0:
404,143,4555,2,0,B|529:123|529:123|504:154,1,166.666666666667,10|0,0:2|0:0,0:0:0:0:
239,168,4858,2,0,B|113:188|113:188|139:157,1,166.666666666667,10|0,0:2|0:0,0:0:0:0:
304,31,5161,1,2,0:2:0:0:
112,279,5363,6,0,P|25:202|82:102,1,250,6|0,0:2|0:0,0:0:0:0:
209,262,5767,2,0,P|142:311|63:294,1,166.666666666667,10|0,0:2|0:0,0:0:0:0:
239,168,6070,2,0,P|255:248|206:313,1,166.666666666667,2|0,0:2|0:0,0:0:0:0:
43,374,6373,1,10,0:2:0:0:
469,374,6676,5,4,0:2:0:0:
430,213,6878,1,2,0:2:0:0:
354,154,6979,2,0,P|337:234|386:299,1,166.666666666667,10|0,0:2|0:0,0:0:0:0:
506,272,7282,2,0,P|522:191|473:126,1,166.666666666667,10|0,0:2|0:0,0:0:0:0:
391,52,7585,1,2,0:2:0:0:
202,173,7787,6,0,B|308:240|308:240|430:213,2,250,4|2|2,0:2|0:2|0:2,0:0:0:0:
326,144,8494,2,0,L|290:334,1,166.666666666667,8|2,0:2|0:2,0:0:0:0:
280,384,8797,1,8,0:2:0:0:
326,144,8999,1,2,0:2:0:0:
268,57,9100,6,0,P|348:42|415:88,1,166.666666666667,6|0,0:2|0:0,0:0:0:0:
202,173,9403,2,0,P|122:187|55:141,1,166.666666666667,10|0,0:2|0:0,0:0:0:0:
396,16,9706,2,0,P|448:77|441:158,1,166.666666666667,10|0,0:2|0:0,0:0:0:0:
74,214,10009,2,0,P|21:152|28:71,1,166.666666666667,10|0,0:2|0:0,0:0:0:0:
94,0,10312,5,6,0:2:0:0:
94,326,10514,1,2,0:2:0:0:
94,357,10616,1,2,0:2:0:0:
402,243,10818,2,0,P|299:172|364:303,1,375.000014305115,6|0,0:2|0:0,0:0:0:0:
433,316,11222,2,0,L|500:365,2,83.3333333333333,4|4|4,0:0|0:0|0:0,0:0:0:0:
329,239,11525,1,4,0:0:0:0:
487,64,11828,6,0,P|422:39|357:64,1,141.666669368744,10|0,0:2|0:0,0:0:0:0:
264,112,12131,2,0,P|199:137|134:112,1,141.666669368744,2|2,0:2|0:2,0:0:0:0:
39,67,12434,1,8,0:2:0:0:
39,67,12636,6,0,B|53:137|53:137|30:199|30:199|47:277,1,212.500004053116,2|2,0:2|0:2,0:0:0:0:
0,364,13040,2,0,L|138:334,1,141.666669368744,8|2,0:2|0:2,0:0:0:0:
348,290,13343,2,0,L|209:319,1,141.666669368744,2|2,0:2|0:2,0:0:0:0:
0,364,13646,1,8,0:2:0:0:
348,290,13949,5,0,0:2:0:0:
348,290,14151,1,2,0:2:0:0:
431,337,14252,2,0,P|442:268|402:212,1,141.666669368744,10|0,0:2|0:0,0:0:0:0:
273,75,14555,2,0,P|262:143|302:200,1,141.666669368744,2|2,0:2|0:2,0:0:0:0:
302,200,14858,1,8,0:2:0:0:
377,25,15060,6,0,L|168:68,1,212.500004053116,2|2,0:2|0:2,0:0:0:0:
10,183,15464,2,0,L|156:152,1,141.666669368744,10|0,0:2|0:0,0:0:0:0:
440,171,15767,2,0,L|301:199,1,141.666669368744,2|0,0:2|0:0,0:0:0:0:
10,183,16070,1,10,0:2:0:0:
440,171,16373,5,4,0:2:0:0:
440,171,16575,1,2,0:2:0:0:
482,95,16676,2,0,P|522:150|512:219,1,141.666669368744,10|0,0:2|0:0,0:0:0:0:
398,247,16979,2,0,P|357:191|367:122,1,141.666669368744,2|2,0:2|0:2,0:0:0:0:
470,295,17282,1,10,0:2:0:0:
470,295,17484,6,0,P|373:262|294:327,1,212.500004053116,2|2,0:2|0:2,0:0:0:0:
156,375,17888,2,0,P|211:332|197:235,1,141.666669368744,10|2,0:2|0:2,0:0:0:0:
67,185,18191,2,0,P|77:253|134:292,1,141.666669368744,2|2,0:2|0:2,0:0:0:0:
275,203,18494,2,0,P|211:176|149:206,1,141.666669368744,10|2,0:2|0:2,0:0:0:0:
17,344,18797,5,2,0:2:0:0:
14,349,19100,1,10,0:2:0:0:
11,354,19403,1,2,0:2:0:0:
8,359,19605,5,2,0:2:0:0:
5,364,19706,1,8,0:2:0:0:
5,83,19908,6,0,B|94:63|94:63|176:99|176:99|285:76,1,275.000008392334,6|2,0:2|0:2,0:0:0:0:
340,62,20312,1,8,0:2:0:0:
358,305,20514,6,0,L|314:126,1,183.333338928223,6|0,0:2|0:0,0:0:0:0:
288,18,20818,5,2,0:2:0:0:
288,18,20919,2,0,L|308:107,1,86.6666661376953
358,305,21222,1,6,0:2:0:0:
409,223,21525,6,0,P|340:210|281:247,1,141.666669368744,10|0,0:2|0:0,0:0:0:0:
221,314,21828,2,0,P|162:350|93:338,1,141.666669368744,2|2,0:2|0:2,0:0:0:0:
142,256,22131,1,10,0:2:0:0:
104,55,22333,6,0,B|113:106|113:106|142:149|142:149|133:205|133:205|143:259,1,212.500004053116,2|2,0:2|0:2,0:0:0:0:
212,136,22737,2,0,L|73:165,1,141.666669368744,10|0,0:2|0:0,0:0:0:0:
311,91,23040,2,0,L|172:120,1,141.666669368744,2|0,0:2|0:0,0:0:0:0:
410,46,23343,2,0,L|271:75,1,141.666669368744,10|0,0:2|0:0,0:0:0:0:
509,1,23646,1,0,0:0:0:0:
445,300,23949,6,0,P|377:301|436:269,1,183.333338928223,10|0,0:2|0:0,0:0:0:0:
444,138,24252,2,0,P|376:133|433:169,1,183.333338928223,2|2,0:2|0:2,0:0:0:0:
512,220,24555,1,10,0:2:0:0:
312,348,24757,6,0,B|277:281|324:219|324:219|277:157|309:89,1,275.000008392334,2|2,0:2|0:2,0:0:0:0:
213,279,25161,2,0,P|173:299|153:340,2,91.6666694641114,8|0|2,0:2|0:0|0:2,0:0:0:0:
216,157,25464,2,0,P|176:137|156:97,2,91.6666694641114,2|0|2,0:2|0:0|0:2,0:0:0:0:
324,219,25767,1,8,0:2:0:0:
0,219,26070,5,6,0:2:0:0:
0,219,26373,1,8,0:2:0:0:
54,297,26676,6,0,P|95:218|54:140,1,183.333338928223,2|2,0:2|0:2,0:0:0:0:
0,219,26979,1,10,0:2:0:0:
124,344,27181,6,0,P|174:219|123:95,1,275.000008392334,2|2,0:2|0:2,0:0:0:0:
204,23,27585,2,0,P|251:97|340:101,1,183.333338928223,10|2,0:2|0:2,0:0:0:0:
387,214,27888,2,0,P|298:218|251:292,1,183.333338928223,2|2,0:2|0:2,0:0:0:0:
371,344,28191,6,0,L|347:301,1,49.9999984741211,14|0,0:2|0:0,0:0:0:0:
204,23,28494,5,8,1:2:0:0:
37,345,28797,1,8,1:2:0:0:
472,100,29100,1,8,1:2:0:0:
204,23,29302,2,0,L|228:66,1,49.9999984741211,4|4,0:0|0:0,0:0:0:0:
346,300,29605,6,0,B|371:344|371:344|458:292|396:174|294:193|241:257|278:341,1,375.000014305115,4|4,0:2|0:0,0:0:0:0:
454,373,30009,5,8,0:2:0:0:
479,310,30110,1,8,0:2:0:0:
473,241,30211,1,8,0:2:0:0:
436,183,30312,1,8,0:2:0:0:
376,148,30413,1,8,0:2:0:0:
308,144,30514,1,8,0:2:0:0:
245,172,30615,1,8,0:2:0:0:
202,226,30716,1,8,0:2:0:0:
187,293,30817,1,8,0:2:0:0:
204,357,30919,6,0,P|138:307|51:333,1,166.666666666667,14|0,0:2|0:0,0:0:0:0:
21,384,31222,2,0,L|49:217,1,166.666666666667,10|0,0:2|0:0,0:0:0:0:
76,55,31525,1,10,0:2:0:0:
21,384,31727,1,0,0:2:0:0:
392,196,32030,6,0,B|383:166|425:122|425:122|337:178|337:178|235:172|235:172|293:190|301:221,1,375.000014305115,6|0,0:2|0:0,0:0:0:0:
367,291,32434,2,0,L|316:96,1,199.999993896485,10|2,0:2|0:2,0:0:0:0:
168,105,32737,2,0,P|142:198|211:264,1,199.999993896485,2|0,0:2|0:0,0:0:0:0:
492,187,33040,2,0,P|517:95|448:29,1,199.999993896485,10|0,0:2|0:0,0:0:0:0:
367,291,33343,5,2,0:0:0:0:
371,309,33646,1,10,0:0:0:0:
376,327,33949,2,0,L|323:125,1,199.999993896485,2|2,0:0|0:2,0:0:0:0:
303,40,34252,1,10,0:0:0:0:
445,257,34454,1,2,0:2:0:0:
445,257,34555,6,0,P|353:230|282:295,1,199.999993896485,2|2,0:0|0:2,0:0:0:0:
116,338,34858,2,0,P|185:271|163:178,1,199.999993896485,10|2,0:0|0:2,0:0:0:0:
211,12,35161,2,0,P|233:104|325:133,1,199.999993896485,2|2,0:0|0:2,0:0:0:0:
445,257,35464,2,0,P|353:230|282:295,1,199.999993896485,10|2,0:0|0:2,0:0:0:0:
116,338,35767,5,4,0:2:0:0:
116,338,36070,6,0,P|46:320|111:316,1,199.999993896485,10|0,0:2|0:0,0:0:0:0:
115,45,36373,2,0,P|44:37|107:73,1,199.999993896485,10|2,0:2|0:0,0:0:0:0:
478,336,36878,6,0,B|454:247|454:247|472:192|472:192|429:154|429:154|403:57,1,299.999990844727,6|2,0:2|0:2,0:0:0:0:
240,113,37282,2,0,P|285:198|381:216,1,199.999993896485,10|0,0:2|0:0,0:0:0:0:
310,375,37585,2,0,P|307:278|381:216,1,199.999993896485,2|2,0:2|0:2,0:0:0:0:
222,260,37888,2,0,L|18:314,1,199.999993896485,8|2,0:2|0:2,0:0:0:0:
381,216,38191,5,6,0:2:0:0:
74,101,38393,1,2,0:2:0:0:
74,101,38494,6,0,P|67:161|104:210,1,125,8|2,2:0|2:3,0:0:0:0:
159,134,38999,1,0,3:0:0:0:
159,134,39100,2,0,L|246:110,1,83.3333333333333,2|0,2:3|3:0,0:0:0:0:
314,6,39403,5,2,2:3:0:0:
320,30,39504,1,2,2:2:0:0:
326,54,39605,1,2,3:2:0:0:
409,84,39706,5,2,2:3:0:0:
399,120,39807,1,2,2:2:0:0:
389,156,39908,1,2,3:2:0:0:
304,175,40009,5,2,2:3:0:0:
317,230,40110,1,2,2:2:0:0:
331,285,40211,1,2,3:2:0:0:
345,340,40312,1,14,2:2:0:0:
345,340,40615,6,0,B|284:303|284:303|139:345,1,199.999993896485,6|2,0:2|0:2,0:0:0:0:
0,252,40919,2,0,B|61:289|61:289|206:247,1,199.999993896485,10|2,0:2|0:2,0:0:0:0:
449,178,41222,1,10,0:2:0:0:
0,60,41424,1,2,0:0:0:0:
449,178,41727,6,0,B|499:198|531:145|519:91|457:68|386:116|386:116|315:164|247:116,1,375.000014305115,6|0,0:2|0:0,0:0:0:0:
150,105,42131,2,0,P|212:22|315:35,1,216.666656748454,10|2,0:2|0:2,0:0:0:0:
134,208,42434,2,0,P|51:146|64:43,1,216.666656748454,2|2,0:2|0:2,0:0:0:0:
237,224,42737,2,0,P|175:307|72:294,1,216.666656748454,10|0,0:2|0:0,0:0:0:0:
253,120,43040,5,12,0:2:0:0:
457,278,43242,5,0,0:0:0:0:
457,278,43343,2,0,L|476:360,1,83.3333333333333,8|0,0:2|0:0,0:0:0:0:
365,166,43545,5,4,0:0:0:0:
365,166,43646,2,0,L|346:247,1,83.3333333333333,4|4,0:0|0:0,0:0:0:0:
454,34,43848,5,8,0:0:0:0:
454,34,43949,2,0,L|472:115,1,83.3333333333333,8|8,0:0|0:0,0:0:0:0:
249,339,44151,6,0,P|163:227|171:368,1,375.000014305115,6|2,0:2|0:2,0:0:0:0:
189,297,44555,6,0,B|159:231|159:231|99:183|99:183|104:106|104:106|74:39,1,299.999990844727,10|2,0:2|0:2,0:0:0:0:
0,227,44858,6,0,L|244:117,1,216.666656748454,2|2,0:2|0:2,0:0:0:0:
454,34,45161,1,6,0:2:0:0:
453,243,45363,5,0,0:2:0:0:
453,243,45464,2,0,B|356:243|356:243|286:297|286:297|185:297,1,283.333338737488,6|0,1:2|0:0,0:0:0:0:
512,305,45767,2,0,P|538:241|511:178,1,141.666669368744,10|0,0:2|0:0,0:0:0:0:
269,101,45969,2,0,P|118:138|269:175,1,425.000008106232,6|2,0:2|0:2,0:0:0:0:
101,15,46373,6,0,P|40:137|102:259,1,283.333338737488,6|0,1:2|0:0,0:0:0:0:
453,243,46676,2,0,B|287:243,1,141.666669368744,2|0,0:2|0:0,0:0:0:0:
56,352,46878,2,0,B|180:352|180:352|256:308|256:308|332:352|332:352|464:352,1,425.000008106232,6|2,0:2|0:2,0:0:0:0:
448,36,47282,6,0,B|405:-6|405:-6|343:55|343:55|405:118|405:118|473:50,1,316.666658210755,2|2,1:2|0:2,0:0:0:0:
64,36,47585,2,0,B|106:-6|106:-6|168:55|168:55|106:118|106:118|38:50,1,316.666658210755,6|2,0:2|0:2,0:0:0:0:
457,352,47888,6,0,B|509:347|509:347|367:190|367:190|355:254,1,316.666658210755,0|0,1:0|0:0,0:0:0:0:
56,352,48191,2,0,B|3:347|3:347|145:190|145:190|157:254,1,316.666658210755,6|0,0:2|0:0,0:0:0:0:
256,384,48494,5,2,1:2:0:0:
256,4,48696,1,2,1:2:0:0:
256,384,48999,6,0,B|217:286|295:195|295:195|216:195|216:195|297:86|251:-8,1,487.500001859665,6|2,0:2|0:2,0:0:0:0:
76,60,49403,5,8,0:2:0:0:
76,60,49504,2,0,P|110:105|166:118,1,116.666663106283,4|4,0:0|0:0,0:0:0:0:
436,60,49706,5,0,0:0:0:0:
436,60,49807,2,0,P|401:105|345:118,1,116.666663106283,4|4,0:0|0:0,0:0:0:0:
256,384,50009,5,8,0:2:0:0:
256,384,50110,2,0,L|256:252,1,116.666663106283,4|4,0:0|0:0,0:0:0:0:
256,4,50312,5,4,1:2:0:0:
476,348,50615,5,2,2:3:0:0:
443,239,50818,2,0,L|461:221,1,20.8333333333333,0|2,2:0|2:3,2:0:0:0:
366,323,51121,2,0,L|348:341,1,20.8333333333333,0|2,2:0|2:3,2:0:0:0:
476,348,51424,5,0,2:0:0:0:
333,214,51525,1,2,2:3:0:0:
36,348,51727,5,0,2:0:0:0:
36,348,51828,2,0,L|150:296,1,125,2|2,2:3|2:3,2:0:0:0:
365,99,52333,6,0,P|175:108|333:213,1,500,4|0,1:2|2:0,2:0:0:0:
272,135,52737,1,4,0:2:0:0:
476,348,53040,5,2,2:3:0:0:
476,348,53141,2,0,L|498:368,1,20.8333333333333,0|0,2:0|2:0,2:0:0:0:
443,239,53343,5,2,2:3:0:0:
443,239,53444,2,0,L|461:221,1,20.8333333333333,0|0,2:0|2:0,2:0:0:0:
366,323,53646,5,2,2:3:0:0:
366,323,53747,2,0,L|348:341,1,20.8333333333333,0|0,2:0|2:0,2:0:0:0:
476,348,53949,5,2,2:3:0:0:
296,183,54100,1,0,2:0:0:0:
296,183,54252,6,0,L|212:107,1,83.3333333333333,2|0,2:3|2:0,2:0:0:0:
172,71,54555,1,2,2:3:0:0:
47,312,54757,6,0,B|111:370|239:320|235:179|123:109|32:183|32:183|122:263,1,500,4|0,1:2|2:0,2:0:0:0:
256,384,55161,1,4,0:2:0:0:
506,239,55464,6,0,P|517:278|507:318,1,83.3333333333333,2|0,2:3|2:0,2:0:0:0:
460,384,55767,1,2,2:3:0:0:
172,71,55969,6,0,B|329:-7|329:173|505:59|505:59|451:80|399:62,1,437.500004172325,4|0,1:2|2:0,2:0:0:0:
244,164,56373,1,4,0:2:0:0:
6,239,56676,6,0,P|-5:278|5:318,1,83.3333333333333,2|0,2:3|2:0,2:0:0:0:
52,384,56979,1,2,2:3:0:0:
435,333,57181,6,0,B|485:382|571:341|576:265|528:199|456:191|365:225|300:303,1,437.500004172325,4|0,1:2|0:0,2:0:0:0:
52,384,57585,6,0,B|197:373|213:253|213:253|181:333|95:323,1,366.666666666667,12|0,0:2|0:0,0:0:0:0:
119,227,58797,6,0,L|78:157,1,66.6666666666667,8|4,0:2|0:0,0:0:0:0:
42,100,58999,1,4,0:0:0:0:
224,70,59100,6,0,P|255:78|288:71,1,66.6666666666667,8|4,0:2|0:0,0:0:0:0:
256,0,59302,1,4,0:0:0:0:
256,192,59403,6,0,L|256:300,1,99.9999969482423,8|4,0:2|0:0,0:0:0:0:
256,384,59605,1,4,0:0:0:0:
393,227,59706,6,0,L|434:157,1,66.6666666666667,8|4,0:2|0:0,0:0:0:0:
470,100,59908,1,4,0:0:0:0:
511,337,60009,6,0,P|423:296|336:338,1,199.999993896485,6|2,0:2|0:2,0:0:0:0:
80,291,60312,2,0,P|168:332|256:291,1,199.999993896485,10|0,0:2|0:0,0:0:0:0:
145,110,60615,2,0,B|95:93|95:93|168:220,1,199.999993896485,2|2,0:2|0:2,0:0:0:0:
168,220,60919,1,10,0:2:0:0:
470,100,61121,6,0,B|510:64|510:64|318:64|318:64|363:23,1,299.999990844727,0|2,0:2|0:2,0:0:0:0:
263,138,61525,2,0,B|409:138|409:138|369:173,1,199.999993896485,10|0,0:2|0:0,0:0:0:0:
168,220,61828,2,0,B|95:93|95:93|145:110,1,199.999993896485,2|2,0:2|0:2,0:0:0:0:
287,262,62131,2,0,B|213:388|213:388|203:336,1,199.999993896485,8|0,0:2|0:0,0:0:0:0:
6,257,62434,6,0,P|76:192|168:220,1,199.999993896485,2|2,0:2|0:2,0:0:0:0:
448,224,62737,2,0,P|378:289|286:261,1,199.999993896485,10|0,0:2|0:0,0:0:0:0:
311,1,63040,2,0,L|357:195,1,199.999993896485,2|2,0:2|0:2,0:0:0:0:
404,383,63343,1,10,0:2:0:0:
475,85,63545,6,0,B|366:112|366:112|292:81|292:81|187:107,1,299.999990844727,0|2,0:0|0:2,0:0:0:0:
404,383,63949,2,0,L|357:195,1,193.333339233399,8|2,0:2|0:2,0:0:0:0:
97,73,64252,2,0,L|120:170,1,99.9999969482423,10|2,0:2|0:2,0:0:0:0:
167,358,64454,1,2,0:2:0:0:
236,288,64555,2,0,P|143:262|74:327,1,199.999993896485,8|0,0:2|0:0,0:0:0:0:
404,383,64858,6,0,L|451:195,1,193.333339233399,6|2,0:2|0:2,0:0:0:0:
236,288,65161,2,0,L|283:100,1,193.333339233399,10|0,0:2|0:0,0:0:0:0:
423,374,65464,2,0,L|470:186,1,193.333339233399,2|2,0:2|0:2,0:0:0:0:
255,279,65767,1,10,0:2:0:0:
311,1,65969,6,0,B|206:32|206:32|138:237,1,324.999985122681,0|2,0:2|0:2,0:0:0:0:
365,70,66373,2,0,B|269:99|269:99|237:193,1,199.999993896485,10|2,0:2|0:2,0:0:0:0:
398,352,66676,2,0,B|420:254|420:254|355:179,1,199.999993896485,10|2,0:2|0:2,0:0:0:0:
138,237,66979,2,0,B|211:305|211:305|308:286,1,199.999993896485,10|0,0:2|0:0,0:0:0:0:
499,30,67282,5,14,0:2:0:0:
503,20,67585,1,10,0:2:0:0:
507,10,67888,1,10,0:2:0:0:
511,1,68191,1,10,0:2:0:0:
227,199,68494,6,0,L|434:243,1,199.999993896485,10|2,0:2|0:2,0:0:0:0:
422,240,68797,1,8,0:2:0:0:
160,270,68999,2,0,P|133:177|195:105,1,199.999993896485,6|2,0:2|0:2,0:0:0:0:
162,367,69302,6,0,P|54:162|234:18,1,500,8|8,0:2|0:2,0:0:0:0:
511,27,69706,6,0,P|447:118|338:102,1,233.333326212565,6|2,0:2|0:2,0:0:0:0:
337,280,70009,2,0,P|447:264|507:357,1,233.333326212565,10|0,0:2|0:0,0:0:0:0:
162,367,70312,2,0,L|218:87,1,233.333326212565,2|2,0:2|0:2,0:0:0:0:
232,18,70615,1,10,0:2:0:0:
92,177,70818,6,0,B|39:203|39:203|266:251|266:251|215:281,1,349.999989318848,0|2,0:0|0:2,0:0:0:0:
7,316,71222,2,0,B|-28:268|-28:268|142:301,1,233.333326212565,10|0,0:2|0:0,0:0:0:0:
358,384,71525,2,0,B|389:237|389:237|497:182,1,233.333326212565,2|2,0:2|0:2,0:0:0:0:
427,0,71828,2,0,B|395:146|395:146|287:201,1,233.333326212565,10|0,0:2|0:0,0:0:0:0:
60,88,72131,6,0,P|42:5|92:73,1,233.333326212565,2|2,0:2|0:2,0:0:0:0:
6,154,72434,2,0,P|117:155|178:61,1,233.333326212565,10|0,0:2|0:0,0:0:0:0:
464,199,72737,2,0,P|352:197|291:291,1,233.333326212565,2|2,0:2|0:2,0:0:0:0:
405,297,73040,1,10,0:2:0:0:
482,123,73242,6,0,P|313:131|218:271,1,349.999989318848,0|2,0:0|0:2,0:0:0:0:
52,384,73646,2,0,P|134:310|103:204,1,233.333326212565,10|2,0:2|0:2,0:0:0:0:
60,8,73949,2,0,P|54:64|89:110,1,116.666663106283,10|2,0:2|0:2,0:0:0:0:
299,111,74151,1,2,0:2:0:0:
384,27,74252,2,0,B|265:20|265:20|182:99,1,233.333326212565,10|0,0:2|0:0,0:0:0:0:
380,330,74555,6,0,L|299:110,1,233.333326212565,6|2,0:2|0:2,0:0:0:0:
512,384,74858,2,0,L|431:164,1,233.333326212565,10|0,0:2|0:0,0:0:0:0:
167,56,75161,2,0,L|248:276,1,233.333326212565,2|2,0:2|0:2,0:0:0:0:
512,384,75464,1,10,0:2:0:0:
288,224,75666,6,0,P|184:301|312:285,1,349.999989318848,0|2,0:0|0:2,0:0:0:0:
28,356,76070,2,0,L|248:276,1,233.333326212565,10|2,0:2|0:2,0:0:0:0:
512,221,76373,2,0,L|292:140,1,233.333326212565,2|2,0:2|0:2,0:0:0:0:
29,85,76676,2,0,L|248:4,1,233.333326212565,10|2,0:2|0:2,0:0:0:0:
472,84,76979,6,0,B|513:68|513:68|485:-6|485:-6|407:22|407:22|434:97|434:97|479:81,1,299.999990844727,14|2,0:2|0:2,0:0:0:0:
440,332,77282,2,0,B|408:244|408:244|421:188|421:188|375:154|375:154|344:68,1,299.999990844727,10|2,0:2|0:2,0:0:0:0:
48,328,77585,2,0,L|398:199,1,299.999990844727,10|2,0:2|0:2,0:0:0:0:
506,154,77888,2,0,L|155:282,1,299.999990844727,10|0,0:2|0:0,0:0:0:0:
48,328,78191,5,4,0:0:0:0:
506,154,78393,1,4,0:0:0:0:
506,154,78494,1,4,0:0:0:0:
0,119,78696,6,0,B|-9:202|-9:202|98:108|98:108|238:106|238:106|174:54,1,449.99998626709,6|4,0:2|0:0,0:0:0:0:
62,17,79100,1,4,0:0:0:0:
98,108,79201,1,4,0:0:0:0:
135,202,79302,1,4,0:0:0:0:
171,294,79403,1,4,0:2:0:0:
171,294,79706,6,0,B|23:349|23:349|80:362,1,216.666656748454,10|0,0:2|0:0,0:0:0:0:
353,310,80009,2,0,B|410:323|410:323|262:378,1,216.666656748454,10|0,0:2|0:0,0:0:0:0:
171,294,80312,1,2,0:2:0:0:
398,65,80514,6,0,P|406:205|320:93,2,375.000014305115,4|2|2,0:2|0:2|0:2,0:0:0:0:
247,78,81222,2,0,P|242:183|312:263,1,216.666656748454,10|0,0:2|0:2,0:0:0:0:
512,191,81525,2,0,P|514:85|441:6,1,216.666656748454,10|0,0:2|0:2,0:0:0:0:
381,137,81828,5,4,0:2:0:0:
381,137,82131,2,0,L|455:340,1,216.666656748454,10|0,0:2|0:0,0:0:0:0:
331,0,82434,2,0,L|405:203,1,216.666656748454,10|0,0:2|0:0,0:0:0:0:
455,340,82737,1,2,0:2:0:0:
125,274,82939,6,0,P|-7:209|51:75,1,324.999985122681,6|2,0:2|0:2,0:0:0:0:
206,228,83343,2,0,P|137:306|34:292,1,216.666656748454,8|2,0:2|0:2,0:0:0:0:
199,132,83646,2,0,P|232:230|168:312,1,216.666656748454,8|2,0:2|0:2,0:0:0:0:
24,373,83949,1,8,0:2:0:0:
488,373,84252,5,4,0:2:0:0:
419,187,84454,1,0,0:0:0:0:
325,122,84555,2,0,P|313:225|389:297,1,216.666656748454,10|0,0:2|0:0,0:0:0:0:
512,252,84858,2,0,P|524:148|449:76,1,216.666656748454,10|0,0:2|0:0,0:0:0:0:
350,1,85161,1,2,0:2:0:0:
125,293,85363,6,0,B|231:255|231:255|280:262|280:262|313:225|313:225|419:187,2,324.999985122681,6|2|2,0:2|0:2|0:2,0:0:0:0:
27,328,86070,2,0,L|231:255,1,216.666656748454,8|2,0:2|0:2,0:0:0:0:
419,187,86373,1,8,0:2:0:0:
27,328,86575,1,2,0:2:0:0:
217,363,86676,6,0,B|231:255|231:255|151:182,1,216.666656748454,12|2,0:2|0:2,0:0:0:0:
6,31,86979,2,0,B|91:97|91:97|195:64,1,216.666656748454,8|2,0:2|0:2,0:0:0:0:
397,14,87282,2,0,B|296:54|296:54|273:160,1,216.666656748454,8|2,0:2|0:2,0:0:0:0:
216,362,87585,5,8,0:2:0:0:
6,31,87787,1,2,0:2:0:0:
429,372,87989,5,4,0:0:0:0:
501,306,88090,1,4,0:0:0:0:
462,216,88191,1,4,0:0:0:0:
366,223,88292,1,4,0:0:0:0:
341,320,88393,1,4,0:0:0:0:
429,372,88494,6,0,L|408:156,1,216.666656748454,10|2,0:2|0:2,0:0:0:0:
396,14,88797,1,8,0:2:0:0:
40,248,88999,6,0,B|16:317|80:386|168:383|237:298|162:185|162:185|97:84|139:16|221:-10|322:29|282:153,1,714.999997817993,6|0,0:2|0:0,2:0:0:0:
