osu file format v14

[General]
AudioFilename: audio.mp3
AudioLeadIn: 0
PreviewTime: 52863
Countdown: 0
SampleSet: Normal
StackLeniency: 0.7
Mode: 1
LetterboxInBreaks: 0
WidescreenStoryboard: 0

[Editor]
DistanceSpacing: 1
BeatDivisor: 6
GridSize: 32
TimelineZoom: 1.4

[Metadata]
Title:Rendezvous (TV Size)
TitleUnicode:大脳的なランデブー (TV Size)
Artist:Kanaria
ArtistUnicode:Kanaria
Creator:aceticke
Version:PUNISHMENT DEVIL
Source:チェンソーマン
Tags:tsukani cryceptio krytwal toofu chainsaw man chainsawman csm japanese anime rock j-rock jrock pop j-pop jpop ending ed 6 ed6 mappa dainou teki na rendezvous tekina randebu- randebuu cerebral rendezvous tv edit short ver version
BeatmapID:3885039
BeatmapSetID:1886647

[Difficulty]
HPDrainRate:5.5
CircleSize:2
OverallDifficulty:5.5
ApproachRate:10
SliderMultiplier:1.4
SliderTickRate:1

[Events]
//Background and Video events
0,0,"100769100_p0.jpg",0,100
Video,-550,"output.mp4"
//Break Periods
//Storyboard Layer 0 (Background)
//Storyboard Layer 1 (Fail)
//Storyboard Layer 2 (Pass)
//Storyboard Layer 3 (Foreground)
//Storyboard Layer 4 (Overlay)
//Storyboard Sound Samples

[TimingPoints]
5896,491.803278688525,4,1,0,80,1,0
5896,-66.6666666666667,4,1,0,80,0,0
6141,-90.9090909090909,4,1,0,80,0,0
13764,-66.6666666666667,4,1,0,80,0,0
14010,-90.9090909090909,4,1,0,80,0,0
21633,-66.6666666666667,4,1,0,80,0,0
21797,-100,4,1,0,80,0,0
37371,-66.6666666666667,4,1,0,80,0,0
37863,-95.2380952380952,4,1,0,80,0,0
45240,-66.6666666666667,4,1,0,80,0,0
45732,-95.2380952380952,4,1,0,80,0,0
53109,-66.6666666666667,4,1,0,80,0,1
53355,-83.3333333333333,4,1,0,80,0,1
60977,-66.6666666666667,4,1,0,80,0,1
61223,-83.3333333333333,4,1,0,80,0,1
68846,-66.6666666666667,4,1,0,80,0,0
69092,-90.9090909090909,4,1,0,80,0,0
76715,-66.6666666666667,4,1,0,80,0,0
76961,-90.9090909090909,4,1,0,80,0,0
84584,-66.6666666666667,4,1,0,80,0,0
84830,-100,4,1,0,80,0,0
85322,-100,4,1,0,70,0,0
85814,-100,4,1,0,60,0,0
86305,-100,4,1,0,50,0,0
86797,-100,4,1,0,40,0,0
87289,-100,4,1,0,30,0,0
87781,-100,4,1,0,20,0,0

[HitObjects]
256,192,3928,5,0,0:0:0:0:
256,192,4174,1,8,0:0:0:0:
256,192,4420,1,0,0:0:0:0:
256,192,4666,1,8,0:0:0:0:
256,192,4830,1,0,0:0:0:0:
256,192,5076,1,0,0:0:0:0:
256,192,5322,1,8,0:0:0:0:
256,192,5404,1,0,0:0:0:0:
256,192,5896,1,4,0:0:0:0:
256,192,6141,1,0,0:0:0:0:
256,192,6387,1,8,0:0:0:0:
256,192,6879,1,0,0:0:0:0:
256,192,7043,1,8,0:0:0:0:
256,192,7125,1,0,0:0:0:0:
256,192,7289,1,0,0:0:0:0:
256,192,7371,1,8,0:0:0:0:
256,192,7863,1,0,0:0:0:0:
256,192,8109,1,0,0:0:0:0:
256,192,8273,1,8,0:0:0:0:
256,192,8518,1,8,0:0:0:0:
256,192,8600,1,0,0:0:0:0:
256,192,8764,1,0,0:0:0:0:
256,192,9010,1,0,0:0:0:0:
256,192,9092,1,8,0:0:0:0:
256,192,9338,1,8,0:0:0:0:
256,192,9584,1,0,0:0:0:0:
256,192,9830,1,8,0:0:0:0:
256,192,10076,1,0,0:0:0:0:
256,192,10322,1,8,0:0:0:0:
256,192,10814,1,0,0:0:0:0:
256,192,10977,1,8,0:0:0:0:
256,192,11059,1,0,0:0:0:0:
256,192,11223,1,0,0:0:0:0:
256,192,11305,1,0,0:0:0:0:
256,192,11797,1,0,0:0:0:0:
256,192,12043,1,0,0:0:0:0:
256,192,12207,1,8,0:0:0:0:
256,192,12453,1,8,0:0:0:0:
256,192,12535,1,8,0:0:0:0:
256,192,12699,1,0,0:0:0:0:
256,192,12945,1,0,0:0:0:0:
256,192,13027,1,8,0:0:0:0:
256,192,13273,1,8,0:0:0:0:
256,192,13518,1,0,0:0:0:0:
256,192,13764,1,12,0:0:0:0:
256,192,14010,1,0,0:0:0:0:
256,192,14256,1,8,0:0:0:0:
256,192,14748,1,0,0:0:0:0:
256,192,14912,1,8,0:0:0:0:
256,192,14994,1,8,0:0:0:0:
256,192,15158,1,0,0:0:0:0:
256,192,15240,1,0,0:0:0:0:
256,192,15732,1,0,0:0:0:0:
256,192,15977,1,0,0:0:0:0:
256,192,16141,1,8,0:0:0:0:
256,192,16387,1,0,0:0:0:0:
256,192,16469,1,8,0:0:0:0:
256,192,16633,1,0,0:0:0:0:
256,192,16879,1,8,0:0:0:0:
256,192,16961,1,8,0:0:0:0:
256,192,17207,1,0,0:0:0:0:
256,192,17453,1,8,0:0:0:0:
256,192,17699,1,0,0:0:0:0:
256,192,17945,1,0,0:0:0:0:
256,192,18191,1,8,0:0:0:0:
256,192,18682,1,8,0:0:0:0:
256,192,18846,1,8,0:0:0:0:
256,192,18928,1,0,0:0:0:0:
256,192,19092,1,0,0:0:0:0:
256,192,19174,1,8,0:0:0:0:
256,192,19666,1,0,0:0:0:0:
256,192,19912,1,0,0:0:0:0:
256,192,20076,1,8,0:0:0:0:
256,192,20322,1,8,0:0:0:0:
256,192,20404,1,0,0:0:0:0:
256,192,20568,1,0,0:0:0:0:
256,192,20814,1,8,0:0:0:0:
256,192,20896,1,8,0:0:0:0:
256,192,21141,1,0,0:0:0:0:
256,192,21387,1,8,0:0:0:0:
256,192,21633,1,4,0:0:0:0:
256,192,21797,1,0,0:0:0:0:
256,192,21879,1,8,0:0:0:0:
256,192,22125,1,8,0:0:0:0:
256,192,22371,1,0,0:0:0:0:
256,192,22617,1,8,0:0:0:0:
256,192,22863,1,0,0:0:0:0:
256,192,23027,1,0,0:0:0:0:
256,192,23109,1,8,0:0:0:0:
256,192,23273,1,0,0:0:0:0:
256,192,23518,1,8,0:0:0:0:
256,192,23600,1,0,0:0:0:0:
256,192,23764,1,8,0:0:0:0:
256,192,23846,1,8,0:0:0:0:
256,192,24010,1,0,0:0:0:0:
256,192,24092,1,8,0:0:0:0:
256,192,24338,1,0,0:0:0:0:
256,192,24584,1,8,0:0:0:0:
256,192,24830,1,0,0:0:0:0:
256,192,25076,1,8,0:0:0:0:
256,192,25240,1,0,0:0:0:0:
256,192,25322,1,0,0:0:0:0:
256,192,25486,1,0,0:0:0:0:
256,192,25568,1,8,0:0:0:0:
256,192,25732,1,0,0:0:0:0:
256,192,25814,1,8,0:0:0:0:
256,192,26059,1,0,0:0:0:0:
256,192,26305,1,8,0:0:0:0:
256,192,26551,1,8,0:0:0:0:
256,192,26797,1,0,0:0:0:0:
256,192,26961,1,8,0:0:0:0:
256,192,27207,1,8,0:0:0:0:
256,192,27289,1,0,0:0:0:0:
256,192,27453,1,0,0:0:0:0:
256,192,27535,1,8,0:0:0:0:
256,192,27781,1,8,0:0:0:0:
256,192,28027,1,8,0:0:0:0:
256,192,28191,1,0,0:0:0:0:
256,192,28273,1,0,0:0:0:0:
256,192,28436,1,8,0:0:0:0:
256,192,28518,1,0,0:0:0:0:
256,192,28764,1,8,0:0:0:0:
256,192,29010,1,8,0:0:0:0:
256,192,29256,1,0,0:0:0:0:
256,192,29502,1,0,0:0:0:0:
256,192,29666,1,8,0:0:0:0:
256,192,29748,1,8,0:0:0:0:
256,192,29994,1,0,0:0:0:0:
256,192,30240,1,8,0:0:0:0:
256,192,30486,1,8,0:0:0:0:
256,192,30732,1,8,0:0:0:0:
256,192,30896,1,0,0:0:0:0:
256,192,31141,1,8,0:0:0:0:
256,192,31387,1,0,0:0:0:0:
256,192,31469,1,0,0:0:0:0:
256,192,31633,1,8,0:0:0:0:
256,192,31715,1,0,0:0:0:0:
256,192,31879,1,8,0:0:0:0:
256,192,31961,1,8,0:0:0:0:
256,192,32207,1,0,0:0:0:0:
256,192,32453,1,8,0:0:0:0:
256,192,32699,1,0,0:0:0:0:
256,192,32945,1,0,0:0:0:0:
256,192,33191,1,8,0:0:0:0:
256,192,33436,1,0,0:0:0:0:
256,192,33682,1,0,0:0:0:0:
256,192,33928,1,8,0:0:0:0:
256,192,34092,1,0,0:0:0:0:
256,192,34338,1,8,0:0:0:0:
256,192,34420,1,0,0:0:0:0:
256,192,34584,1,0,0:0:0:0:
256,192,34666,1,8,0:0:0:0:
256,192,34830,1,8,0:0:0:0:
256,192,34912,1,8,0:0:0:0:
256,192,35076,1,0,0:0:0:0:
256,192,35158,1,0,0:0:0:0:
256,192,35322,1,0,0:0:0:0:
256,192,35404,1,8,0:0:0:0:
256,192,35650,1,0,0:0:0:0:
256,192,35896,1,8,0:0:0:0:
256,192,36059,1,0,0:0:0:0:
256,192,36387,1,8,0:0:0:0:
256,192,36633,1,0,0:0:0:0:
256,192,36879,1,8,0:0:0:0:
256,192,37125,1,0,0:0:0:0:
256,192,37371,1,12,0:0:0:0:
256,192,37863,1,0,0:0:0:0:
256,192,38027,1,8,0:0:0:0:
256,192,38109,1,0,0:0:0:0:
256,192,38273,1,8,0:0:0:0:
256,192,38518,1,0,0:0:0:0:
256,192,38600,1,8,0:0:0:0:
256,192,38846,1,0,0:0:0:0:
256,192,39092,1,8,0:0:0:0:
256,192,39256,1,8,0:0:0:0:
256,192,39338,1,0,0:0:0:0:
256,192,39830,1,0,0:0:0:0:
256,192,39994,1,8,0:0:0:0:
256,192,40240,1,0,0:0:0:0:
256,192,40568,1,8,0:0:0:0:
256,192,40814,1,8,0:0:0:0:
256,192,41059,1,8,0:0:0:0:
256,192,41223,1,8,0:0:0:0:
256,192,41305,1,0,0:0:0:0:
256,192,41715,1,0,0:0:0:0:
256,192,41797,1,8,0:0:0:0:
256,192,41961,1,8,0:0:0:0:
256,192,42207,1,0,0:0:0:0:
256,192,42535,1,0,0:0:0:0:
256,192,42781,1,8,0:0:0:0:
256,192,43027,1,8,0:0:0:0:
256,192,43273,1,0,0:0:0:0:
256,192,43682,1,8,0:0:0:0:
256,192,43764,1,0,0:0:0:0:
256,192,44010,1,0,0:0:0:0:
256,192,44174,1,0,0:0:0:0:
256,192,44256,1,8,0:0:0:0:
256,192,44502,1,0,0:0:0:0:
256,192,44748,1,8,0:0:0:0:
256,192,44912,1,0,0:0:0:0:
256,192,44994,1,0,0:0:0:0:
256,192,45240,1,12,0:0:0:0:
256,192,45732,1,0,0:0:0:0:
256,192,45896,1,0,0:0:0:0:
256,192,45977,1,8,0:0:0:0:
256,192,46141,1,8,0:0:0:0:
256,192,46469,1,0,0:0:0:0:
256,192,46715,1,8,0:0:0:0:
256,192,46961,1,8,0:0:0:0:
256,192,47125,1,0,0:0:0:0:
256,192,47207,1,8,0:0:0:0:
256,192,47699,1,0,0:0:0:0:
256,192,47863,1,8,0:0:0:0:
256,192,47945,1,0,0:0:0:0:
256,192,48109,1,8,0:0:0:0:
256,192,48436,1,0,0:0:0:0:
256,192,48682,1,8,0:0:0:0:
256,192,48928,1,8,0:0:0:0:
256,192,49092,1,0,0:0:0:0:
256,192,49174,1,0,0:0:0:0:
256,192,49584,1,0,0:0:0:0:
256,192,49666,1,8,0:0:0:0:
256,192,49830,1,0,0:0:0:0:
256,192,50076,1,8,0:0:0:0:
256,192,50404,1,0,0:0:0:0:
256,192,50650,1,8,0:0:0:0:
256,192,50896,1,8,0:0:0:0:
256,192,51059,1,0,0:0:0:0:
256,192,51141,1,8,0:0:0:0:
256,192,51305,1,0,0:0:0:0:
256,192,51633,1,8,0:0:0:0:
256,192,52043,1,0,0:0:0:0:
256,192,52289,1,0,0:0:0:0:
256,192,52371,1,8,0:0:0:0:
256,192,52617,1,8,0:0:0:0:
256,192,53109,1,4,0:0:0:0:
256,192,53355,1,8,0:0:0:0:
256,192,53600,1,8,0:0:0:0:
256,192,53764,1,0,0:0:0:0:
256,192,53846,1,8,0:0:0:0:
256,192,54010,1,0,0:0:0:0:
256,192,54256,1,8,0:0:0:0:
256,192,54338,1,0,0:0:0:0:
256,192,54420,1,0,0:0:0:0:
256,192,54502,1,0,0:0:0:0:
256,192,54584,1,8,0:0:0:0:
256,192,54748,1,0,0:0:0:0:
256,192,54830,1,0,0:0:0:0:
256,192,54994,1,0,0:0:0:0:
256,192,55076,1,8,0:0:0:0:
256,192,55322,1,0,0:0:0:0:
256,192,55568,1,8,0:0:0:0:
256,192,55814,1,0,0:0:0:0:
256,192,55977,1,0,0:0:0:0:
256,192,56223,1,8,0:0:0:0:
256,192,56305,1,0,0:0:0:0:
256,192,56469,1,0,0:0:0:0:
256,192,56551,1,8,0:0:0:0:
256,192,56715,1,0,0:0:0:0:
256,192,56797,1,0,0:0:0:0:
256,192,57043,1,0,0:0:0:0:
256,192,57207,1,0,0:0:0:0:
256,192,57289,1,8,0:0:0:0:
256,192,57453,1,0,0:0:0:0:
256,192,57535,1,8,0:0:0:0:
256,192,57699,1,8,0:0:0:0:
256,192,57945,1,8,0:0:0:0:
256,192,58027,1,0,0:0:0:0:
256,192,58191,1,8,0:0:0:0:
256,192,58273,1,8,0:0:0:0:
256,192,58436,1,0,0:0:0:0:
256,192,58518,1,8,0:0:0:0:
256,192,58682,1,8,0:0:0:0:
256,192,59010,1,0,0:0:0:0:
256,192,59174,1,8,0:0:0:0:
256,192,59256,1,8,0:0:0:0:
256,192,59420,1,0,0:0:0:0:
256,192,59502,1,8,0:0:0:0:
256,192,59666,1,8,0:0:0:0:
256,192,59912,1,0,0:0:0:0:
256,192,59994,1,8,0:0:0:0:
256,192,60486,1,8,0:0:0:0:
256,192,60977,1,4,0:0:0:0:
256,192,61223,1,8,0:0:0:0:
256,192,61469,1,8,0:0:0:0:
256,192,61633,1,8,0:0:0:0:
256,192,61715,1,0,0:0:0:0:
256,192,61879,1,0,0:0:0:0:
256,192,62125,1,0,0:0:0:0:
256,192,62207,1,8,0:0:0:0:
256,192,62289,1,8,0:0:0:0:
256,192,62371,1,0,0:0:0:0:
256,192,62453,1,8,0:0:0:0:
256,192,62617,1,0,0:0:0:0:
256,192,62699,1,8,0:0:0:0:
256,192,62863,1,8,0:0:0:0:
256,192,62945,1,0,0:0:0:0:
256,192,63191,1,0,0:0:0:0:
256,192,63436,1,8,0:0:0:0:
256,192,63682,1,0,0:0:0:0:
256,192,63846,1,8,0:0:0:0:
256,192,64092,1,8,0:0:0:0:
256,192,64174,1,0,0:0:0:0:
256,192,64338,1,0,0:0:0:0:
256,192,64420,1,8,0:0:0:0:
256,192,64584,1,0,0:0:0:0:
256,192,64666,1,0,0:0:0:0:
256,192,64912,1,0,0:0:0:0:
256,192,65076,1,8,0:0:0:0:
256,192,65158,1,0,0:0:0:0:
256,192,65322,1,0,0:0:0:0:
256,192,65404,1,8,0:0:0:0:
256,192,65568,1,8,0:0:0:0:
256,192,65814,1,0,0:0:0:0:
256,192,66059,1,0,0:0:0:0:
256,192,66141,1,8,0:0:0:0:
256,192,66305,1,8,0:0:0:0:
256,192,66387,1,0,0:0:0:0:
256,192,66551,1,8,0:0:0:0:
256,192,66879,1,0,0:0:0:0:
256,192,67043,1,8,0:0:0:0:
256,192,67125,1,8,0:0:0:0:
256,192,67289,1,0,0:0:0:0:
256,192,67371,1,8,0:0:0:0:
256,192,67535,1,8,0:0:0:0:
256,192,67781,1,0,0:0:0:0:
256,192,67863,1,8,0:0:0:0:
256,192,68355,1,8,0:0:0:0:
256,192,68846,1,4,0:0:0:0:
256,192,69092,1,0,0:0:0:0:
256,192,69338,1,8,0:0:0:0:
256,192,69502,1,0,0:0:0:0:
256,192,69584,1,0,0:0:0:0:
256,192,69748,1,0,0:0:0:0:
256,192,69830,1,8,0:0:0:0:
256,192,70240,1,0,0:0:0:0:
256,192,70322,1,8,0:0:0:0:
256,192,70486,1,8,0:0:0:0:
256,192,70568,1,0,0:0:0:0:
256,192,70732,1,8,0:0:0:0:
256,192,70814,1,8,0:0:0:0:
256,192,71223,1,0,0:0:0:0:
256,192,71469,1,8,0:0:0:0:
256,192,71715,1,0,0:0:0:0:
256,192,71961,1,0,0:0:0:0:
256,192,72043,1,8,0:0:0:0:
256,192,72289,1,8,0:0:0:0:
256,192,72453,1,0,0:0:0:0:
256,192,72535,1,0,0:0:0:0:
256,192,72699,1,0,0:0:0:0:
256,192,72781,1,8,0:0:0:0:
256,192,73027,1,0,0:0:0:0:
256,192,73273,1,8,0:0:0:0:
256,192,73436,1,0,0:0:0:0:
256,192,73518,1,0,0:0:0:0:
256,192,73682,1,0,0:0:0:0:
256,192,73764,1,8,0:0:0:0:
256,192,74174,1,8,0:0:0:0:
256,192,74256,1,8,0:0:0:0:
256,192,74420,1,0,0:0:0:0:
256,192,74502,1,8,0:0:0:0:
256,192,74666,1,0,0:0:0:0:
256,192,74748,1,8,0:0:0:0:
256,192,75158,1,8,0:0:0:0:
256,192,75404,1,0,0:0:0:0:
256,192,75650,1,8,0:0:0:0:
256,192,75896,1,0,0:0:0:0:
256,192,75977,1,8,0:0:0:0:
256,192,76223,1,8,0:0:0:0:
256,192,76387,1,0,0:0:0:0:
256,192,76469,1,0,0:0:0:0:
256,192,76633,1,8,0:0:0:0:
256,192,76715,1,4,0:0:0:0:
256,192,76961,1,0,0:0:0:0:
256,192,77207,1,8,0:0:0:0:
256,192,77371,1,0,0:0:0:0:
256,192,77453,1,8,0:0:0:0:
256,192,77617,1,8,0:0:0:0:
256,192,77699,1,0,0:0:0:0:
256,192,78109,1,0,0:0:0:0:
256,192,78191,1,8,0:0:0:0:
256,192,78355,1,8,0:0:0:0:
256,192,78436,1,8,0:0:0:0:
256,192,78600,1,8,0:0:0:0:
256,192,78682,1,0,0:0:0:0:
256,192,79092,1,8,0:0:0:0:
256,192,79338,1,0,0:0:0:0:
256,192,79584,1,0,0:0:0:0:
256,192,79830,1,0,0:0:0:0:
256,192,79912,1,8,0:0:0:0:
256,192,80158,1,8,0:0:0:0:
256,192,80322,1,0,0:0:0:0:
256,192,80404,1,0,0:0:0:0:
256,192,80568,1,0,0:0:0:0:
256,192,80650,1,8,0:0:0:0:
256,192,80896,1,0,0:0:0:0:
256,192,81141,1,8,0:0:0:0:
256,192,81305,1,8,0:0:0:0:
256,192,81387,1,0,0:0:0:0:
256,192,81551,1,0,0:0:0:0:
256,192,81633,1,8,0:0:0:0:
256,192,82043,1,0,0:0:0:0:
256,192,82125,1,8,0:0:0:0:
256,192,82371,1,0,0:0:0:0:
256,192,82535,1,8,0:0:0:0:
256,192,82617,1,8,0:0:0:0:
256,192,82863,1,0,0:0:0:0:
256,192,83027,1,0,0:0:0:0:
256,192,83109,1,8,0:0:0:0:
256,192,83273,1,8,0:0:0:0:
256,192,83355,1,0,0:0:0:0:
256,192,83518,1,8,0:0:0:0:
256,192,83764,1,0,0:0:0:0:
256,192,83846,1,0,0:0:0:0:
256,192,84010,1,0,0:0:0:0:
256,192,84092,1,8,0:0:0:0:
256,192,84584,1,4,0:0:0:0:
256,192,84830,12,0,88027,0:0:0:0:
