osu file format v14

[General]
AudioFilename: Seisuu 3 no Nijou (TV size).mp3
AudioLeadIn: 0
PreviewTime: 63312
Countdown: 1
SampleSet: Normal
StackLeniency: 0.7
Mode: 0
LetterboxInBreaks: 0
WidescreenStoryboard: 1

[Editor]
Bookmarks: 12579,17605,27657,37710,47762,64097,74149,81689
DistanceSpacing: 1.2
BeatDivisor: 2
GridSize: 4
TimelineZoom: 3.171999

[Metadata]
Title:Seisuu 3 no Nijou (TV size)
TitleUnicode:聖数3の二乗 (TV size)
Artist:Kanako Itou
ArtistUnicode:いとうかなこ
Creator:Kaneki_Uchiha
Version:Normal
Source:Occultic;Nine
Tags:Occultic;Nine KanakoItou
BeatmapID:1244397
BeatmapSetID:583991

[Difficulty]
HPDrainRate:3
CircleSize:3
OverallDifficulty:3
ApproachRate:5
SliderMultiplier:1.19999990463257
SliderTickRate:1

[Events]
//Background and Video events
Video,-50,"OcculticNine OP.avi"
0,0,"Occultic;Nine.jpg",0,0
//Break Periods
//Storyboard Layer 0 (Background)
//Storyboard Layer 1 (Fail)
//Storyboard Layer 2 (Pass)
//Storyboard Layer 3 (Foreground)
//Storyboard Sound Samples

[TimingPoints]
171,314.13612565445,4,2,0,50,1,0
171,-200,4,2,0,50,0,0
4254,-100,4,1,1,70,0,0
5040,314.13612565445,4,1,1,70,1,0
17605,-133.333333333333,4,1,1,70,0,0
27657,-100,4,1,1,70,0,0
64097,-100,4,1,1,70,0,1

[Colours]
Combo1 : 128,0,128
Combo2 : 255,0,0
Combo3 : 128,128,128
Combo4 : 255,128,0
Combo5 : 0,0,255

[HitObjects]
144,88,13,5,0,0:0:0:0:
144,88,171,2,0,P|176:144|232:176,1,119.999990463257,2|2,0:0|0:0,0:0:0:0:
280,128,1113,1,0,0:0:0:0:
280,128,1427,2,0,P|316:184|308:240,1,119.999990463257,2|2,0:0|0:0,0:0:0:0:
264,292,2369,1,0,0:0:0:0:
256,192,2684,12,0,4254,0:0:0:0:
316,116,4411,6,0,L|340:172,3,59.9999952316285,8|8|8|8,0:0|0:0|0:0|0:0,0:0:0:0:
364,240,5040,6,0,P|296:244|256:284,1,119.999990463257,2|2,0:0|0:0,0:0:0:0:
204,320,5511,2,0,P|112:336|76:256,1,179.999985694886,8|6,0:0|0:0,0:0:0:0:
60,128,6296,1,2,0:0:0:0:
60,128,6453,2,0,P|112:124|160:72,1,119.999990463257,8|0,0:0|0:0,0:0:0:0:
196,16,6924,2,0,P|252:-12|308:12,1,119.999990463257,2|12,0:0|0:0,0:0:0:0:
400,112,7553,5,2,0:0:0:0:
264,152,7867,1,2,0:0:0:0:
264,152,8024,2,0,P|288:208|344:224,1,119.999990463257,8|0,0:0|0:0,0:0:0:0:
404,192,8495,2,0,P|452:248|448:296,1,119.999990463257,6|2,0:0|0:0,0:0:0:0:
380,316,8966,2,0,P|296:320|212:268,1,179.999985694886,8|2,0:0|0:0,0:0:0:0:
144,148,9752,1,12,0:0:0:0:
68,268,10066,6,0,P|48:216|76:156,1,119.999990463257,2|2,0:0|0:0,0:0:0:0:
144,148,10537,2,0,P|212:160|300:80,1,179.999985694886,8|6,0:0|0:0,0:0:0:0:
420,24,11322,1,2,0:0:0:0:
420,24,11479,2,0,P|436:80|416:144,1,119.999990463257,8|0,0:0|0:0,0:0:0:0:
400,208,11950,2,0,P|336:200|276:220,1,119.999990463257,2|12,0:0|0:0,0:0:0:0:
152,276,12579,5,2,0:0:0:0:
172,132,12893,1,2,0:0:0:0:
172,132,13050,2,0,P|110:142|40:116,1,119.999990463257,8|0,0:0|0:0,0:0:0:0:
12,68,13521,2,0,P|-32:128|-16:176,1,119.999990463257,6|6,0:0|0:0,0:0:0:0:
32,216,13992,2,0,P|88:240|93:347,1,179.999985694886,8|2,0:0|0:0,0:0:0:0:
232,312,14778,1,12,0:0:0:0:
232,312,14935,1,8,0:0:0:0:
232,312,15092,6,0,P|276:348|340:364,1,119.999990463257,4|8,0:0|0:0,0:0:0:0:
316,280,15563,2,0,P|384:288|432:268,1,119.999990463257,4|8,0:0|0:0,0:0:0:0:
368,212,16034,2,0,P|440:164|456:128,1,119.999990463257,4|8,0:0|0:0,0:0:0:0:
372,128,16505,2,0,P|392:76|380:8,1,119.999990463257,4|8,0:0|0:0,0:0:0:0:
312,60,16977,1,2,0:0:0:0:
312,60,17134,2,0,P|288:108|300:184,1,119.999990463257,4|0,0:0|0:0,0:0:0:0:
344,196,17605,5,2,0:0:0:0:
344,196,17762,2,0,P|360:248|320:320,1,134.999994421005,0|8,0:0|0:0,0:0:0:0:
244,244,18547,2,0,P|220:256|200:276,1,44.9999981403351,0|0,0:0|0:0,0:0:0:0:
172,308,18861,2,0,P|88:312|80:224,1,179.99999256134,2|8,0:0|0:0,0:0:0:0:
120,204,19647,2,0,P|136:164|124:112,1,89.9999962806701,0|0,0:0|0:0,0:0:0:0:
104,68,20118,5,2,0:0:0:0:
104,68,20275,2,0,P|152:32|224:56,1,134.999994421005,0|8,0:0|0:0,0:0:0:0:
300,92,21060,1,0,0:0:0:0:
300,92,21218,2,0,P|332:116|388:112,1,89.9999962806701,0|0,0:0|0:0,0:0:0:0:
424,84,21689,2,0,P|464:68|516:80,2,89.9999962806701,2|8|0,0:0|0:0|0:0,0:0:0:0:
404,188,22631,5,2,0:0:0:0:
404,188,22788,2,0,P|384:248|324:284,1,134.999994421005,0|8,0:0|0:0,0:0:0:0:
244,356,23574,2,0,L|188:340,1,44.9999981403351,0|0,0:0|0:0,0:0:0:0:
152,320,23888,2,0,P|112:324|60:360,2,89.9999962806701,2|2|8,0:0|0:0|0:0,0:0:0:0:
248,276,24830,1,0,0:0:0:0:
288,176,25144,6,0,P|244:172|188:180,1,89.9999962806701,2|2,0:0|0:0,0:0:0:0:
92,188,25772,1,8,0:0:0:0:
128,84,26087,2,0,L|192:84,2,44.9999981403351,0|0|2,0:0|0:0|0:0,0:0:0:0:
76,88,26558,1,0,0:0:0:0:
76,88,26715,2,0,L|48:128,5,44.9999981403351,8|2|8|2|8|2,0:0|0:0|0:0|0:0|0:0|0:0,0:0:0:0:
92,188,27657,6,0,P|128:252|172:268,1,119.999990463257,4|8,0:0|0:0,0:0:0:0:
204,204,28129,2,0,P|256:236|280:288,1,119.999990463257,0|2,0:0|0:0,0:0:0:0:
264,360,28600,1,8,0:0:0:0:
264,360,28757,2,0,P|328:360|376:320,1,119.999990463257,0|0,0:0|0:0,0:0:0:0:
408,264,29228,2,0,P|444:276|472:304,2,59.9999952316285,8|0|2,0:0|0:0|0:0,0:0:0:0:
336,268,29699,2,0,P|324:200|364:160,1,119.999990463257,0|2,0:0|0:0,0:0:0:0:
408,116,30170,6,0,P|368:72|288:64,1,119.999990463257,2|8,0:0|0:0,0:0:0:0:
276,124,30642,2,0,P|212:100|160:56,1,119.999990463257,0|2,0:0|0:0,0:0:0:0:
108,36,31113,1,8,0:0:0:0:
108,36,31270,2,0,P|100:100|64:164,1,119.999990463257,0|0,0:0|0:0,0:0:0:0:
24,200,31741,2,0,B|-20:160,2,59.9999952316285,8|0|2,0:0|0:0|0:0,0:0:0:0:
112,316,32369,2,0,P|168:348|232:332,1,119.999990463257,8|2,0:0|0:0,0:0:0:0:
180,264,32841,6,0,P|248:240|280:204,1,119.999990463257,8|2,0:0|0:0,0:0:0:0:
204,172,33312,2,0,P|248:128|312:124,1,119.999990463257,8|2,0:0|0:0,0:0:0:0:
288,40,33783,2,0,P|352:52|388:112,1,119.999990463257,8|2,0:0|0:0,0:0:0:0:
368,176,34254,1,8,0:0:0:0:
488,256,34568,1,8,0:0:0:0:
492,112,34882,1,8,0:0:0:0:
368,176,35197,6,0,P|308:184|248:216,1,119.999990463257,4|2,0:0|0:0,0:0:0:0:
152,112,35825,1,2,0:0:0:0:
176,252,36139,1,2,0:0:0:0:
244,124,36453,1,2,0:0:0:0:
116,188,36767,1,2,0:0:0:0:
256,212,37081,2,0,L|312:248,3,59.9999952316285,8|8|8|8,0:0|0:0|0:0|0:0,0:0:0:0:
352,300,37710,6,0,P|300:340|232:344,1,119.999990463257,4|8,0:0|0:0,0:0:0:0:
124,272,38338,1,2,0:0:0:0:
256,212,38652,1,2,0:0:0:0:
256,212,38809,2,0,P|208:168|196:104,1,119.999990463257,8|2,0:0|0:0,0:0:0:0:
204,32,39280,2,0,P|264:68|280:124,1,119.999990463257,8|2,0:0|0:0,0:0:0:0:
396,200,39909,1,8,0:0:0:0:
348,64,40223,6,0,P|404:112|448:124,1,119.999990463257,4|8,0:0|0:0,0:0:0:0:
316,180,40851,1,2,0:0:0:0:
424,276,41165,1,2,0:0:0:0:
424,276,41322,2,0,P|380:328|316:340,1,119.999990463257,8|2,0:0|0:0,0:0:0:0:
268,312,41793,2,0,P|192:316|148:340,1,119.999990463257,8|2,0:0|0:0,0:0:0:0:
8,340,42422,1,8,0:0:0:0:
76,212,42736,6,0,P|148:196|180:160,1,119.999990463257,4|8,0:0|0:0,0:0:0:0:
316,128,43364,1,2,0:0:0:0:
176,88,43678,1,2,0:0:0:0:
176,88,43835,2,0,P|220:40|280:28,1,119.999990463257,8|2,0:0|0:0,0:0:0:0:
344,40,44307,2,0,P|408:44|456:8,1,119.999990463257,8|2,0:0|0:0,0:0:0:0:
372,132,44935,1,8,0:0:0:0:
504,76,45249,5,4,0:0:0:0:
424,196,45563,2,0,P|384:252|392:304,1,119.999990463257,8|2,0:0|0:0,0:0:0:0:
256,352,46191,1,2,0:0:0:0:
256,352,46348,2,0,P|276:288|252:236,1,119.999990463257,8|0,0:0|0:0,0:0:0:0:
184,284,46820,2,0,P|160:216|204:160,1,119.999990463257,8|2,0:0|0:0,0:0:0:0:
252,168,47291,2,0,P|260:136|260:104,2,59.9999952316285,8|8|8,0:0|0:0|0:0,0:0:0:0:
256,241,47762,6,0,P|324:236|368:280,1,119.999990463257,4|8,0:0|0:0,0:0:0:0:
472,360,48390,1,2,0:0:0:0:
496,220,48704,1,2,0:0:0:0:
496,220,48861,2,0,P|464:160|416:132,1,119.999990463257,8|2,0:0|0:0,0:0:0:0:
488,80,49333,2,0,P|432:56|364:64,1,119.999990463257,8|2,0:0|0:0,0:0:0:0:
236,104,49961,1,8,0:0:0:0:
344,200,50275,5,4,0:0:0:0:
344,200,50589,2,0,P|288:232|220:220,1,119.999990463257,8|2,0:0|0:0,0:0:0:0:
236,104,51218,1,2,0:0:0:0:
236,104,51375,2,0,P|168:104|120:140,1,119.999990463257,8|2,0:0|0:0,0:0:0:0:
92,56,51846,2,0,P|52:96|44:168,1,119.999990463257,8|2,0:0|0:0,0:0:0:0:
40,300,52474,1,8,0:0:0:0:
168,236,52788,6,0,P|220:240|272:280,1,119.999990463257,8|8,0:0|0:0,0:0:0:0:
416,264,53416,2,0,P|344:236|312:192,1,119.999990463257,8|8,0:0|0:0,0:0:0:0:
248,76,54045,1,8,0:0:0:0:
376,140,54359,1,8,0:0:0:0:
236,164,54673,1,8,0:0:0:0:
336,60,54987,1,8,0:0:0:0:
316,204,55301,6,0,L|348:256,3,59.9999952316285,8|2|8|2,0:0|0:0|0:0|0:0,0:0:0:0:
264,268,55930,2,0,L|296:320,3,59.9999952316285,8|2|8|2,0:0|0:0|0:0|0:0,0:0:0:0:
212,332,56558,2,0,L|180:280,3,59.9999952316285,8|2|8|2,0:0|0:0|0:0|0:0,0:0:0:0:
116,312,57186,2,0,P|84:252|96:196,1,119.999990463257,8|8,0:0|0:0,0:0:0:0:
164,208,57657,6,0,P|172:148|136:96,1,119.999990463257,4|0,0:0|0:0,0:0:0:0:
100,40,58129,2,0,P|148:8|224:8,2,119.999990463257,2|12|8,0:0|0:0|0:0,0:0:0:0:
141,99,58914,2,0,P|256:140|368:100,1,239.999980926514,2|2,0:0|0:0,0:0:0:0:
424,68,59699,1,8,0:0:0:0:
424,68,60013,1,8,0:0:0:0:
404,212,60327,6,0,P|336:232|292:328,1,179.999985694886,4|2,0:0|0:0,0:0:0:0:
232,364,60956,2,0,P|164:344|120:248,1,179.999985694886,0|0,0:0|0:0,0:0:0:0:
140,180,61584,2,0,L|168:104,7,59.9999952316285,8|2|8|8|8|8|8|8,0:0|0:0|0:0|0:0|0:0|0:0|0:0|0:0,0:0:0:0:
256,192,62841,12,0,63783,0:0:0:0:
80,104,64097,5,4,0:0:0:0:
80,104,64411,2,0,P|128:156|184:168,1,119.999990463257,8|2,0:0|0:0,0:0:0:0:
316,168,65039,1,8,0:0:0:0:
240,44,65354,2,0,P|304:48|364:32,1,119.999990463257,2|8,0:0|0:0,0:0:0:0:
424,4,65825,2,0,P|484:92|448:160,1,179.999985694886,0|8,0:0|0:0,0:0:0:0:
316,168,66610,6,0,P|324:220|372:276,1,119.999990463257,4|8,0:0|0:0,0:0:0:0:
420,316,67081,2,0,P|356:352|304:352,1,119.999990463257,0|0,0:0|0:0,0:0:0:0:
244,328,67553,1,8,0:0:0:0:
244,328,67710,2,0,P|216:224|148:192,1,179.999985694886,0|8,0:0|0:0,0:0:0:0:
12,184,68495,1,2,0:0:0:0:
100,68,68809,2,0,L|160:76,1,59.9999952316285,8|0,0:0|0:0,0:0:0:0:
232,88,69123,6,0,P|296:84|344:56,1,119.999990463257,4|8,0:0|0:0,0:0:0:0:
400,12,69594,1,0,0:0:0:0:
400,12,69752,2,0,P|440:60|440:120,1,119.999990463257,2|8,0:0|0:0,0:0:0:0:
376,144,70223,2,0,P|344:184|344:256,1,119.999990463257,0|0,0:0|0:0,0:0:0:0:
368,316,70694,1,8,0:0:0:0:
368,316,70851,2,0,P|284:336|200:280,1,179.999985694886,0|8,0:0|0:0,0:0:0:0:
96,200,71636,5,4,0:0:0:0:
240,216,71950,2,0,P|204:164|152:136,1,119.999990463257,8|2,0:0|0:0,0:0:0:0:
16,96,72579,1,8,0:0:0:0:
16,96,72736,2,0,P|88:80|184:16,1,179.999985694886,0|10,0:0|0:0,0:0:0:0:
320,36,73521,2,0,L|280:80,3,59.9999952316285,10|8|10|8,0:0|0:0|0:0|0:0,0:0:0:0:
236,136,74149,6,0,P|176:144|124:192,1,119.999990463257,4|8,0:0|0:0,0:0:0:0:
112,324,74778,1,2,0:0:0:0:
48,196,75092,1,8,0:0:0:0:
176,264,75406,2,0,P|244:264|300:240,1,119.999990463257,2|8,0:0|0:0,0:0:0:0:
356,212,75877,2,0,P|384:296|340:372,1,179.999985694886,0|8,0:0|0:0,0:0:0:0:
291,245,76663,5,4,0:0:0:0:
352,116,76977,1,8,0:0:0:0:
352,116,77134,2,0,P|280:124|232:160,2,119.999990463257,0|0|0,0:0|0:0|0:0,0:0:0:0:
420,132,77919,1,2,0:0:0:0:
348,8,78233,1,8,0:0:0:0:
348,8,78390,2,0,P|256:36|160:24,1,179.999985694886,0|8,0:0|0:0,0:0:0:0:
28,36,79176,5,4,0:0:0:0:
112,152,79490,2,0,P|80:216|88:264,1,119.999990463257,8|2,0:0|0:0,0:0:0:0:
212,316,80118,1,8,0:0:0:0:
212,316,80275,2,0,P|272:280|340:272,1,119.999990463257,0|0,0:0|0:0,0:0:0:0:
392,288,80746,1,8,0:0:0:0:
392,288,80903,2,0,P|408:204|372:100,1,179.999985694886,0|8,0:0|0:0,0:0:0:0:
336,44,81532,6,0,P|296:84|316:160,1,119.999990463257,4|2,0:0|0:0,0:0:0:0:
284,212,82003,2,0,P|288:280|256:328,2,119.999990463257,8|8|8,0:0|0:0|0:0,0:0:0:0:
301,143,82788,2,0,P|240:136|208:84,1,119.999990463257,2|2,0:0|0:0,0:0:0:0:
176,28,83259,1,8,0:0:0:0:
36,64,83574,1,8,0:0:0:0:
140,164,83888,1,8,0:0:0:0:
140,164,84045,6,0,P|136:224|96:272,1,119.999990463257,2|2,0:0|0:0,0:0:0:0:
60,328,84516,2,0,P|8:288|-60:280,2,119.999990463257,8|8|8,0:0|0:0|0:0,0:0:0:0:
128,352,85301,2,0,P|184:348|240:316,1,119.999990463257,2|2,0:0|0:0,0:0:0:0:
284,264,85772,2,0,L|320:188,3,59.9999952316285,8|2|8|2,0:0|0:0|0:0|0:0,0:0:0:0:
256,192,86401,12,0,89228,0:0:0:0:
