osu file format v14

[General]
AudioFilename: audio.mp3
AudioLeadIn: 0
PreviewTime: -1
Countdown: 1
SampleSet: None
StackLeniency: 0.7
Mode: 3
LetterboxInBreaks: 0
SpecialStyle: 0
WidescreenStoryboard: 0

[Editor]
DistanceSpacing: 2
BeatDivisor: 4
GridSize: 16
TimelineZoom: 2.2

[Metadata]
Title:Hacking to the Gate
TitleUnicode:Hacking to the Gate
Artist:Kanako Itou
ArtistUnicode:Kanako Itou
Creator:eZmmR
Version:Life Hack
Source:Steins;Gate
Tags:ln longnote opening anime ezmmr ezpp
BeatmapID:1419994
BeatmapSetID:671614

[Difficulty]
HPDrainRate:8
CircleSize:4
OverallDifficulty:0
ApproachRate:5
SliderMultiplier:1.4
SliderTickRate:1

[Events]
//Background and Video events
0,0,"BG hue hue.jpg",0,0
//Break Periods
//Storyboard Layer 0 (Background)
//Storyboard Layer 1 (Fail)
//Storyboard Layer 2 (Pass)
//Storyboard Layer 3 (Foreground)
//Storyboard Sound Samples

[TimingPoints]
2652,372.670807453416,4,2,0,5,1,0
14577,-100,4,2,0,5,0,0
23521,-100,4,2,0,5,0,0
24266,-100,4,2,0,5,0,0
26502,-100,4,2,0,5,0,0
36751,-10,4,2,0,5,0,0
36756,-250,4,2,0,5,0,0
36937,-100,4,2,0,5,0,0
37124,-1000,4,2,0,5,0,0
37217,-45.4545454545455,4,2,0,5,0,0
37310,-1000,4,2,0,5,0,0
37403,-45.4545454545455,4,2,0,5,0,0
37496,-100,4,2,0,5,0,0
37683,-66.6666666666667,4,2,0,5,0,0
37869,4.670807453416,4,2,0,5,1,0
37871,4.670807453416,4,2,0,5,1,0
37873,4.670807453416,4,2,0,5,1,0
37875,4.670807453416,4,2,0,5,1,0
37877,4.670807453416,4,2,0,5,1,0
37879,4.670807453416,4,2,0,5,1,0
37881,4.670807453416,4,2,0,5,1,0
37883,4.670807453416,4,2,0,5,1,0
37885,4.670807453416,4,2,0,5,1,0
37887,4.670807453416,4,2,0,5,1,0
37889,4.670807453416,4,2,0,5,1,0
37891,4.670807453416,4,2,0,5,1,0
37892,3.670807453416,4,2,0,5,1,0
37894,3.670807453416,4,2,0,5,1,0
37896,3.670807453416,4,2,0,5,1,0
37898,3.670807453416,4,2,0,5,1,0
37900,3.670807453416,4,2,0,5,1,0
37902,3.670807453416,4,2,0,5,1,0
37904,3.670807453416,4,2,0,5,1,0
37906,3.670807453416,4,2,0,5,1,0
37908,3.670807453416,4,2,0,5,1,0
37910,3.670807453416,4,2,0,5,1,0
37912,3.670807453416,4,2,0,5,1,0
37913,3.670807453416,4,2,0,5,1,0
37914,2.670807453416,4,2,0,5,1,0
37916,2.670807453416,4,2,0,5,1,0
37918,2.670807453416,4,2,0,5,1,0
37920,2.670807453416,4,2,0,5,1,0
37922,2.670807453416,4,2,0,5,1,0
37924,2.670807453416,4,2,0,5,1,0
37926,2.670807453416,4,2,0,5,1,0
37928,2.670807453416,4,2,0,5,1,0
37930,2.670807453416,4,2,0,5,1,0
37932,2.670807453416,4,2,0,5,1,0
37934,2.670807453416,4,2,0,5,1,0
37936,2.670807453416,4,2,0,5,1,0
37938,1.670807453416,4,2,0,5,1,0
37938,-10,4,2,0,5,0,0
37940,1.670807453416,4,2,0,5,1,0
37942,1.670807453416,4,2,0,5,1,0
37944,1.670807453416,4,2,0,5,1,0
37946,1.670807453416,4,2,0,5,1,0
37948,1.670807453416,4,2,0,5,1,0
37950,1.670807453416,4,2,0,5,1,0
37952,1.670807453416,4,2,0,5,1,0
37954,1.670807453416,4,2,0,5,1,0
37956,1.670807453416,4,2,0,5,1,0
37958,1.670807453416,4,2,0,5,1,0
37960,1.670807453416,4,2,0,5,1,0
37961,1.670807453416,4,2,0,5,1,0
37961,1.670807453416,4,2,0,5,1,0
37962,9999999.67080745,4,2,0,5,1,0
37962,-10,4,2,0,5,0,0
38148,372.670807453416,4,2,0,5,1,0
38242,372.670807453416,4,2,0,5,1,0
38428,372.670807453416,4,2,0,5,1,0
48862,-10,4,2,0,5,0,0
48868,-1000,4,2,0,5,0,0
48955,-45.4545454545455,4,2,0,5,0,0
49002,-100,4,2,0,5,0,0
49049,-10,4,2,0,5,0,0
49055,-1000,4,2,0,5,0,0
49142,-45.4545454545455,4,2,0,5,0,0
49188,-100,4,2,0,5,0,0
49235,-10,4,2,0,5,0,0
49241,-1000,4,2,0,5,0,0
49328,-45.4545454545455,4,2,0,5,0,0
49375,-100,4,2,0,5,0,0
49608,-66.6666666666667,4,2,0,5,0,0
49794,4.670807453416,4,2,0,5,1,0
49796,4.670807453416,4,2,0,5,1,0
49798,4.670807453416,4,2,0,5,1,0
49800,4.670807453416,4,2,0,5,1,0
49802,4.670807453416,4,2,0,5,1,0
49804,4.670807453416,4,2,0,5,1,0
49806,4.670807453416,4,2,0,5,1,0
49808,4.670807453416,4,2,0,5,1,0
49810,4.670807453416,4,2,0,5,1,0
49812,4.670807453416,4,2,0,5,1,0
49814,4.670807453416,4,2,0,5,1,0
49816,4.670807453416,4,2,0,5,1,0
49817,3.670807453416,4,2,0,5,1,0
49819,3.670807453416,4,2,0,5,1,0
49821,3.670807453416,4,2,0,5,1,0
49823,3.670807453416,4,2,0,5,1,0
49825,3.670807453416,4,2,0,5,1,0
49827,3.670807453416,4,2,0,5,1,0
49829,3.670807453416,4,2,0,5,1,0
49831,3.670807453416,4,2,0,5,1,0
49833,3.670807453416,4,2,0,5,1,0
49835,3.670807453416,4,2,0,5,1,0
49837,3.670807453416,4,2,0,5,1,0
49839,3.670807453416,4,2,0,5,1,0
49840,2.670807453416,4,2,0,5,1,0
49842,2.670807453416,4,2,0,5,1,0
49844,2.670807453416,4,2,0,5,1,0
49846,2.670807453416,4,2,0,5,1,0
49848,2.670807453416,4,2,0,5,1,0
49850,2.670807453416,4,2,0,5,1,0
49852,2.670807453416,4,2,0,5,1,0
49854,2.670807453416,4,2,0,5,1,0
49856,2.670807453416,4,2,0,5,1,0
49858,2.670807453416,4,2,0,5,1,0
49860,2.670807453416,4,2,0,5,1,0
49862,2.670807453416,4,2,0,5,1,0
49863,1.670807453416,4,2,0,5,1,0
49864,1.670807453416,4,2,0,5,1,0
49865,1.670807453416,4,2,0,5,1,0
49866,1.670807453416,4,2,0,5,1,0
49867,1.670807453416,4,2,0,5,1,0
49868,1.670807453416,4,2,0,5,1,0
49869,1.670807453416,4,2,0,5,1,0
49870,1.670807453416,4,2,0,5,1,0
49871,1.670807453416,4,2,0,5,1,0
49872,1.670807453416,4,2,0,5,1,0
49873,1.670807453416,4,2,0,5,1,0
49874,1.670807453416,4,2,0,5,1,0
49875,1.670807453416,4,2,0,5,1,0
49876,1.670807453416,4,2,0,5,1,0
49877,1.670807453416,4,2,0,5,1,0
49878,1.670807453416,4,2,0,5,1,0
49879,1.670807453416,4,2,0,5,1,0
49880,1.670807453416,4,2,0,5,1,0
49881,1.670807453416,4,2,0,5,1,0
49882,1.670807453416,4,2,0,5,1,0
49883,1.670807453416,4,2,0,5,1,0
49884,1.670807453416,4,2,0,5,1,0
49885,1.670807453416,4,2,0,5,1,0
49886,1.670807453416,4,2,0,5,1,0
49887,9999999.67080745,4,2,0,5,1,0
49887,-10,4,2,0,5,0,0
50073,372.670807453416,4,2,0,5,1,0
50167,372.670807453416,4,2,0,5,1,0
50353,372.670807453416,4,2,0,5,1,0
56130,-100,4,2,0,5,0,0
62278,-10,4,2,0,5,0,0
62308,-333.333333333333,4,2,0,5,0,0
63023,-10,4,2,0,5,0,0
63063,-10000,4,2,0,5,0,0
63380,-10,4,2,0,5,0,0
63396,-10000,4,2,0,5,0,0
63582,-200,4,2,0,5,0,0
63770,-100,4,2,0,5,0,1
87620,-100,4,2,0,5,0,0
104018,-100,4,2,0,5,0,0
112962,-100,4,2,0,5,0,0
115943,-100,4,2,0,5,0,0
124888,-100,4,2,0,5,0,0
126191,-10,4,2,0,5,0,0
126196,-250,4,2,0,5,0,0
126377,-100,4,2,0,5,0,0
126564,-1000,4,2,0,5,0,0
126657,-45.4545454545455,4,2,0,5,0,0
126750,-1000,4,2,0,5,0,0
126843,-45.4545454545455,4,2,0,5,0,0
126936,-100,4,2,0,5,0,0
127123,-66.6666666666667,4,2,0,5,0,0
127309,4.670807453416,4,2,0,5,1,0
127311,4.670807453416,4,2,0,5,1,0
127313,4.670807453416,4,2,0,5,1,0
127315,4.670807453416,4,2,0,5,1,0
127317,4.670807453416,4,2,0,5,1,0
127319,4.670807453416,4,2,0,5,1,0
127321,4.670807453416,4,2,0,5,1,0
127323,4.670807453416,4,2,0,5,1,0
127325,4.670807453416,4,2,0,5,1,0
127327,4.670807453416,4,2,0,5,1,0
127329,4.670807453416,4,2,0,5,1,0
127331,4.670807453416,4,2,0,5,1,0
127331,4.670807453416,4,2,0,5,1,0
127332,3.670807453416,4,2,0,5,1,0
127334,3.670807453416,4,2,0,5,1,0
127336,3.670807453416,4,2,0,5,1,0
127338,3.670807453416,4,2,0,5,1,0
127340,3.670807453416,4,2,0,5,1,0
127342,3.670807453416,4,2,0,5,1,0
127344,3.670807453416,4,2,0,5,1,0
127346,3.670807453416,4,2,0,5,1,0
127348,3.670807453416,4,2,0,5,1,0
127350,3.670807453416,4,2,0,5,1,0
127352,3.670807453416,4,2,0,5,1,0
127354,3.670807453416,4,2,0,5,1,0
127355,2.670807453416,4,2,0,5,1,0
127355,2.670807453416,4,2,0,5,1,0
127357,2.670807453416,4,2,0,5,1,0
127357,2.670807453416,4,2,0,5,1,0
127359,2.670807453416,4,2,0,5,1,0
127361,2.670807453416,4,2,0,5,1,0
127363,2.670807453416,4,2,0,5,1,0
127365,2.670807453416,4,2,0,5,1,0
127367,2.670807453416,4,2,0,5,1,0
127369,2.670807453416,4,2,0,5,1,0
127371,2.670807453416,4,2,0,5,1,0
127373,2.670807453416,4,2,0,5,1,0
127375,2.670807453416,4,2,0,5,1,0
127378,1.6708075,4,2,0,5,1,0
127380,1.6708075,4,2,0,5,1,0
127382,1.6708075,4,2,0,5,1,0
127384,1.6708075,4,2,0,5,1,0
127386,1.6708075,4,2,0,5,1,0
127388,1.6708075,4,2,0,5,1,0
127390,1.6708075,4,2,0,5,1,0
127392,1.6708075,4,2,0,5,1,0
127394,1.6708075,4,2,0,5,1,0
127396,1.6708075,4,2,0,5,1,0
127398,1.6708075,4,2,0,5,1,0
127400,1.6708075,4,2,0,5,1,0
127401,1.6708075,4,2,0,5,1,0
127402,99999999.6708075,4,2,0,5,1,0
127588,372.670807453416,4,2,0,5,1,0
127683,372.670807453416,4,2,0,5,1,0
138304,-10,4,2,0,5,0,0
138310,-1000,4,2,0,5,0,0
138397,-45.4545454545455,4,2,0,5,0,0
138443,-100,4,2,0,5,0,0
138490,-10,4,2,0,5,0,0
138496,-1000,4,2,0,5,0,0
138583,-45.4545454545455,4,2,0,5,0,0
138630,-100,4,2,0,5,0,0
138676,-10,4,2,0,5,0,0
138682,-1000,4,2,0,5,0,0
138769,-45.4545454545455,4,2,0,5,0,0
138816,-100,4,2,0,5,0,0
139049,-66.6666666666667,4,2,0,5,0,0
139235,4.670807453416,4,2,0,5,1,0
139237,4.670807453416,4,2,0,5,1,0
139239,4.670807453416,4,2,0,5,1,0
139241,4.670807453416,4,2,0,5,1,0
139243,4.670807453416,4,2,0,5,1,0
139245,4.670807453416,4,2,0,5,1,0
139247,4.670807453416,4,2,0,5,1,0
139249,4.670807453416,4,2,0,5,1,0
139251,4.670807453416,4,2,0,5,1,0
139253,4.670807453416,4,2,0,5,1,0
139255,4.670807453416,4,2,0,5,1,0
139257,4.670807453416,4,2,0,5,1,0
139258,3.670807453416,4,2,0,5,1,0
139260,3.670807453416,4,2,0,5,1,0
139262,3.670807453416,4,2,0,5,1,0
139264,3.670807453416,4,2,0,5,1,0
139266,3.670807453416,4,2,0,5,1,0
139268,3.670807453416,4,2,0,5,1,0
139270,3.670807453416,4,2,0,5,1,0
139272,3.670807453416,4,2,0,5,1,0
139274,3.670807453416,4,2,0,5,1,0
139276,3.670807453416,4,2,0,5,1,0
139278,3.670807453416,4,2,0,5,1,0
139280,3.670807453416,4,2,0,5,1,0
139281,2.670807453416,4,2,0,5,1,0
139283,2.670807453416,4,2,0,5,1,0
139285,2.670807453416,4,2,0,5,1,0
139287,2.670807453416,4,2,0,5,1,0
139289,2.670807453416,4,2,0,5,1,0
139291,2.670807453416,4,2,0,5,1,0
139293,2.670807453416,4,2,0,5,1,0
139295,2.670807453416,4,2,0,5,1,0
139297,2.670807453416,4,2,0,5,1,0
139299,2.670807453416,4,2,0,5,1,0
139301,2.670807453416,4,2,0,5,1,0
139303,2.670807453416,4,2,0,5,1,0
139304,1.670807453416,4,2,0,5,1,0
139306,1.670807453416,4,2,0,5,1,0
139308,1.670807453416,4,2,0,5,1,0
139310,1.670807453416,4,2,0,5,1,0
139312,1.670807453416,4,2,0,5,1,0
139314,1.670807453416,4,2,0,5,1,0
139316,1.670807453416,4,2,0,5,1,0
139318,1.670807453416,4,2,0,5,1,0
139320,1.670807453416,4,2,0,5,1,0
139322,1.670807453416,4,2,0,5,1,0
139324,1.670807453416,4,2,0,5,1,0
139326,1.670807453416,4,2,0,5,1,0
139328,9999999.67080745,4,2,0,5,1,0
139514,372.670807453416,4,2,0,5,1,0
139608,372.670807453416,4,2,0,5,1,0
145571,-100,4,2,0,5,0,0
151720,-10,4,2,0,5,0,0
151740,-333.333333333333,4,2,0,5,0,0
152465,-10,4,2,0,5,0,0
152505,-10000,4,2,0,5,0,0
152821,-10,4,2,0,5,0,0
152837,-10000,4,2,0,5,0,0
153024,-200,4,2,0,5,0,0
153211,-100,4,2,0,5,0,1
159173,-100,4,2,0,5,0,1
165136,-100,4,2,0,5,0,1
177061,-100,4,2,0,5,0,0
214329,-133.333333333333,4,2,0,5,0,0
217309,-10,4,2,0,5,0,0
217339,1090.90909090909,4,2,0,5,1,0
217339,-200,4,2,0,5,0,0
218427,4000,4,2,0,5,1,0
218801,372.670807453416,4,2,0,5,1,1
242651,-100,4,2,0,5,0,0

[HitObjects]
64,192,2652,128,0,4235:0:0:0:0:
448,192,2652,128,0,2745:0:0:0:0:
192,192,2652,128,0,2931:0:0:0:0:
320,192,2652,1,0,0:0:0:0:
320,192,2838,128,0,2931:0:0:0:0:
448,192,2838,128,0,3117:0:0:0:0:
192,192,3024,128,0,3117:0:0:0:0:
320,192,3024,128,0,3304:0:0:0:0:
448,192,3211,128,0,3304:0:0:0:0:
192,192,3211,128,0,3490:0:0:0:0:
448,192,3397,128,0,3490:0:0:0:0:
320,192,3397,128,0,3676:0:0:0:0:
192,192,3583,128,0,3676:0:0:0:0:
448,192,3583,128,0,3863:0:0:0:0:
192,192,3770,128,0,4049:0:0:0:0:
320,192,3770,128,0,3863:0:0:0:0:
448,192,3956,128,0,4235:0:0:0:0:
320,192,3956,128,0,4049:0:0:0:0:
320,192,4142,128,0,5726:0:0:0:0:
192,192,4142,128,0,4422:0:0:0:0:
448,192,4329,128,0,4608:0:0:0:0:
64,192,4329,128,0,4422:0:0:0:0:
192,192,4515,128,0,4794:0:0:0:0:
64,192,4515,128,0,4608:0:0:0:0:
64,192,4701,128,0,4981:0:0:0:0:
448,192,4701,128,0,4794:0:0:0:0:
192,192,4888,128,0,5167:0:0:0:0:
448,192,4888,128,0,4981:0:0:0:0:
448,192,5074,128,0,5353:0:0:0:0:
64,192,5074,128,0,5167:0:0:0:0:
64,192,5260,128,0,5540:0:0:0:0:
192,192,5260,128,0,5353:0:0:0:0:
192,192,5447,128,0,5726:0:0:0:0:
448,192,5447,128,0,5540:0:0:0:0:
448,192,5633,128,0,7124:0:0:0:0:
64,192,5633,128,0,5912:0:0:0:0:
320,192,5819,128,0,6099:0:0:0:0:
192,192,5819,128,0,5912:0:0:0:0:
192,192,6006,128,0,6285:0:0:0:0:
64,192,6006,128,0,6099:0:0:0:0:
64,192,6192,128,0,6471:0:0:0:0:
320,192,6192,128,0,6285:0:0:0:0:
192,192,6378,128,0,6658:0:0:0:0:
320,192,6378,128,0,6471:0:0:0:0:
320,192,6565,128,0,6844:0:0:0:0:
64,192,6565,128,0,6658:0:0:0:0:
64,192,6751,128,0,7030:0:0:0:0:
192,192,6751,128,0,6844:0:0:0:0:
192,192,6937,128,0,7124:0:0:0:0:
320,192,6937,128,0,7030:0:0:0:0:
64,192,7124,128,0,8055:0:0:0:0:
320,192,7124,1,0,0:0:0:0:
448,192,7310,128,0,7683:0:0:0:0:
192,192,7496,1,0,0:0:0:0:
320,192,7496,128,0,7683:0:0:0:0:
192,192,7683,1,0,0:0:0:0:
320,192,7869,1,0,0:0:0:0:
448,192,8055,1,0,0:0:0:0:
64,192,8242,1,0,0:0:0:0:
320,192,8242,1,0,0:0:0:0:
64,192,8428,1,0,0:0:0:0:
448,192,8428,1,0,0:0:0:0:
192,192,8521,1,0,0:0:0:0:
320,192,8521,1,0,0:0:0:0:
448,192,8614,128,0,10012:0:0:0:0:
64,192,8614,128,0,8801:0:0:0:0:
320,192,8801,128,0,8987:0:0:0:0:
192,192,8801,1,0,0:0:0:0:
192,192,8987,128,0,9173:0:0:0:0:
64,192,8987,1,0,0:0:0:0:
64,192,9173,128,0,9360:0:0:0:0:
320,192,9173,1,0,0:0:0:0:
192,192,9360,128,0,9546:0:0:0:0:
320,192,9360,1,0,0:0:0:0:
320,192,9546,128,0,9825:0:0:0:0:
64,192,9546,1,0,0:0:0:0:
64,192,9732,128,0,9919:0:0:0:0:
192,192,9732,1,0,0:0:0:0:
192,192,9919,1,0,0:0:0:0:
320,192,10012,1,0,0:0:0:0:
64,192,10105,128,0,11409:0:0:0:0:
192,192,10105,128,0,10291:0:0:0:0:
448,192,10291,128,0,10478:0:0:0:0:
320,192,10291,1,0,0:0:0:0:
320,192,10478,128,0,10664:0:0:0:0:
192,192,10478,1,0,0:0:0:0:
192,192,10664,128,0,10850:0:0:0:0:
448,192,10664,1,0,0:0:0:0:
320,192,10850,128,0,11037:0:0:0:0:
448,192,10850,1,0,0:0:0:0:
448,192,11037,128,0,11409:0:0:0:0:
192,192,11037,1,0,0:0:0:0:
320,192,11223,1,0,0:0:0:0:
192,192,11223,128,0,11596:0:0:0:0:
320,192,11409,128,0,11596:0:0:0:0:
448,192,11596,128,0,13086:0:0:0:0:
64,192,11596,128,0,11782:0:0:0:0:
320,192,11782,128,0,11968:0:0:0:0:
192,192,11782,1,0,0:0:0:0:
192,192,11968,128,0,12155:0:0:0:0:
64,192,11968,1,0,0:0:0:0:
64,192,12155,128,0,12341:0:0:0:0:
320,192,12155,1,0,0:0:0:0:
192,192,12341,128,0,12527:0:0:0:0:
320,192,12341,1,0,0:0:0:0:
320,192,12527,128,0,12807:0:0:0:0:
64,192,12527,1,0,0:0:0:0:
64,192,12714,128,0,12900:0:0:0:0:
192,192,12714,1,0,0:0:0:0:
192,192,12900,1,0,0:0:0:0:
320,192,12993,1,0,0:0:0:0:
64,192,13086,128,0,14204:0:0:0:0:
192,192,13086,128,0,13273:0:0:0:0:
448,192,13273,128,0,13459:0:0:0:0:
320,192,13273,1,0,0:0:0:0:
320,192,13459,128,0,13645:0:0:0:0:
192,192,13459,1,0,0:0:0:0:
192,192,13645,128,0,13832:0:0:0:0:
448,192,13645,1,0,0:0:0:0:
320,192,13832,128,0,14018:0:0:0:0:
448,192,13832,1,0,0:0:0:0:
448,192,14018,128,0,14204:0:0:0:0:
192,192,14018,1,0,0:0:0:0:
320,192,14204,1,0,0:0:0:0:
192,192,14297,1,0,0:0:0:0:
64,192,14391,1,0,0:0:0:0:
448,192,14391,1,0,0:0:0:0:
320,192,14484,1,0,0:0:0:0:
192,192,14577,1,0,0:0:0:0:
448,192,14577,1,0,0:0:0:0:
64,192,14577,128,0,14670:0:0:0:0:
64,192,14763,128,0,14856:0:0:0:0:
64,192,14950,128,0,15043:0:0:0:0:
320,192,14950,1,0,0:0:0:0:
64,192,15136,128,0,15229:0:0:0:0:
448,192,15322,128,0,15415:0:0:0:0:
64,192,15322,128,0,15415:0:0:0:0:
192,192,15322,1,0,0:0:0:0:
448,192,15509,128,0,15602:0:0:0:0:
448,192,15695,128,0,15788:0:0:0:0:
64,192,15695,1,0,0:0:0:0:
448,192,15881,128,0,15974:0:0:0:0:
64,192,15974,1,0,0:0:0:0:
192,192,16068,128,0,16161:0:0:0:0:
448,192,16068,128,0,16161:0:0:0:0:
192,192,16254,128,0,16347:0:0:0:0:
64,192,16440,128,0,16533:0:0:0:0:
320,192,16440,1,0,0:0:0:0:
64,192,16627,128,0,16720:0:0:0:0:
192,192,16813,128,0,16906:0:0:0:0:
448,192,16813,1,0,0:0:0:0:
192,192,16999,128,0,17092:0:0:0:0:
320,192,17186,128,0,17279:0:0:0:0:
64,192,17186,1,0,0:0:0:0:
320,192,17372,128,0,17465:0:0:0:0:
64,192,17465,1,0,0:0:0:0:
448,192,17558,128,0,17651:0:0:0:0:
192,192,17558,1,0,0:0:0:0:
448,192,17745,128,0,17838:0:0:0:0:
448,192,17931,128,0,18024:0:0:0:0:
64,192,17931,1,0,0:0:0:0:
192,192,17931,1,0,0:0:0:0:
448,192,18117,128,0,18211:0:0:0:0:
64,192,18304,128,0,18397:0:0:0:0:
448,192,18304,128,0,18397:0:0:0:0:
192,192,18304,1,0,0:0:0:0:
64,192,18490,128,0,18583:0:0:0:0:
64,192,18676,128,0,18770:0:0:0:0:
320,192,18676,1,0,0:0:0:0:
448,192,18676,1,0,0:0:0:0:
64,192,18863,128,0,18956:0:0:0:0:
192,192,18956,1,0,0:0:0:0:
320,192,19049,128,0,19142:0:0:0:0:
64,192,19049,128,0,19142:0:0:0:0:
448,192,19049,1,0,0:0:0:0:
320,192,19235,128,0,19329:0:0:0:0:
448,192,19422,128,0,19515:0:0:0:0:
64,192,19422,1,0,0:0:0:0:
448,192,19608,128,0,19701:0:0:0:0:
192,192,19608,1,0,0:0:0:0:
320,192,19794,128,0,19888:0:0:0:0:
64,192,19794,1,0,0:0:0:0:
320,192,19981,128,0,20074:0:0:0:0:
64,192,19981,1,0,0:0:0:0:
192,192,20167,128,0,20260:0:0:0:0:
64,192,20167,1,0,0:0:0:0:
448,192,20167,1,0,0:0:0:0:
192,192,20353,128,0,20447:0:0:0:0:
448,192,20353,1,0,0:0:0:0:
320,192,20447,1,0,0:0:0:0:
64,192,20540,128,0,20633:0:0:0:0:
192,192,20540,1,0,0:0:0:0:
64,192,20726,128,0,20819:0:0:0:0:
320,192,20726,1,0,0:0:0:0:
64,192,20912,128,0,21006:0:0:0:0:
192,192,20912,1,0,0:0:0:0:
448,192,20912,1,0,0:0:0:0:
64,192,21099,128,0,21192:0:0:0:0:
320,192,21192,1,0,0:0:0:0:
448,192,21285,128,0,21378:0:0:0:0:
64,192,21285,128,0,21378:0:0:0:0:
192,192,21285,1,0,0:0:0:0:
448,192,21471,128,0,21565:0:0:0:0:
320,192,21471,1,0,0:0:0:0:
448,192,21658,128,0,21751:0:0:0:0:
64,192,21658,1,0,0:0:0:0:
192,192,21658,1,0,0:0:0:0:
448,192,21844,128,0,21937:0:0:0:0:
320,192,21844,1,0,0:0:0:0:
64,192,21937,1,0,0:0:0:0:
192,192,22030,128,0,22124:0:0:0:0:
448,192,22030,128,0,22124:0:0:0:0:
192,192,22217,128,0,22310:0:0:0:0:
64,192,22403,128,0,22496:0:0:0:0:
320,192,22403,1,0,0:0:0:0:
64,192,22589,128,0,22683:0:0:0:0:
192,192,22776,128,0,22869:0:0:0:0:
448,192,22776,1,0,0:0:0:0:
64,192,22962,128,0,23428:0:0:0:0:
448,192,23148,128,0,23428:0:0:0:0:
320,192,23148,128,0,23428:0:0:0:0:
192,192,23335,1,0,0:0:0:0:
448,192,23521,1,0,0:0:0:0:
320,192,23521,1,0,0:0:0:0:
64,192,23521,1,0,0:0:0:0:
64,192,23707,1,0,0:0:0:0:
448,192,23707,1,0,0:0:0:0:
192,192,23707,1,0,0:0:0:0:
192,192,23894,1,0,0:0:0:0:
320,192,23894,1,0,0:0:0:0:
64,192,24080,1,0,0:0:0:0:
192,192,24080,1,0,0:0:0:0:
320,192,24080,1,0,0:0:0:0:
448,192,24080,1,0,0:0:0:0:
192,192,24266,128,0,24919:0:0:0:0:
320,192,24266,128,0,24919:0:0:0:0:
64,192,24453,1,0,0:0:0:0:
448,192,24453,1,0,0:0:0:0:
64,192,24639,1,0,0:0:0:0:
448,192,24639,1,0,0:0:0:0:
64,192,24825,1,0,0:0:0:0:
448,192,24825,1,0,0:0:0:0:
64,192,25012,128,0,25105:0:0:0:0:
192,192,25105,128,0,25198:0:0:0:0:
448,192,25198,128,0,25291:0:0:0:0:
192,192,25291,128,0,25384:0:0:0:0:
320,192,25384,1,0,0:0:0:0:
64,192,25571,128,0,25850:0:0:0:0:
448,192,25571,128,0,25850:0:0:0:0:
448,192,25943,128,0,26037:0:0:0:0:
192,192,25943,1,0,0:0:0:0:
320,192,26037,128,0,26130:0:0:0:0:
64,192,26037,1,0,0:0:0:0:
192,192,26130,128,0,26223:0:0:0:0:
448,192,26130,1,0,0:0:0:0:
320,192,26223,1,0,0:0:0:0:
64,192,26223,128,0,26316:0:0:0:0:
448,192,26316,128,0,26409:0:0:0:0:
192,192,26316,1,0,0:0:0:0:
320,192,26409,128,0,26502:0:0:0:0:
64,192,26409,1,0,0:0:0:0:
192,192,26502,1,0,0:0:0:0:
320,192,26596,1,0,0:0:0:0:
448,192,26689,1,0,0:0:0:0:
64,192,26689,1,0,0:0:0:0:
192,192,26782,1,0,0:0:0:0:
64,192,26875,1,0,0:0:0:0:
448,192,26875,1,0,0:0:0:0:
320,192,26875,1,0,0:0:0:0:
192,192,26968,1,0,0:0:0:0:
320,192,27061,1,0,0:0:0:0:
448,192,27155,1,0,0:0:0:0:
64,192,27248,128,0,27527:0:0:0:0:
192,192,27248,1,0,0:0:0:0:
320,192,27248,128,0,27341:0:0:0:0:
448,192,27434,128,0,27714:0:0:0:0:
192,192,27434,128,0,27527:0:0:0:0:
320,192,27434,1,0,0:0:0:0:
64,192,27620,128,0,27900:0:0:0:0:
192,192,27620,1,0,0:0:0:0:
320,192,27620,128,0,27714:0:0:0:0:
448,192,27807,128,0,28086:0:0:0:0:
192,192,27807,128,0,27900:0:0:0:0:
320,192,27807,1,0,0:0:0:0:
192,192,27993,1,0,0:0:0:0:
64,192,27993,1,0,0:0:0:0:
320,192,28086,1,0,0:0:0:0:
192,192,28179,1,0,0:0:0:0:
64,192,28273,1,0,0:0:0:0:
448,192,28366,1,0,0:0:0:0:
192,192,28366,1,0,0:0:0:0:
320,192,28459,1,0,0:0:0:0:
192,192,28552,1,0,0:0:0:0:
64,192,28645,1,0,0:0:0:0:
320,192,28738,1,0,0:0:0:0:
448,192,28738,128,0,29018:0:0:0:0:
192,192,28738,128,0,28832:0:0:0:0:
192,192,28925,1,0,0:0:0:0:
64,192,28925,128,0,29204:0:0:0:0:
320,192,28925,128,0,29018:0:0:0:0:
320,192,29111,1,0,0:0:0:0:
448,192,29111,128,0,29391:0:0:0:0:
192,192,29111,128,0,29204:0:0:0:0:
192,192,29297,1,0,0:0:0:0:
64,192,29297,128,0,29577:0:0:0:0:
320,192,29297,128,0,29391:0:0:0:0:
320,192,29484,1,0,0:0:0:0:
448,192,29484,1,0,0:0:0:0:
192,192,29577,1,0,0:0:0:0:
320,192,29670,1,0,0:0:0:0:
448,192,29763,1,0,0:0:0:0:
64,192,29856,1,0,0:0:0:0:
320,192,29856,1,0,0:0:0:0:
192,192,29950,1,0,0:0:0:0:
320,192,30043,1,0,0:0:0:0:
448,192,30136,1,0,0:0:0:0:
64,192,30229,128,0,30509:0:0:0:0:
192,192,30229,1,0,0:0:0:0:
320,192,30229,128,0,30322:0:0:0:0:
448,192,30415,128,0,30695:0:0:0:0:
192,192,30415,128,0,30509:0:0:0:0:
320,192,30415,1,0,0:0:0:0:
64,192,30602,128,0,30881:0:0:0:0:
320,192,30602,128,0,30695:0:0:0:0:
192,192,30602,1,0,0:0:0:0:
448,192,30788,128,0,31068:0:0:0:0:
192,192,30788,128,0,30881:0:0:0:0:
320,192,30788,1,0,0:0:0:0:
64,192,30974,1,0,0:0:0:0:
192,192,30974,1,0,0:0:0:0:
320,192,31068,1,0,0:0:0:0:
192,192,31161,1,0,0:0:0:0:
64,192,31254,1,0,0:0:0:0:
192,192,31347,1,0,0:0:0:0:
448,192,31347,1,0,0:0:0:0:
320,192,31440,1,0,0:0:0:0:
192,192,31533,1,0,0:0:0:0:
64,192,31627,1,0,0:0:0:0:
320,192,31720,1,0,0:0:0:0:
448,192,31720,128,0,31999:0:0:0:0:
192,192,31720,128,0,31813:0:0:0:0:
192,192,31906,1,0,0:0:0:0:
64,192,31906,128,0,32186:0:0:0:0:
320,192,31906,128,0,31999:0:0:0:0:
320,192,32092,1,0,0:0:0:0:
192,192,32092,128,0,32186:0:0:0:0:
448,192,32092,128,0,32372:0:0:0:0:
192,192,32279,1,0,0:0:0:0:
320,192,32279,128,0,32372:0:0:0:0:
64,192,32279,128,0,32558:0:0:0:0:
320,192,32465,1,0,0:0:0:0:
448,192,32465,1,0,0:0:0:0:
192,192,32558,1,0,0:0:0:0:
320,192,32651,1,0,0:0:0:0:
448,192,32745,1,0,0:0:0:0:
64,192,32838,1,0,0:0:0:0:
320,192,32838,1,0,0:0:0:0:
192,192,32931,1,0,0:0:0:0:
320,192,33024,1,0,0:0:0:0:
448,192,33117,1,0,0:0:0:0:
192,192,33211,1,0,0:0:0:0:
64,192,33211,128,0,33490:0:0:0:0:
320,192,33211,128,0,33304:0:0:0:0:
320,192,33397,1,0,0:0:0:0:
192,192,33397,128,0,33490:0:0:0:0:
448,192,33397,128,0,33676:0:0:0:0:
192,192,33583,1,0,0:0:0:0:
320,192,33583,128,0,33676:0:0:0:0:
64,192,33583,128,0,33863:0:0:0:0:
320,192,33770,1,0,0:0:0:0:
192,192,33770,128,0,33863:0:0:0:0:
448,192,33770,128,0,34049:0:0:0:0:
64,192,33956,1,0,0:0:0:0:
192,192,33956,1,0,0:0:0:0:
320,192,34049,1,0,0:0:0:0:
192,192,34142,1,0,0:0:0:0:
64,192,34235,1,0,0:0:0:0:
192,192,34329,5,0,0:0:0:0:
448,192,34329,1,0,0:0:0:0:
320,192,34422,1,0,0:0:0:0:
192,192,34515,1,0,0:0:0:0:
64,192,34608,1,0,0:0:0:0:
320,192,34701,1,0,0:0:0:0:
448,192,34701,128,0,34981:0:0:0:0:
192,192,34701,128,0,34794:0:0:0:0:
192,192,34888,1,0,0:0:0:0:
64,192,34888,128,0,35447:0:0:0:0:
320,192,34888,128,0,34981:0:0:0:0:
320,192,35074,1,0,0:0:0:0:
192,192,35074,128,0,35167:0:0:0:0:
448,192,35074,128,0,35353:0:0:0:0:
192,192,35260,1,0,0:0:0:0:
320,192,35260,128,0,35353:0:0:0:0:
192,192,35447,1,0,0:0:0:0:
448,192,35447,128,0,35633:0:0:0:0:
320,192,35633,1,0,0:0:0:0:
64,192,35633,128,0,35819:0:0:0:0:
448,192,35819,128,0,36006:0:0:0:0:
192,192,35819,1,0,0:0:0:0:
64,192,36006,1,0,0:0:0:0:
192,192,36006,1,0,0:0:0:0:
448,192,36192,1,0,0:0:0:0:
320,192,36192,1,0,0:0:0:0:
64,192,36285,1,0,0:0:0:0:
192,192,36378,1,0,0:0:0:0:
448,192,36378,1,0,0:0:0:0:
320,192,36471,1,0,0:0:0:0:
64,192,36565,1,0,0:0:0:0:
448,192,36565,1,0,0:0:0:0:
192,192,36658,1,0,0:0:0:0:
64,192,36751,5,0,0:0:0:0:
320,192,36751,1,0,0:0:0:0:
448,192,36751,1,0,0:0:0:0:
320,192,37124,1,0,0:0:0:0:
448,192,37124,1,0,0:0:0:0:
64,192,37310,1,0,0:0:0:0:
192,192,37310,1,0,0:0:0:0:
448,192,37496,128,0,37683:0:0:0:0:
64,192,37683,1,0,0:0:0:0:
192,192,37683,1,0,0:0:0:0:
320,192,37683,1,0,0:0:0:0:
320,192,37869,1,0,0:0:0:0:
448,192,37869,1,0,0:0:0:0:
64,192,38242,1,0,0:0:0:0:
192,192,38242,1,0,0:0:0:0:
320,192,38242,1,0,0:0:0:0:
64,192,38428,128,0,38800:0:0:0:0:
192,192,38614,128,0,38893:0:0:0:0:
448,192,38800,1,0,0:0:0:0:
320,192,38800,128,0,38893:0:0:0:0:
192,192,38987,128,0,39266:0:0:0:0:
64,192,39173,128,0,39452:0:0:0:0:
320,192,39173,1,0,0:0:0:0:
448,192,39173,1,0,0:0:0:0:
192,192,39359,1,0,0:0:0:0:
320,192,39359,1,0,0:0:0:0:
64,192,39546,128,0,39732:0:0:0:0:
192,192,39546,128,0,39732:0:0:0:0:
320,192,39732,128,0,39918:0:0:0:0:
448,192,39732,128,0,39918:0:0:0:0:
64,192,39918,128,0,40198:0:0:0:0:
192,192,39918,1,0,0:0:0:0:
192,192,40105,128,0,40384:0:0:0:0:
320,192,40105,1,0,0:0:0:0:
448,192,40105,1,0,0:0:0:0:
320,192,40291,5,0,0:0:0:0:
64,192,40291,1,0,0:0:0:0:
192,192,40477,128,0,40757:0:0:0:0:
320,192,40477,1,0,0:0:0:0:
448,192,40477,1,0,0:0:0:0:
64,192,40664,128,0,41036:0:0:0:0:
320,192,40664,1,0,0:0:0:0:
320,192,41036,128,0,41409:0:0:0:0:
448,192,41036,1,0,0:0:0:0:
448,192,41409,5,0,0:0:0:0:
192,192,41409,128,0,41688:0:0:0:0:
64,192,41409,1,0,0:0:0:0:
320,192,41595,128,0,41875:0:0:0:0:
64,192,41782,1,0,0:0:0:0:
192,192,41782,1,0,0:0:0:0:
448,192,41782,1,0,0:0:0:0:
320,192,41968,128,0,42247:0:0:0:0:
192,192,42154,128,0,42434:0:0:0:0:
64,192,42154,1,0,0:0:0:0:
448,192,42154,1,0,0:0:0:0:
64,192,42341,128,0,42527:0:0:0:0:
320,192,42341,128,0,42527:0:0:0:0:
192,192,42527,128,0,42713:0:0:0:0:
448,192,42527,128,0,42713:0:0:0:0:
64,192,42713,128,0,42900:0:0:0:0:
320,192,42713,128,0,42900:0:0:0:0:
192,192,42900,128,0,43086:0:0:0:0:
448,192,43086,1,0,0:0:0:0:
64,192,43086,128,0,43272:0:0:0:0:
320,192,43272,128,0,43459:0:0:0:0:
64,192,43459,1,0,0:0:0:0:
448,192,43459,128,0,43645:0:0:0:0:
192,192,43645,128,0,43831:0:0:0:0:
320,192,43831,1,0,0:0:0:0:
64,192,43831,128,0,44018:0:0:0:0:
448,192,43831,1,0,0:0:0:0:
192,192,44018,1,0,0:0:0:0:
448,192,44018,1,0,0:0:0:0:
320,192,44204,1,0,0:0:0:0:
64,192,44204,1,0,0:0:0:0:
64,192,44390,5,0,0:0:0:0:
192,192,44390,1,0,0:0:0:0:
320,192,44483,1,0,0:0:0:0:
448,192,44577,1,0,0:0:0:0:
64,192,44577,1,0,0:0:0:0:
192,192,44670,1,0,0:0:0:0:
320,192,44763,1,0,0:0:0:0:
448,192,44763,1,0,0:0:0:0:
64,192,44856,1,0,0:0:0:0:
192,192,44856,1,0,0:0:0:0:
320,192,44949,1,0,0:0:0:0:
448,192,44949,1,0,0:0:0:0:
64,192,45042,1,0,0:0:0:0:
192,192,45042,1,0,0:0:0:0:
448,192,45136,1,0,0:0:0:0:
320,192,45229,1,0,0:0:0:0:
64,192,45229,1,0,0:0:0:0:
192,192,45322,1,0,0:0:0:0:
64,192,45415,1,0,0:0:0:0:
192,192,45508,1,0,0:0:0:0:
320,192,45508,1,0,0:0:0:0:
448,192,45601,1,0,0:0:0:0:
64,192,45601,1,0,0:0:0:0:
192,192,45695,1,0,0:0:0:0:
320,192,45695,1,0,0:0:0:0:
64,192,45788,1,0,0:0:0:0:
448,192,45788,1,0,0:0:0:0:
192,192,45881,1,0,0:0:0:0:
320,192,45974,1,0,0:0:0:0:
448,192,46067,1,0,0:0:0:0:
64,192,46067,1,0,0:0:0:0:
192,192,46160,1,0,0:0:0:0:
320,192,46254,1,0,0:0:0:0:
448,192,46254,1,0,0:0:0:0:
64,192,46347,1,0,0:0:0:0:
192,192,46347,1,0,0:0:0:0:
320,192,46440,1,0,0:0:0:0:
448,192,46440,1,0,0:0:0:0:
64,192,46533,1,0,0:0:0:0:
192,192,46533,1,0,0:0:0:0:
448,192,46626,1,0,0:0:0:0:
320,192,46719,1,0,0:0:0:0:
64,192,46719,1,0,0:0:0:0:
192,192,46813,1,0,0:0:0:0:
64,192,46906,1,0,0:0:0:0:
192,192,46999,1,0,0:0:0:0:
448,192,46999,1,0,0:0:0:0:
320,192,47092,1,0,0:0:0:0:
64,192,47092,1,0,0:0:0:0:
192,192,47185,1,0,0:0:0:0:
448,192,47185,1,0,0:0:0:0:
64,192,47278,1,0,0:0:0:0:
320,192,47278,1,0,0:0:0:0:
192,192,47372,1,0,0:0:0:0:
64,192,47465,1,0,0:0:0:0:
448,192,47558,1,0,0:0:0:0:
192,192,47558,1,0,0:0:0:0:
320,192,47651,1,0,0:0:0:0:
64,192,47744,1,0,0:0:0:0:
192,192,47744,1,0,0:0:0:0:
320,192,47837,1,0,0:0:0:0:
448,192,47837,1,0,0:0:0:0:
64,192,47931,1,0,0:0:0:0:
192,192,47931,1,0,0:0:0:0:
320,192,48024,1,0,0:0:0:0:
448,192,48024,1,0,0:0:0:0:
64,192,48117,1,0,0:0:0:0:
192,192,48210,1,0,0:0:0:0:
448,192,48303,1,0,0:0:0:0:
320,192,48303,1,0,0:0:0:0:
64,192,48396,1,0,0:0:0:0:
192,192,48490,1,0,0:0:0:0:
448,192,48490,1,0,0:0:0:0:
320,192,48583,1,0,0:0:0:0:
448,192,48676,1,0,0:0:0:0:
64,192,48862,5,0,0:0:0:0:
192,192,48862,1,0,0:0:0:0:
320,192,48862,1,0,0:0:0:0:
192,192,49049,1,0,0:0:0:0:
320,192,49049,1,0,0:0:0:0:
448,192,49049,1,0,0:0:0:0:
64,192,49235,1,0,0:0:0:0:
448,192,49235,1,0,0:0:0:0:
320,192,49235,1,0,0:0:0:0:
192,192,49608,1,0,0:0:0:0:
448,192,49608,128,0,49794:0:0:0:0:
64,192,49608,128,0,49794:0:0:0:0:
192,192,49794,1,0,0:0:0:0:
320,192,49794,1,0,0:0:0:0:
192,192,50167,1,0,0:0:0:0:
320,192,50167,1,0,0:0:0:0:
64,192,50167,1,0,0:0:0:0:
64,192,50353,128,0,50725:0:0:0:0:
192,192,50539,128,0,50818:0:0:0:0:
320,192,50725,1,0,0:0:0:0:
448,192,50725,1,0,0:0:0:0:
192,192,50912,128,0,51191:0:0:0:0:
64,192,51098,128,0,51377:0:0:0:0:
320,192,51098,1,0,0:0:0:0:
448,192,51098,1,0,0:0:0:0:
192,192,51284,1,0,0:0:0:0:
320,192,51284,1,0,0:0:0:0:
64,192,51471,128,0,51657:0:0:0:0:
192,192,51471,128,0,51657:0:0:0:0:
320,192,51657,128,0,51843:0:0:0:0:
448,192,51657,128,0,51843:0:0:0:0:
64,192,51843,128,0,52123:0:0:0:0:
192,192,51843,1,0,0:0:0:0:
192,192,52030,128,0,52309:0:0:0:0:
320,192,52030,1,0,0:0:0:0:
448,192,52030,1,0,0:0:0:0:
320,192,52216,5,0,0:0:0:0:
64,192,52216,1,0,0:0:0:0:
192,192,52402,128,0,52682:0:0:0:0:
320,192,52402,1,0,0:0:0:0:
448,192,52402,1,0,0:0:0:0:
64,192,52589,128,0,52961:0:0:0:0:
320,192,52589,1,0,0:0:0:0:
320,192,52961,128,0,53334:0:0:0:0:
448,192,52961,1,0,0:0:0:0:
448,192,53334,5,0,0:0:0:0:
192,192,53334,128,0,53613:0:0:0:0:
64,192,53334,1,0,0:0:0:0:
320,192,53520,128,0,53800:0:0:0:0:
64,192,53707,1,0,0:0:0:0:
192,192,53707,1,0,0:0:0:0:
448,192,53707,1,0,0:0:0:0:
320,192,53893,128,0,54172:0:0:0:0:
192,192,54079,128,0,54359:0:0:0:0:
64,192,54079,1,0,0:0:0:0:
448,192,54079,1,0,0:0:0:0:
64,192,54266,128,0,54452:0:0:0:0:
320,192,54266,128,0,54452:0:0:0:0:
192,192,54452,128,0,54638:0:0:0:0:
448,192,54452,128,0,54638:0:0:0:0:
64,192,54638,128,0,54825:0:0:0:0:
320,192,54638,128,0,54825:0:0:0:0:
192,192,54825,128,0,55011:0:0:0:0:
448,192,55011,1,0,0:0:0:0:
64,192,55011,128,0,55197:0:0:0:0:
320,192,55197,128,0,55384:0:0:0:0:
64,192,55384,1,0,0:0:0:0:
448,192,55384,128,0,55570:0:0:0:0:
192,192,55570,128,0,55756:0:0:0:0:
320,192,55756,1,0,0:0:0:0:
64,192,55756,128,0,55943:0:0:0:0:
448,192,55756,1,0,0:0:0:0:
192,192,55943,1,0,0:0:0:0:
448,192,55943,1,0,0:0:0:0:
64,192,56129,1,0,0:0:0:0:
320,192,56129,1,0,0:0:0:0:
64,192,56315,1,0,0:0:0:0:
192,192,56315,1,0,0:0:0:0:
448,192,56408,1,0,0:0:0:0:
320,192,56502,1,0,0:0:0:0:
64,192,56502,1,0,0:0:0:0:
192,192,56595,1,0,0:0:0:0:
64,192,56688,1,0,0:0:0:0:
448,192,56688,1,0,0:0:0:0:
192,192,56781,1,0,0:0:0:0:
320,192,56781,1,0,0:0:0:0:
64,192,56874,1,0,0:0:0:0:
448,192,56874,1,0,0:0:0:0:
192,192,56967,1,0,0:0:0:0:
320,192,56967,1,0,0:0:0:0:
64,192,57061,1,0,0:0:0:0:
192,192,57154,1,0,0:0:0:0:
448,192,57154,1,0,0:0:0:0:
320,192,57247,1,0,0:0:0:0:
448,192,57340,1,0,0:0:0:0:
64,192,57433,1,0,0:0:0:0:
192,192,57433,1,0,0:0:0:0:
320,192,57526,1,0,0:0:0:0:
448,192,57526,1,0,0:0:0:0:
64,192,57620,1,0,0:0:0:0:
192,192,57620,1,0,0:0:0:0:
320,192,57713,1,0,0:0:0:0:
448,192,57713,1,0,0:0:0:0:
192,192,57806,1,0,0:0:0:0:
64,192,57899,1,0,0:0:0:0:
448,192,57992,1,0,0:0:0:0:
192,192,57992,1,0,0:0:0:0:
320,192,58085,1,0,0:0:0:0:
64,192,58179,1,0,0:0:0:0:
192,192,58179,1,0,0:0:0:0:
320,192,58272,1,0,0:0:0:0:
448,192,58272,1,0,0:0:0:0:
64,192,58365,1,0,0:0:0:0:
192,192,58365,1,0,0:0:0:0:
320,192,58458,1,0,0:0:0:0:
448,192,58458,1,0,0:0:0:0:
64,192,58551,1,0,0:0:0:0:
192,192,58644,1,0,0:0:0:0:
448,192,58644,1,0,0:0:0:0:
320,192,58738,1,0,0:0:0:0:
192,192,58831,1,0,0:0:0:0:
64,192,58924,128,0,59110:0:0:0:0:
320,192,58924,128,0,59110:0:0:0:0:
448,192,58924,1,0,0:0:0:0:
448,192,59110,128,0,59297:0:0:0:0:
192,192,59110,128,0,59297:0:0:0:0:
320,192,59297,1,0,0:0:0:0:
64,192,59483,128,0,59669:0:0:0:0:
320,192,59483,128,0,59669:0:0:0:0:
448,192,59483,1,0,0:0:0:0:
192,192,59669,128,0,59856:0:0:0:0:
448,192,59669,128,0,59856:0:0:0:0:
64,192,59856,128,0,60042:0:0:0:0:
320,192,59856,128,0,60042:0:0:0:0:
192,192,60042,1,0,0:0:0:0:
64,192,60228,1,0,0:0:0:0:
320,192,60228,1,0,0:0:0:0:
448,192,60228,1,0,0:0:0:0:
448,192,60415,128,0,60601:0:0:0:0:
64,192,60415,128,0,60601:0:0:0:0:
192,192,60415,1,0,0:0:0:0:
192,192,60601,128,0,60974:0:0:0:0:
320,192,60601,1,0,0:0:0:0:
448,192,60694,1,0,0:0:0:0:
320,192,60787,1,0,0:0:0:0:
448,192,60880,1,0,0:0:0:0:
320,192,60974,1,0,0:0:0:0:
192,192,61067,1,0,0:0:0:0:
64,192,61160,1,0,0:0:0:0:
448,192,61160,1,0,0:0:0:0:
192,192,61346,1,0,0:0:0:0:
320,192,61346,1,0,0:0:0:0:
64,192,61346,1,0,0:0:0:0:
448,192,61439,1,0,0:0:0:0:
64,192,61533,1,0,0:0:0:0:
320,192,61533,1,0,0:0:0:0:
192,192,61626,1,0,0:0:0:0:
320,192,61719,1,0,0:0:0:0:
448,192,61719,1,0,0:0:0:0:
64,192,61905,128,0,62278:0:0:0:0:
192,192,61905,1,0,0:0:0:0:
320,192,62092,1,0,0:0:0:0:
448,192,62092,1,0,0:0:0:0:
448,192,62278,1,0,0:0:0:0:
192,192,62278,1,0,0:0:0:0:
64,192,63023,5,0,0:0:0:0:
192,192,63023,1,0,0:0:0:0:
320,192,63769,128,0,63862:0:0:0:0:
64,192,63769,128,0,64048:0:0:0:0:
448,192,63769,128,0,64514:0:0:0:0:
320,192,63955,128,0,64234:0:0:0:0:
192,192,63955,128,0,64048:0:0:0:0:
64,192,64141,128,0,64421:0:0:0:0:
192,192,64141,128,0,64234:0:0:0:0:
192,192,64328,128,0,64421:0:0:0:0:
320,192,64328,128,0,64514:0:0:0:0:
64,192,64514,128,0,64793:0:0:0:0:
192,192,64607,128,0,64700:0:0:0:0:
448,192,64700,128,0,64887:0:0:0:0:
320,192,64700,128,0,64887:0:0:0:0:
64,192,64887,128,0,65073:0:0:0:0:
192,192,64887,128,0,65073:0:0:0:0:
448,192,65073,128,0,65259:0:0:0:0:
320,192,65073,128,0,65352:0:0:0:0:
192,192,65166,128,0,65352:0:0:0:0:
64,192,65259,128,0,65446:0:0:0:0:
448,192,65352,128,0,65539:0:0:0:0:
320,192,65446,128,0,65725:0:0:0:0:
64,192,65632,1,0,0:0:0:0:
192,192,65632,128,0,65725:0:0:0:0:
448,192,65632,1,0,0:0:0:0:
192,192,65818,1,0,0:0:0:0:
320,192,65818,1,0,0:0:0:0:
64,192,66005,1,0,0:0:0:0:
192,192,66005,1,0,0:0:0:0:
448,192,66005,1,0,0:0:0:0:
64,192,66191,1,0,0:0:0:0:
320,192,66191,1,0,0:0:0:0:
448,192,66191,1,0,0:0:0:0:
64,192,66377,128,0,66564:0:0:0:0:
448,192,66377,128,0,66564:0:0:0:0:
192,192,66471,128,0,66657:0:0:0:0:
320,192,66564,128,0,66750:0:0:0:0:
448,192,66657,128,0,66843:0:0:0:0:
64,192,66750,128,0,66936:0:0:0:0:
192,192,66750,128,0,67030:0:0:0:0:
320,192,66843,128,0,67030:0:0:0:0:
448,192,66936,128,0,67216:0:0:0:0:
64,192,67123,1,0,0:0:0:0:
192,192,67123,128,0,67216:0:0:0:0:
320,192,67123,1,0,0:0:0:0:
192,192,67309,1,0,0:0:0:0:
448,192,67309,1,0,0:0:0:0:
64,192,67495,1,0,0:0:0:0:
320,192,67495,1,0,0:0:0:0:
64,192,67682,1,0,0:0:0:0:
192,192,67682,1,0,0:0:0:0:
64,192,67868,1,0,0:0:0:0:
448,192,67868,128,0,68054:0:0:0:0:
320,192,67961,128,0,68148:0:0:0:0:
192,192,68054,128,0,68241:0:0:0:0:
64,192,68148,128,0,68334:0:0:0:0:
448,192,68241,1,0,0:0:0:0:
320,192,68241,128,0,68427:0:0:0:0:
192,192,68334,128,0,68520:0:0:0:0:
64,192,68427,128,0,68613:0:0:0:0:
448,192,68613,1,0,0:0:0:0:
192,192,68613,128,0,68800:0:0:0:0:
320,192,68707,128,0,68893:0:0:0:0:
448,192,68800,128,0,68893:0:0:0:0:
64,192,68800,128,0,68986:0:0:0:0:
192,192,68893,128,0,69079:0:0:0:0:
448,192,68986,128,0,69172:0:0:0:0:
320,192,69079,128,0,69452:0:0:0:0:
64,192,69172,1,0,0:0:0:0:
192,192,69172,128,0,69359:0:0:0:0:
64,192,69359,128,0,69638:0:0:0:0:
448,192,69359,128,0,69545:0:0:0:0:
320,192,69545,1,0,0:0:0:0:
192,192,69638,1,0,0:0:0:0:
64,192,69731,128,0,70570:0:0:0:0:
320,192,69731,128,0,69825:0:0:0:0:
448,192,69731,128,0,70011:0:0:0:0:
192,192,69918,128,0,70197:0:0:0:0:
320,192,69918,128,0,70011:0:0:0:0:
320,192,70104,128,0,70197:0:0:0:0:
448,192,70104,128,0,70384:0:0:0:0:
320,192,70290,128,0,70384:0:0:0:0:
192,192,70290,128,0,70477:0:0:0:0:
448,192,70477,128,0,70663:0:0:0:0:
320,192,70570,128,0,70756:0:0:0:0:
192,192,70663,128,0,70849:0:0:0:0:
64,192,70663,128,0,70849:0:0:0:0:
320,192,70849,128,0,71036:0:0:0:0:
448,192,70849,128,0,71036:0:0:0:0:
64,192,71036,128,0,71222:0:0:0:0:
192,192,71036,128,0,71222:0:0:0:0:
448,192,71129,128,0,71315:0:0:0:0:
320,192,71222,128,0,71502:0:0:0:0:
192,192,71315,128,0,71688:0:0:0:0:
64,192,71408,128,0,71502:0:0:0:0:
448,192,71595,1,0,0:0:0:0:
64,192,71595,1,0,0:0:0:0:
320,192,71595,128,0,71688:0:0:0:0:
192,192,71781,1,0,0:0:0:0:
320,192,71781,1,0,0:0:0:0:
448,192,71967,1,0,0:0:0:0:
320,192,71967,1,0,0:0:0:0:
64,192,71967,1,0,0:0:0:0:
64,192,72154,1,0,0:0:0:0:
192,192,72154,1,0,0:0:0:0:
448,192,72154,1,0,0:0:0:0:
64,192,72340,1,0,0:0:0:0:
448,192,72340,128,0,72526:0:0:0:0:
320,192,72340,128,0,72526:0:0:0:0:
192,192,72433,128,0,72620:0:0:0:0:
64,192,72526,128,0,72713:0:0:0:0:
320,192,72620,128,0,72806:0:0:0:0:
192,192,72713,128,0,72992:0:0:0:0:
448,192,72806,128,0,72992:0:0:0:0:
64,192,72899,128,0,73179:0:0:0:0:
448,192,73085,1,0,0:0:0:0:
320,192,73085,128,0,73179:0:0:0:0:
192,192,73085,1,0,0:0:0:0:
320,192,73272,1,0,0:0:0:0:
64,192,73272,128,0,73458:0:0:0:0:
192,192,73458,1,0,0:0:0:0:
448,192,73458,128,0,73644:0:0:0:0:
64,192,73644,1,0,0:0:0:0:
320,192,73644,128,0,73831:0:0:0:0:
64,192,73831,128,0,74017:0:0:0:0:
192,192,73924,128,0,74110:0:0:0:0:
448,192,74017,128,0,74203:0:0:0:0:
320,192,74110,128,0,74297:0:0:0:0:
192,192,74203,128,0,74390:0:0:0:0:
448,192,74297,128,0,74390:0:0:0:0:
320,192,74390,128,0,74483:0:0:0:0:
64,192,74390,128,0,74576:0:0:0:0:
192,192,74483,128,0,74576:0:0:0:0:
320,192,74576,1,0,0:0:0:0:
448,192,74576,128,0,74762:0:0:0:0:
64,192,74669,128,0,74762:0:0:0:0:
320,192,74762,1,0,0:0:0:0:
192,192,74762,128,0,74949:0:0:0:0:
64,192,74856,128,0,75042:0:0:0:0:
320,192,74949,1,0,0:0:0:0:
448,192,74949,128,0,75135:0:0:0:0:
192,192,75042,128,0,75228:0:0:0:0:
64,192,75135,1,0,0:0:0:0:
320,192,75135,128,0,75228:0:0:0:0:
448,192,75228,128,0,75415:0:0:0:0:
320,192,75321,1,0,0:0:0:0:
64,192,75321,128,0,75508:0:0:0:0:
192,192,75415,128,0,75601:0:0:0:0:
320,192,75508,128,0,75601:0:0:0:0:
448,192,75508,1,0,0:0:0:0:
320,192,75694,128,0,75787:0:0:0:0:
64,192,75694,128,0,75974:0:0:0:0:
448,192,75694,128,0,76439:0:0:0:0:
320,192,75880,128,0,76160:0:0:0:0:
192,192,75880,128,0,75974:0:0:0:0:
64,192,76067,128,0,76346:0:0:0:0:
192,192,76067,128,0,76160:0:0:0:0:
192,192,76253,128,0,76346:0:0:0:0:
320,192,76253,128,0,76439:0:0:0:0:
64,192,76439,128,0,76719:0:0:0:0:
192,192,76533,128,0,76626:0:0:0:0:
448,192,76626,128,0,76812:0:0:0:0:
320,192,76626,128,0,76812:0:0:0:0:
64,192,76812,128,0,76998:0:0:0:0:
192,192,76812,128,0,76998:0:0:0:0:
448,192,76998,128,0,77185:0:0:0:0:
320,192,76998,128,0,77278:0:0:0:0:
192,192,77092,128,0,77278:0:0:0:0:
64,192,77185,128,0,77371:0:0:0:0:
448,192,77278,128,0,77464:0:0:0:0:
320,192,77371,128,0,77651:0:0:0:0:
64,192,77557,1,0,0:0:0:0:
192,192,77557,128,0,77651:0:0:0:0:
448,192,77557,1,0,0:0:0:0:
192,192,77744,1,0,0:0:0:0:
320,192,77744,1,0,0:0:0:0:
64,192,77930,1,0,0:0:0:0:
192,192,77930,1,0,0:0:0:0:
448,192,77930,1,0,0:0:0:0:
64,192,78116,1,0,0:0:0:0:
320,192,78116,1,0,0:0:0:0:
448,192,78116,1,0,0:0:0:0:
64,192,78303,128,0,78489:0:0:0:0:
448,192,78303,128,0,78489:0:0:0:0:
192,192,78396,128,0,78582:0:0:0:0:
320,192,78489,128,0,78675:0:0:0:0:
448,192,78582,128,0,78769:0:0:0:0:
64,192,78675,128,0,78862:0:0:0:0:
192,192,78675,128,0,78955:0:0:0:0:
320,192,78769,128,0,78955:0:0:0:0:
448,192,78862,128,0,79141:0:0:0:0:
64,192,79048,1,0,0:0:0:0:
192,192,79048,128,0,79141:0:0:0:0:
320,192,79048,1,0,0:0:0:0:
192,192,79234,1,0,0:0:0:0:
448,192,79234,1,0,0:0:0:0:
64,192,79421,1,0,0:0:0:0:
320,192,79421,1,0,0:0:0:0:
64,192,79607,1,0,0:0:0:0:
192,192,79607,1,0,0:0:0:0:
64,192,79793,1,0,0:0:0:0:
448,192,79793,128,0,79980:0:0:0:0:
320,192,79887,128,0,80073:0:0:0:0:
192,192,79980,128,0,80166:0:0:0:0:
64,192,80073,128,0,80259:0:0:0:0:
448,192,80166,1,0,0:0:0:0:
320,192,80166,128,0,80352:0:0:0:0:
192,192,80259,128,0,80446:0:0:0:0:
64,192,80352,128,0,80539:0:0:0:0:
448,192,80539,5,0,0:0:0:0:
192,192,80539,128,0,80725:0:0:0:0:
320,192,80632,128,0,80818:0:0:0:0:
448,192,80725,128,0,80818:0:0:0:0:
64,192,80725,128,0,80912:0:0:0:0:
192,192,80818,128,0,81005:0:0:0:0:
448,192,80912,128,0,81098:0:0:0:0:
320,192,81005,128,0,81377:0:0:0:0:
64,192,81098,1,0,0:0:0:0:
192,192,81098,128,0,81284:0:0:0:0:
64,192,81284,128,0,81564:0:0:0:0:
448,192,81284,128,0,81471:0:0:0:0:
320,192,81471,1,0,0:0:0:0:
192,192,81564,1,0,0:0:0:0:
64,192,81657,128,0,82495:0:0:0:0:
320,192,81657,128,0,81750:0:0:0:0:
448,192,81657,128,0,81936:0:0:0:0:
192,192,81843,128,0,82123:0:0:0:0:
320,192,81843,128,0,81936:0:0:0:0:
320,192,82030,128,0,82123:0:0:0:0:
448,192,82030,128,0,82309:0:0:0:0:
320,192,82216,128,0,82309:0:0:0:0:
192,192,82216,128,0,82402:0:0:0:0:
448,192,82402,128,0,82589:0:0:0:0:
320,192,82495,128,0,82682:0:0:0:0:
192,192,82589,128,0,82775:0:0:0:0:
64,192,82589,128,0,82775:0:0:0:0:
320,192,82775,128,0,82961:0:0:0:0:
448,192,82775,128,0,82961:0:0:0:0:
64,192,82961,128,0,83148:0:0:0:0:
192,192,82961,128,0,83148:0:0:0:0:
448,192,83054,128,0,83241:0:0:0:0:
320,192,83148,128,0,83427:0:0:0:0:
192,192,83241,128,0,83613:0:0:0:0:
64,192,83334,128,0,83427:0:0:0:0:
448,192,83520,1,0,0:0:0:0:
64,192,83520,1,0,0:0:0:0:
320,192,83520,128,0,83613:0:0:0:0:
192,192,83707,1,0,0:0:0:0:
320,192,83707,1,0,0:0:0:0:
448,192,83893,1,0,0:0:0:0:
320,192,83893,1,0,0:0:0:0:
64,192,83893,1,0,0:0:0:0:
64,192,84079,1,0,0:0:0:0:
192,192,84079,1,0,0:0:0:0:
448,192,84079,1,0,0:0:0:0:
64,192,84266,1,0,0:0:0:0:
448,192,84266,128,0,84452:0:0:0:0:
320,192,84266,128,0,84452:0:0:0:0:
192,192,84359,128,0,84545:0:0:0:0:
64,192,84452,128,0,84638:0:0:0:0:
320,192,84545,128,0,84731:0:0:0:0:
192,192,84638,128,0,84918:0:0:0:0:
448,192,84731,128,0,84918:0:0:0:0:
64,192,84825,128,0,85104:0:0:0:0:
448,192,85011,1,0,0:0:0:0:
320,192,85011,128,0,85104:0:0:0:0:
192,192,85011,1,0,0:0:0:0:
320,192,85197,1,0,0:0:0:0:
64,192,85197,128,0,85384:0:0:0:0:
192,192,85384,1,0,0:0:0:0:
448,192,85384,128,0,85570:0:0:0:0:
64,192,85570,1,0,0:0:0:0:
320,192,85570,128,0,85756:0:0:0:0:
64,192,85756,128,0,85943:0:0:0:0:
192,192,85849,128,0,86036:0:0:0:0:
448,192,85943,128,0,86129:0:0:0:0:
320,192,86036,128,0,86222:0:0:0:0:
192,192,86129,128,0,86315:0:0:0:0:
448,192,86222,128,0,86315:0:0:0:0:
320,192,86315,128,0,86408:0:0:0:0:
64,192,86315,128,0,86502:0:0:0:0:
192,192,86408,128,0,86502:0:0:0:0:
448,192,86502,128,0,86595:0:0:0:0:
320,192,86595,128,0,86688:0:0:0:0:
64,192,86688,128,0,86781:0:0:0:0:
192,192,86781,128,0,86874:0:0:0:0:
448,192,86874,128,0,86967:0:0:0:0:
320,192,86967,128,0,87061:0:0:0:0:
64,192,87061,128,0,87154:0:0:0:0:
192,192,87154,128,0,87247:0:0:0:0:
448,192,87247,128,0,87340:0:0:0:0:
320,192,87340,128,0,87433:0:0:0:0:
64,192,87433,128,0,87526:0:0:0:0:
192,192,87526,128,0,87620:0:0:0:0:
64,192,87620,5,0,0:0:0:0:
448,192,87620,1,0,0:0:0:0:
320,192,87620,1,0,0:0:0:0:
64,192,87806,1,0,0:0:0:0:
448,192,87806,1,0,0:0:0:0:
192,192,87806,1,0,0:0:0:0:
192,192,87992,128,0,88365:0:0:0:0:
320,192,87992,128,0,88365:0:0:0:0:
64,192,88179,1,0,0:0:0:0:
448,192,88179,1,0,0:0:0:0:
64,192,88551,1,0,0:0:0:0:
192,192,88551,1,0,0:0:0:0:
448,192,88551,1,0,0:0:0:0:
64,192,88924,1,0,0:0:0:0:
320,192,88924,1,0,0:0:0:0:
448,192,88924,128,0,89297:0:0:0:0:
64,192,89110,1,0,0:0:0:0:
192,192,89203,1,0,0:0:0:0:
320,192,89297,1,0,0:0:0:0:
64,192,89483,1,0,0:0:0:0:
192,192,89483,1,0,0:0:0:0:
448,192,89483,1,0,0:0:0:0:
448,192,89669,1,0,0:0:0:0:
64,192,89669,1,0,0:0:0:0:
192,192,89762,1,0,0:0:0:0:
320,192,89856,1,0,0:0:0:0:
448,192,89949,1,0,0:0:0:0:
64,192,90042,1,0,0:0:0:0:
192,192,90042,1,0,0:0:0:0:
320,192,90042,1,0,0:0:0:0:
448,192,90228,1,0,0:0:0:0:
64,192,90228,1,0,0:0:0:0:
192,192,90415,1,0,0:0:0:0:
448,192,90415,1,0,0:0:0:0:
320,192,90415,1,0,0:0:0:0:
64,192,90508,1,0,0:0:0:0:
448,192,90601,1,0,0:0:0:0:
192,192,90601,1,0,0:0:0:0:
320,192,90694,1,0,0:0:0:0:
64,192,90787,1,0,0:0:0:0:
192,192,90787,1,0,0:0:0:0:
448,192,90787,1,0,0:0:0:0:
64,192,90974,1,0,0:0:0:0:
320,192,90974,1,0,0:0:0:0:
448,192,90974,1,0,0:0:0:0:
64,192,91160,1,0,0:0:0:0:
448,192,91160,1,0,0:0:0:0:
320,192,91253,1,0,0:0:0:0:
192,192,91346,1,0,0:0:0:0:
64,192,91439,1,0,0:0:0:0:
192,192,91533,1,0,0:0:0:0:
320,192,91533,1,0,0:0:0:0:
448,192,91533,1,0,0:0:0:0:
448,192,91719,1,0,0:0:0:0:
64,192,91719,128,0,92092:0:0:0:0:
192,192,91905,1,0,0:0:0:0:
320,192,91905,1,0,0:0:0:0:
448,192,91905,128,0,92278:0:0:0:0:
192,192,92092,1,0,0:0:0:0:
320,192,92092,1,0,0:0:0:0:
64,192,92185,1,0,0:0:0:0:
192,192,92278,1,0,0:0:0:0:
320,192,92278,1,0,0:0:0:0:
64,192,92464,1,0,0:0:0:0:
192,192,92464,1,0,0:0:0:0:
448,192,92464,1,0,0:0:0:0:
64,192,92651,1,0,0:0:0:0:
448,192,92651,1,0,0:0:0:0:
320,192,92744,1,0,0:0:0:0:
192,192,92837,1,0,0:0:0:0:
64,192,92930,1,0,0:0:0:0:
192,192,93023,1,0,0:0:0:0:
320,192,93023,1,0,0:0:0:0:
448,192,93023,1,0,0:0:0:0:
64,192,93210,1,0,0:0:0:0:
448,192,93210,1,0,0:0:0:0:
64,192,93396,1,0,0:0:0:0:
320,192,93396,1,0,0:0:0:0:
192,192,93396,1,0,0:0:0:0:
448,192,93489,1,0,0:0:0:0:
64,192,93582,1,0,0:0:0:0:
320,192,93582,1,0,0:0:0:0:
192,192,93675,1,0,0:0:0:0:
320,192,93769,1,0,0:0:0:0:
448,192,93769,1,0,0:0:0:0:
64,192,93769,1,0,0:0:0:0:
64,192,93955,5,0,0:0:0:0:
192,192,93955,1,0,0:0:0:0:
448,192,93955,1,0,0:0:0:0:
64,192,94141,1,0,0:0:0:0:
448,192,94141,1,0,0:0:0:0:
192,192,94234,1,0,0:0:0:0:
320,192,94328,1,0,0:0:0:0:
448,192,94421,1,0,0:0:0:0:
64,192,94514,1,0,0:0:0:0:
192,192,94514,1,0,0:0:0:0:
320,192,94514,1,0,0:0:0:0:
448,192,94700,1,0,0:0:0:0:
64,192,94700,1,0,0:0:0:0:
192,192,94887,1,0,0:0:0:0:
320,192,94887,1,0,0:0:0:0:
448,192,94887,1,0,0:0:0:0:
320,192,94980,1,0,0:0:0:0:
64,192,95073,128,0,95166:0:0:0:0:
192,192,95073,1,0,0:0:0:0:
64,192,95259,128,0,95352:0:0:0:0:
448,192,95259,1,0,0:0:0:0:
64,192,95446,128,0,95539:0:0:0:0:
192,192,95446,1,0,0:0:0:0:
320,192,95446,1,0,0:0:0:0:
64,192,95632,128,0,95725:0:0:0:0:
448,192,95632,1,0,0:0:0:0:
320,192,95818,128,0,95912:0:0:0:0:
64,192,95818,1,0,0:0:0:0:
320,192,96005,128,0,96098:0:0:0:0:
320,192,96191,128,0,96284:0:0:0:0:
448,192,96191,1,0,0:0:0:0:
320,192,96377,128,0,96471:0:0:0:0:
192,192,96564,128,0,96657:0:0:0:0:
448,192,96564,1,0,0:0:0:0:
64,192,96564,1,0,0:0:0:0:
192,192,96750,128,0,96843:0:0:0:0:
192,192,96936,128,0,97030:0:0:0:0:
64,192,96936,1,0,0:0:0:0:
192,192,97123,128,0,97216:0:0:0:0:
448,192,97309,128,0,97402:0:0:0:0:
64,192,97309,1,0,0:0:0:0:
192,192,97309,1,0,0:0:0:0:
448,192,97495,128,0,97589:0:0:0:0:
192,192,97495,1,0,0:0:0:0:
448,192,97682,128,0,97775:0:0:0:0:
64,192,97682,128,0,98054:0:0:0:0:
192,192,97682,1,0,0:0:0:0:
448,192,97868,128,0,97961:0:0:0:0:
320,192,97868,128,0,98054:0:0:0:0:
192,192,98054,1,0,0:0:0:0:
64,192,98148,1,0,0:0:0:0:
448,192,98241,1,0,0:0:0:0:
192,192,98241,1,0,0:0:0:0:
320,192,98334,1,0,0:0:0:0:
64,192,98427,1,0,0:0:0:0:
192,192,98427,1,0,0:0:0:0:
320,192,98520,1,0,0:0:0:0:
448,192,98520,1,0,0:0:0:0:
64,192,98613,1,0,0:0:0:0:
192,192,98613,1,0,0:0:0:0:
320,192,98707,1,0,0:0:0:0:
448,192,98707,1,0,0:0:0:0:
64,192,98800,1,0,0:0:0:0:
192,192,98893,1,0,0:0:0:0:
448,192,98986,1,0,0:0:0:0:
320,192,98986,1,0,0:0:0:0:
192,192,99079,1,0,0:0:0:0:
64,192,99172,1,0,0:0:0:0:
448,192,99172,1,0,0:0:0:0:
192,192,99266,1,0,0:0:0:0:
320,192,99266,1,0,0:0:0:0:
64,192,99359,1,0,0:0:0:0:
448,192,99359,1,0,0:0:0:0:
192,192,99452,1,0,0:0:0:0:
320,192,99452,1,0,0:0:0:0:
448,192,99545,1,0,0:0:0:0:
320,192,99638,1,0,0:0:0:0:
64,192,99638,1,0,0:0:0:0:
192,192,99731,1,0,0:0:0:0:
320,192,99825,1,0,0:0:0:0:
448,192,99918,5,0,0:0:0:0:
192,192,99918,1,0,0:0:0:0:
64,192,100011,1,0,0:0:0:0:
320,192,100011,1,0,0:0:0:0:
192,192,100104,1,0,0:0:0:0:
448,192,100104,1,0,0:0:0:0:
64,192,100197,1,0,0:0:0:0:
320,192,100197,1,0,0:0:0:0:
192,192,100290,1,0,0:0:0:0:
64,192,100384,1,0,0:0:0:0:
448,192,100477,1,0,0:0:0:0:
192,192,100477,1,0,0:0:0:0:
320,192,100570,1,0,0:0:0:0:
64,192,100663,1,0,0:0:0:0:
192,192,100663,1,0,0:0:0:0:
320,192,100756,1,0,0:0:0:0:
448,192,100756,1,0,0:0:0:0:
64,192,100849,1,0,0:0:0:0:
192,192,100849,1,0,0:0:0:0:
320,192,100943,1,0,0:0:0:0:
448,192,100943,1,0,0:0:0:0:
192,192,101036,1,0,0:0:0:0:
64,192,101036,128,0,101222:0:0:0:0:
192,192,101222,1,0,0:0:0:0:
448,192,101222,1,0,0:0:0:0:
320,192,101222,128,0,101408:0:0:0:0:
64,192,101408,128,0,101595:0:0:0:0:
192,192,101408,1,0,0:0:0:0:
448,192,101408,1,0,0:0:0:0:
448,192,101595,128,0,101781:0:0:0:0:
320,192,101595,1,0,0:0:0:0:
192,192,101781,128,0,101967:0:0:0:0:
64,192,101781,1,0,0:0:0:0:
320,192,101781,1,0,0:0:0:0:
448,192,101967,128,0,102154:0:0:0:0:
64,192,101967,1,0,0:0:0:0:
320,192,102154,128,0,102340:0:0:0:0:
192,192,102154,1,0,0:0:0:0:
64,192,102154,1,0,0:0:0:0:
192,192,102340,128,0,102526:0:0:0:0:
448,192,102340,1,0,0:0:0:0:
64,192,102340,1,0,0:0:0:0:
64,192,102526,128,0,102713:0:0:0:0:
320,192,102526,1,0,0:0:0:0:
448,192,102526,1,0,0:0:0:0:
320,192,102713,128,0,102899:0:0:0:0:
192,192,102713,1,0,0:0:0:0:
448,192,102713,1,0,0:0:0:0:
64,192,102899,128,0,103085:0:0:0:0:
192,192,102899,1,0,0:0:0:0:
448,192,102899,1,0,0:0:0:0:
320,192,102992,1,0,0:0:0:0:
448,192,103085,128,0,103179:0:0:0:0:
192,192,103272,1,0,0:0:0:0:
64,192,103272,1,0,0:0:0:0:
320,192,103365,1,0,0:0:0:0:
448,192,103365,1,0,0:0:0:0:
64,192,103458,1,0,0:0:0:0:
192,192,103458,1,0,0:0:0:0:
320,192,103551,1,0,0:0:0:0:
448,192,103551,1,0,0:0:0:0:
64,192,103644,1,0,0:0:0:0:
192,192,103644,1,0,0:0:0:0:
320,192,103738,1,0,0:0:0:0:
448,192,103738,1,0,0:0:0:0:
64,192,103831,1,0,0:0:0:0:
192,192,103831,1,0,0:0:0:0:
320,192,103924,1,0,0:0:0:0:
448,192,103924,1,0,0:0:0:0:
192,192,104017,1,0,0:0:0:0:
64,192,104017,128,0,104110:0:0:0:0:
64,192,104203,128,0,104297:0:0:0:0:
448,192,104203,1,0,0:0:0:0:
64,192,104390,128,0,104483:0:0:0:0:
320,192,104390,1,0,0:0:0:0:
192,192,104390,1,0,0:0:0:0:
64,192,104576,128,0,104669:0:0:0:0:
448,192,104576,1,0,0:0:0:0:
448,192,104762,128,0,104856:0:0:0:0:
64,192,104762,128,0,104856:0:0:0:0:
192,192,104762,1,0,0:0:0:0:
448,192,104949,128,0,105042:0:0:0:0:
192,192,104949,1,0,0:0:0:0:
448,192,105135,128,0,105228:0:0:0:0:
64,192,105135,1,0,0:0:0:0:
448,192,105321,128,0,105415:0:0:0:0:
64,192,105415,1,0,0:0:0:0:
192,192,105508,128,0,105601:0:0:0:0:
448,192,105508,128,0,105601:0:0:0:0:
192,192,105694,128,0,105787:0:0:0:0:
64,192,105880,128,0,105974:0:0:0:0:
320,192,105880,1,0,0:0:0:0:
64,192,106067,128,0,106160:0:0:0:0:
192,192,106253,128,0,106346:0:0:0:0:
448,192,106253,1,0,0:0:0:0:
192,192,106439,128,0,106533:0:0:0:0:
320,192,106626,128,0,106719:0:0:0:0:
64,192,106626,1,0,0:0:0:0:
320,192,106812,128,0,106905:0:0:0:0:
64,192,106905,1,0,0:0:0:0:
448,192,106998,128,0,107092:0:0:0:0:
192,192,106998,1,0,0:0:0:0:
448,192,107185,128,0,107278:0:0:0:0:
192,192,107185,1,0,0:0:0:0:
448,192,107371,128,0,107464:0:0:0:0:
192,192,107371,1,0,0:0:0:0:
64,192,107371,1,0,0:0:0:0:
448,192,107557,128,0,107651:0:0:0:0:
192,192,107557,1,0,0:0:0:0:
64,192,107744,128,0,107837:0:0:0:0:
448,192,107744,128,0,107837:0:0:0:0:
192,192,107744,1,0,0:0:0:0:
64,192,107930,128,0,108023:0:0:0:0:
320,192,107930,1,0,0:0:0:0:
64,192,108116,128,0,108210:0:0:0:0:
320,192,108116,1,0,0:0:0:0:
448,192,108116,1,0,0:0:0:0:
64,192,108303,128,0,108396:0:0:0:0:
320,192,108303,1,0,0:0:0:0:
192,192,108396,1,0,0:0:0:0:
320,192,108489,128,0,108582:0:0:0:0:
64,192,108489,128,0,108582:0:0:0:0:
448,192,108489,1,0,0:0:0:0:
320,192,108675,128,0,108769:0:0:0:0:
448,192,108862,128,0,108955:0:0:0:0:
64,192,108862,1,0,0:0:0:0:
448,192,109048,128,0,109141:0:0:0:0:
192,192,109048,1,0,0:0:0:0:
320,192,109234,128,0,109328:0:0:0:0:
64,192,109234,1,0,0:0:0:0:
320,192,109421,128,0,109514:0:0:0:0:
64,192,109421,1,0,0:0:0:0:
192,192,109607,128,0,109700:0:0:0:0:
64,192,109607,1,0,0:0:0:0:
448,192,109607,1,0,0:0:0:0:
192,192,109793,128,0,109887:0:0:0:0:
448,192,109793,1,0,0:0:0:0:
320,192,109887,1,0,0:0:0:0:
64,192,109980,128,0,110073:0:0:0:0:
192,192,109980,1,0,0:0:0:0:
64,192,110166,128,0,110259:0:0:0:0:
320,192,110166,1,0,0:0:0:0:
64,192,110352,128,0,110446:0:0:0:0:
192,192,110352,1,0,0:0:0:0:
448,192,110352,1,0,0:0:0:0:
64,192,110539,128,0,110632:0:0:0:0:
320,192,110632,1,0,0:0:0:0:
448,192,110725,128,0,110818:0:0:0:0:
64,192,110725,128,0,110818:0:0:0:0:
192,192,110725,1,0,0:0:0:0:
448,192,110912,128,0,111005:0:0:0:0:
320,192,110912,1,0,0:0:0:0:
448,192,111098,128,0,111191:0:0:0:0:
64,192,111098,1,0,0:0:0:0:
192,192,111098,1,0,0:0:0:0:
448,192,111284,128,0,111377:0:0:0:0:
320,192,111284,1,0,0:0:0:0:
64,192,111377,1,0,0:0:0:0:
192,192,111471,128,0,111564:0:0:0:0:
448,192,111471,128,0,111564:0:0:0:0:
192,192,111657,128,0,111750:0:0:0:0:
64,192,111843,128,0,111936:0:0:0:0:
320,192,111843,1,0,0:0:0:0:
64,192,112030,128,0,112123:0:0:0:0:
192,192,112216,128,0,112309:0:0:0:0:
448,192,112216,1,0,0:0:0:0:
64,192,112402,128,0,112961:0:0:0:0:
448,192,112589,128,0,112868:0:0:0:0:
320,192,112589,1,0,0:0:0:0:
192,192,112589,1,0,0:0:0:0:
320,192,112775,1,0,0:0:0:0:
192,192,112961,1,0,0:0:0:0:
320,192,112961,1,0,0:0:0:0:
448,192,112961,1,0,0:0:0:0:
64,192,113148,1,0,0:0:0:0:
192,192,113148,1,0,0:0:0:0:
320,192,113148,1,0,0:0:0:0:
192,192,113334,1,0,0:0:0:0:
320,192,113334,1,0,0:0:0:0:
64,192,113520,1,0,0:0:0:0:
192,192,113520,1,0,0:0:0:0:
320,192,113520,1,0,0:0:0:0:
448,192,113520,1,0,0:0:0:0:
448,192,113707,128,0,114359:0:0:0:0:
64,192,113707,128,0,114359:0:0:0:0:
192,192,113893,1,0,0:0:0:0:
320,192,113893,1,0,0:0:0:0:
192,192,114079,1,0,0:0:0:0:
320,192,114079,1,0,0:0:0:0:
192,192,114266,1,0,0:0:0:0:
320,192,114266,1,0,0:0:0:0:
448,192,114452,128,0,114545:0:0:0:0:
192,192,114545,128,0,114638:0:0:0:0:
64,192,114638,128,0,114731:0:0:0:0:
320,192,114731,128,0,114825:0:0:0:0:
448,192,114825,1,0,0:0:0:0:
192,192,115011,128,0,115290:0:0:0:0:
320,192,115011,128,0,115290:0:0:0:0:
64,192,115011,128,0,115290:0:0:0:0:
448,192,115384,128,0,115477:0:0:0:0:
192,192,115384,1,0,0:0:0:0:
320,192,115477,128,0,115570:0:0:0:0:
64,192,115477,1,0,0:0:0:0:
192,192,115570,128,0,115663:0:0:0:0:
448,192,115570,1,0,0:0:0:0:
64,192,115663,128,0,115756:0:0:0:0:
320,192,115663,1,0,0:0:0:0:
448,192,115756,128,0,115849:0:0:0:0:
192,192,115756,1,0,0:0:0:0:
64,192,115849,1,0,0:0:0:0:
320,192,115849,128,0,115943:0:0:0:0:
192,192,115943,1,0,0:0:0:0:
320,192,116036,1,0,0:0:0:0:
448,192,116129,1,0,0:0:0:0:
64,192,116129,1,0,0:0:0:0:
192,192,116222,1,0,0:0:0:0:
64,192,116315,1,0,0:0:0:0:
448,192,116315,1,0,0:0:0:0:
320,192,116315,1,0,0:0:0:0:
192,192,116408,1,0,0:0:0:0:
320,192,116502,1,0,0:0:0:0:
448,192,116595,1,0,0:0:0:0:
64,192,116688,128,0,116967:0:0:0:0:
320,192,116688,128,0,116781:0:0:0:0:
192,192,116688,128,0,116734:0:0:0:0:
448,192,116874,128,0,117154:0:0:0:0:
192,192,116874,128,0,116967:0:0:0:0:
320,192,116874,128,0,116921:0:0:0:0:
64,192,117061,128,0,117340:0:0:0:0:
320,192,117061,128,0,117154:0:0:0:0:
192,192,117061,128,0,117107:0:0:0:0:
448,192,117247,128,0,117526:0:0:0:0:
192,192,117247,128,0,117340:0:0:0:0:
320,192,117247,128,0,117293:0:0:0:0:
192,192,117433,1,0,0:0:0:0:
64,192,117433,1,0,0:0:0:0:
320,192,117526,1,0,0:0:0:0:
192,192,117620,1,0,0:0:0:0:
64,192,117713,1,0,0:0:0:0:
448,192,117806,1,0,0:0:0:0:
192,192,117806,1,0,0:0:0:0:
320,192,117899,1,0,0:0:0:0:
192,192,117992,1,0,0:0:0:0:
64,192,118085,1,0,0:0:0:0:
448,192,118179,128,0,118458:0:0:0:0:
192,192,118179,128,0,118272:0:0:0:0:
320,192,118179,128,0,118225:0:0:0:0:
64,192,118365,128,0,118644:0:0:0:0:
320,192,118365,128,0,118458:0:0:0:0:
192,192,118365,128,0,118412:0:0:0:0:
448,192,118551,128,0,118831:0:0:0:0:
192,192,118551,128,0,118644:0:0:0:0:
320,192,118551,128,0,118598:0:0:0:0:
64,192,118738,128,0,119017:0:0:0:0:
320,192,118738,128,0,118831:0:0:0:0:
192,192,118738,128,0,118784:0:0:0:0:
320,192,118924,1,0,0:0:0:0:
448,192,118924,1,0,0:0:0:0:
192,192,119017,1,0,0:0:0:0:
320,192,119110,1,0,0:0:0:0:
448,192,119203,1,0,0:0:0:0:
64,192,119297,1,0,0:0:0:0:
320,192,119297,1,0,0:0:0:0:
192,192,119390,1,0,0:0:0:0:
320,192,119483,1,0,0:0:0:0:
448,192,119576,1,0,0:0:0:0:
64,192,119669,128,0,119949:0:0:0:0:
320,192,119669,128,0,119762:0:0:0:0:
192,192,119669,128,0,119716:0:0:0:0:
448,192,119856,128,0,120135:0:0:0:0:
192,192,119856,128,0,119949:0:0:0:0:
320,192,119856,128,0,119902:0:0:0:0:
64,192,120042,128,0,120321:0:0:0:0:
320,192,120042,128,0,120135:0:0:0:0:
192,192,120042,128,0,120089:0:0:0:0:
448,192,120228,128,0,120508:0:0:0:0:
192,192,120228,128,0,120321:0:0:0:0:
320,192,120228,128,0,120275:0:0:0:0:
64,192,120415,1,0,0:0:0:0:
192,192,120415,1,0,0:0:0:0:
320,192,120508,1,0,0:0:0:0:
192,192,120601,1,0,0:0:0:0:
64,192,120694,1,0,0:0:0:0:
192,192,120787,1,0,0:0:0:0:
448,192,120787,1,0,0:0:0:0:
320,192,120880,1,0,0:0:0:0:
192,192,120974,1,0,0:0:0:0:
64,192,121067,1,0,0:0:0:0:
448,192,121160,128,0,121439:0:0:0:0:
192,192,121160,128,0,121253:0:0:0:0:
320,192,121160,128,0,121207:0:0:0:0:
64,192,121346,128,0,121626:0:0:0:0:
320,192,121346,128,0,121439:0:0:0:0:
192,192,121346,128,0,121393:0:0:0:0:
192,192,121533,128,0,121626:0:0:0:0:
448,192,121533,128,0,121812:0:0:0:0:
320,192,121533,128,0,121579:0:0:0:0:
320,192,121719,128,0,121812:0:0:0:0:
64,192,121719,128,0,121998:0:0:0:0:
192,192,121719,128,0,121766:0:0:0:0:
320,192,121905,1,0,0:0:0:0:
448,192,121905,1,0,0:0:0:0:
192,192,121998,1,0,0:0:0:0:
320,192,122092,1,0,0:0:0:0:
448,192,122185,1,0,0:0:0:0:
64,192,122278,1,0,0:0:0:0:
320,192,122278,1,0,0:0:0:0:
192,192,122371,1,0,0:0:0:0:
320,192,122464,1,0,0:0:0:0:
448,192,122557,1,0,0:0:0:0:
64,192,122651,128,0,122930:0:0:0:0:
320,192,122651,128,0,122744:0:0:0:0:
192,192,122651,128,0,122697:0:0:0:0:
192,192,122837,128,0,122930:0:0:0:0:
448,192,122837,128,0,123116:0:0:0:0:
320,192,122837,128,0,122884:0:0:0:0:
320,192,123023,128,0,123116:0:0:0:0:
64,192,123023,128,0,123303:0:0:0:0:
192,192,123023,128,0,123070:0:0:0:0:
192,192,123210,128,0,123303:0:0:0:0:
448,192,123210,128,0,123489:0:0:0:0:
320,192,123210,128,0,123256:0:0:0:0:
64,192,123396,1,0,0:0:0:0:
192,192,123396,1,0,0:0:0:0:
320,192,123489,1,0,0:0:0:0:
192,192,123582,1,0,0:0:0:0:
64,192,123675,1,0,0:0:0:0:
192,192,123769,5,0,0:0:0:0:
448,192,123769,1,0,0:0:0:0:
320,192,123862,1,0,0:0:0:0:
192,192,123955,1,0,0:0:0:0:
64,192,124048,1,0,0:0:0:0:
448,192,124141,128,0,124421:0:0:0:0:
192,192,124141,128,0,124234:0:0:0:0:
320,192,124141,128,0,124188:0:0:0:0:
64,192,124328,128,0,124887:0:0:0:0:
320,192,124328,128,0,124421:0:0:0:0:
192,192,124328,128,0,124374:0:0:0:0:
192,192,124514,128,0,124607:0:0:0:0:
448,192,124514,128,0,124793:0:0:0:0:
320,192,124514,128,0,124561:0:0:0:0:
320,192,124700,128,0,124793:0:0:0:0:
192,192,124700,128,0,124747:0:0:0:0:
192,192,124887,1,0,0:0:0:0:
320,192,124887,1,0,0:0:0:0:
448,192,124887,128,0,125073:0:0:0:0:
320,192,125073,1,0,0:0:0:0:
64,192,125073,128,0,125259:0:0:0:0:
448,192,125259,128,0,125446:0:0:0:0:
192,192,125259,1,0,0:0:0:0:
320,192,125446,1,0,0:0:0:0:
64,192,125446,1,0,0:0:0:0:
192,192,125632,1,0,0:0:0:0:
64,192,125632,1,0,0:0:0:0:
448,192,125725,1,0,0:0:0:0:
320,192,125818,1,0,0:0:0:0:
64,192,125818,1,0,0:0:0:0:
192,192,125912,1,0,0:0:0:0:
64,192,126005,1,0,0:0:0:0:
448,192,126005,1,0,0:0:0:0:
320,192,126005,1,0,0:0:0:0:
64,192,126191,1,0,0:0:0:0:
192,192,126191,1,0,0:0:0:0:
448,192,126191,1,0,0:0:0:0:
64,192,126564,1,0,0:0:0:0:
320,192,126564,1,0,0:0:0:0:
448,192,126564,1,0,0:0:0:0:
64,192,126750,1,0,0:0:0:0:
448,192,126750,1,0,0:0:0:0:
192,192,126750,1,0,0:0:0:0:
448,192,127123,128,0,127309:0:0:0:0:
64,192,127123,128,0,127309:0:0:0:0:
192,192,127309,1,0,0:0:0:0:
320,192,127309,1,0,0:0:0:0:
192,192,127682,1,0,0:0:0:0:
320,192,127682,1,0,0:0:0:0:
448,192,127682,1,0,0:0:0:0:
448,192,127868,128,0,128427:0:0:0:0:
64,192,128241,128,0,128613:0:0:0:0:
192,192,128241,1,0,0:0:0:0:
320,192,128241,128,0,128707:0:0:0:0:
448,192,128613,128,0,128707:0:0:0:0:
192,192,128613,1,0,0:0:0:0:
64,192,128800,128,0,128986:0:0:0:0:
448,192,128800,1,0,0:0:0:0:
320,192,128800,1,0,0:0:0:0:
320,192,128986,128,0,129172:0:0:0:0:
192,192,128986,1,0,0:0:0:0:
64,192,129172,128,0,129359:0:0:0:0:
448,192,129172,1,0,0:0:0:0:
192,192,129172,1,0,0:0:0:0:
448,192,129359,128,0,129545:0:0:0:0:
320,192,129359,1,0,0:0:0:0:
192,192,129545,128,0,129731:0:0:0:0:
320,192,129545,1,0,0:0:0:0:
448,192,129731,128,0,129918:0:0:0:0:
64,192,129731,1,0,0:0:0:0:
320,192,129731,1,0,0:0:0:0:
192,192,129918,128,0,130104:0:0:0:0:
64,192,130104,128,0,130477:0:0:0:0:
320,192,130104,1,0,0:0:0:0:
192,192,130477,1,0,0:0:0:0:
448,192,130477,128,0,130849:0:0:0:0:
320,192,130849,1,0,0:0:0:0:
192,192,130849,1,0,0:0:0:0:
64,192,130849,128,0,131315:0:0:0:0:
448,192,131222,128,0,131408:0:0:0:0:
192,192,131222,128,0,131315:0:0:0:0:
320,192,131222,1,0,0:0:0:0:
64,192,131408,1,0,0:0:0:0:
64,192,131595,128,0,131688:0:0:0:0:
448,192,131595,128,0,131874:0:0:0:0:
192,192,131595,1,0,0:0:0:0:
320,192,131781,128,0,131967:0:0:0:0:
192,192,131781,128,0,131967:0:0:0:0:
64,192,131967,128,0,132154:0:0:0:0:
448,192,131967,128,0,132154:0:0:0:0:
192,192,132154,128,0,132433:0:0:0:0:
320,192,132154,128,0,132433:0:0:0:0:
64,192,132340,1,0,0:0:0:0:
448,192,132340,128,0,132526:0:0:0:0:
192,192,132526,1,0,0:0:0:0:
320,192,132526,128,0,132713:0:0:0:0:
64,192,132713,1,0,0:0:0:0:
448,192,132713,128,0,132899:0:0:0:0:
320,192,132899,1,0,0:0:0:0:
192,192,132899,128,0,133085:0:0:0:0:
320,192,133085,1,0,0:0:0:0:
64,192,133085,128,0,133272:0:0:0:0:
448,192,133272,1,0,0:0:0:0:
192,192,133272,128,0,133458:0:0:0:0:
448,192,133458,1,0,0:0:0:0:
320,192,133458,128,0,133644:0:0:0:0:
64,192,133644,1,0,0:0:0:0:
448,192,133644,128,0,133831:0:0:0:0:
64,192,133831,1,0,0:0:0:0:
192,192,133831,1,0,0:0:0:0:
448,192,133924,1,0,0:0:0:0:
320,192,134017,1,0,0:0:0:0:
64,192,134017,1,0,0:0:0:0:
192,192,134110,1,0,0:0:0:0:
64,192,134203,1,0,0:0:0:0:
448,192,134203,1,0,0:0:0:0:
192,192,134297,1,0,0:0:0:0:
320,192,134297,1,0,0:0:0:0:
448,192,134390,1,0,0:0:0:0:
64,192,134390,1,0,0:0:0:0:
192,192,134483,1,0,0:0:0:0:
320,192,134483,1,0,0:0:0:0:
448,192,134576,1,0,0:0:0:0:
320,192,134669,1,0,0:0:0:0:
64,192,134669,1,0,0:0:0:0:
192,192,134762,1,0,0:0:0:0:
64,192,134856,1,0,0:0:0:0:
320,192,134949,1,0,0:0:0:0:
448,192,134949,1,0,0:0:0:0:
64,192,135042,1,0,0:0:0:0:
192,192,135042,1,0,0:0:0:0:
448,192,135135,1,0,0:0:0:0:
320,192,135135,1,0,0:0:0:0:
64,192,135228,1,0,0:0:0:0:
192,192,135228,1,0,0:0:0:0:
320,192,135321,1,0,0:0:0:0:
448,192,135415,1,0,0:0:0:0:
64,192,135415,1,0,0:0:0:0:
192,192,135508,1,0,0:0:0:0:
320,192,135601,1,0,0:0:0:0:
64,192,135694,1,0,0:0:0:0:
192,192,135694,1,0,0:0:0:0:
320,192,135787,1,0,0:0:0:0:
448,192,135787,1,0,0:0:0:0:
64,192,135880,1,0,0:0:0:0:
192,192,135880,1,0,0:0:0:0:
320,192,135974,1,0,0:0:0:0:
448,192,135974,1,0,0:0:0:0:
64,192,136067,1,0,0:0:0:0:
192,192,136160,1,0,0:0:0:0:
448,192,136160,1,0,0:0:0:0:
320,192,136253,1,0,0:0:0:0:
448,192,136346,1,0,0:0:0:0:
64,192,136439,1,0,0:0:0:0:
320,192,136439,1,0,0:0:0:0:
192,192,136533,1,0,0:0:0:0:
448,192,136533,1,0,0:0:0:0:
320,192,136626,1,0,0:0:0:0:
64,192,136626,1,0,0:0:0:0:
448,192,136719,1,0,0:0:0:0:
192,192,136719,1,0,0:0:0:0:
320,192,136812,1,0,0:0:0:0:
448,192,136905,1,0,0:0:0:0:
64,192,136905,1,0,0:0:0:0:
192,192,136998,1,0,0:0:0:0:
320,192,137092,1,0,0:0:0:0:
64,192,137185,1,0,0:0:0:0:
192,192,137185,1,0,0:0:0:0:
320,192,137278,1,0,0:0:0:0:
448,192,137278,1,0,0:0:0:0:
64,192,137371,1,0,0:0:0:0:
192,192,137371,1,0,0:0:0:0:
320,192,137464,1,0,0:0:0:0:
448,192,137464,1,0,0:0:0:0:
64,192,137557,1,0,0:0:0:0:
448,192,137651,1,0,0:0:0:0:
192,192,137651,1,0,0:0:0:0:
320,192,137744,1,0,0:0:0:0:
448,192,137837,1,0,0:0:0:0:
64,192,137930,1,0,0:0:0:0:
320,192,137930,1,0,0:0:0:0:
192,192,138023,1,0,0:0:0:0:
320,192,138116,1,0,0:0:0:0:
64,192,138303,1,0,0:0:0:0:
192,192,138303,1,0,0:0:0:0:
448,192,138303,1,0,0:0:0:0:
192,192,138489,1,0,0:0:0:0:
320,192,138489,1,0,0:0:0:0:
448,192,138489,1,0,0:0:0:0:
64,192,138675,1,0,0:0:0:0:
192,192,138675,1,0,0:0:0:0:
320,192,138675,1,0,0:0:0:0:
448,192,139048,128,0,139234:0:0:0:0:
192,192,139048,128,0,139234:0:0:0:0:
64,192,139234,1,0,0:0:0:0:
320,192,139234,1,0,0:0:0:0:
192,192,139607,1,0,0:0:0:0:
320,192,139607,1,0,0:0:0:0:
448,192,139607,1,0,0:0:0:0:
448,192,139793,128,0,140352:0:0:0:0:
64,192,140166,128,0,140539:0:0:0:0:
192,192,140166,1,0,0:0:0:0:
320,192,140166,128,0,140632:0:0:0:0:
448,192,140539,128,0,140632:0:0:0:0:
192,192,140539,1,0,0:0:0:0:
64,192,140725,128,0,140912:0:0:0:0:
448,192,140725,1,0,0:0:0:0:
320,192,140725,1,0,0:0:0:0:
320,192,140912,128,0,141098:0:0:0:0:
192,192,140912,1,0,0:0:0:0:
64,192,141098,128,0,141284:0:0:0:0:
448,192,141098,1,0,0:0:0:0:
192,192,141098,1,0,0:0:0:0:
448,192,141284,128,0,141471:0:0:0:0:
320,192,141284,1,0,0:0:0:0:
192,192,141471,128,0,141657:0:0:0:0:
320,192,141471,1,0,0:0:0:0:
448,192,141657,128,0,141843:0:0:0:0:
64,192,141657,1,0,0:0:0:0:
320,192,141657,1,0,0:0:0:0:
192,192,141843,128,0,142030:0:0:0:0:
64,192,142030,128,0,142402:0:0:0:0:
320,192,142030,1,0,0:0:0:0:
192,192,142402,1,0,0:0:0:0:
448,192,142402,128,0,142775:0:0:0:0:
320,192,142775,1,0,0:0:0:0:
192,192,142775,1,0,0:0:0:0:
64,192,142775,128,0,143241:0:0:0:0:
448,192,143148,128,0,143334:0:0:0:0:
192,192,143148,128,0,143241:0:0:0:0:
320,192,143148,1,0,0:0:0:0:
64,192,143334,1,0,0:0:0:0:
64,192,143520,128,0,143613:0:0:0:0:
448,192,143520,128,0,143800:0:0:0:0:
192,192,143520,1,0,0:0:0:0:
320,192,143707,128,0,143893:0:0:0:0:
192,192,143707,128,0,143893:0:0:0:0:
64,192,143893,128,0,144079:0:0:0:0:
448,192,143893,128,0,144079:0:0:0:0:
192,192,144079,128,0,144359:0:0:0:0:
320,192,144079,128,0,144359:0:0:0:0:
64,192,144266,1,0,0:0:0:0:
448,192,144266,128,0,144452:0:0:0:0:
192,192,144452,1,0,0:0:0:0:
320,192,144452,128,0,144638:0:0:0:0:
64,192,144638,5,0,0:0:0:0:
448,192,144638,128,0,144825:0:0:0:0:
320,192,144825,1,0,0:0:0:0:
192,192,144825,128,0,145011:0:0:0:0:
320,192,145011,1,0,0:0:0:0:
64,192,145011,128,0,145197:0:0:0:0:
448,192,145197,1,0,0:0:0:0:
192,192,145197,128,0,145384:0:0:0:0:
448,192,145384,1,0,0:0:0:0:
320,192,145384,128,0,145570:0:0:0:0:
64,192,145570,1,0,0:0:0:0:
448,192,145570,128,0,145756:0:0:0:0:
64,192,145756,5,0,0:0:0:0:
192,192,145849,1,0,0:0:0:0:
320,192,145943,1,0,0:0:0:0:
448,192,145943,1,0,0:0:0:0:
192,192,146036,1,0,0:0:0:0:
64,192,146129,1,0,0:0:0:0:
448,192,146129,1,0,0:0:0:0:
320,192,146222,1,0,0:0:0:0:
192,192,146222,1,0,0:0:0:0:
64,192,146315,1,0,0:0:0:0:
448,192,146315,1,0,0:0:0:0:
192,192,146408,1,0,0:0:0:0:
320,192,146408,1,0,0:0:0:0:
64,192,146502,1,0,0:0:0:0:
192,192,146595,1,0,0:0:0:0:
448,192,146595,1,0,0:0:0:0:
320,192,146688,1,0,0:0:0:0:
448,192,146781,1,0,0:0:0:0:
64,192,146874,1,0,0:0:0:0:
320,192,146874,1,0,0:0:0:0:
192,192,146967,1,0,0:0:0:0:
448,192,146967,1,0,0:0:0:0:
64,192,147061,1,0,0:0:0:0:
320,192,147061,1,0,0:0:0:0:
192,192,147154,1,0,0:0:0:0:
448,192,147154,1,0,0:0:0:0:
320,192,147247,1,0,0:0:0:0:
192,192,147340,1,0,0:0:0:0:
64,192,147433,5,0,0:0:0:0:
320,192,147433,1,0,0:0:0:0:
448,192,147526,1,0,0:0:0:0:
64,192,147620,1,0,0:0:0:0:
192,192,147620,1,0,0:0:0:0:
320,192,147713,1,0,0:0:0:0:
448,192,147713,1,0,0:0:0:0:
64,192,147806,1,0,0:0:0:0:
192,192,147806,1,0,0:0:0:0:
320,192,147899,1,0,0:0:0:0:
448,192,147899,1,0,0:0:0:0:
64,192,147992,1,0,0:0:0:0:
192,192,148085,1,0,0:0:0:0:
448,192,148085,1,0,0:0:0:0:
320,192,148179,1,0,0:0:0:0:
448,192,148272,1,0,0:0:0:0:
320,192,148365,128,0,148551:0:0:0:0:
64,192,148365,128,0,148551:0:0:0:0:
192,192,148365,1,0,0:0:0:0:
192,192,148551,128,0,148738:0:0:0:0:
448,192,148551,128,0,148738:0:0:0:0:
320,192,148738,1,0,0:0:0:0:
448,192,148924,128,0,149110:0:0:0:0:
192,192,148924,128,0,149110:0:0:0:0:
64,192,148924,1,0,0:0:0:0:
64,192,149110,128,0,149297:0:0:0:0:
320,192,149110,128,0,149297:0:0:0:0:
192,192,149297,128,0,149483:0:0:0:0:
448,192,149297,128,0,149483:0:0:0:0:
64,192,149483,1,0,0:0:0:0:
320,192,149483,1,0,0:0:0:0:
192,192,149669,1,0,0:0:0:0:
448,192,149669,1,0,0:0:0:0:
320,192,149856,128,0,150042:0:0:0:0:
64,192,149856,1,0,0:0:0:0:
64,192,150042,128,0,150415:0:0:0:0:
192,192,150042,1,0,0:0:0:0:
320,192,150135,1,0,0:0:0:0:
448,192,150228,1,0,0:0:0:0:
320,192,150321,1,0,0:0:0:0:
192,192,150415,1,0,0:0:0:0:
320,192,150508,1,0,0:0:0:0:
64,192,150601,1,0,0:0:0:0:
448,192,150601,1,0,0:0:0:0:
192,192,150787,1,0,0:0:0:0:
320,192,150787,1,0,0:0:0:0:
448,192,150787,1,0,0:0:0:0:
64,192,150880,1,0,0:0:0:0:
448,192,150974,1,0,0:0:0:0:
192,192,150974,1,0,0:0:0:0:
320,192,151067,1,0,0:0:0:0:
192,192,151160,1,0,0:0:0:0:
64,192,151346,128,0,151719:0:0:0:0:
448,192,151346,1,0,0:0:0:0:
320,192,151346,1,0,0:0:0:0:
192,192,151533,1,0,0:0:0:0:
320,192,151719,1,0,0:0:0:0:
448,192,151719,1,0,0:0:0:0:
64,192,152464,1,0,0:0:0:0:
192,192,152464,1,0,0:0:0:0:
448,192,152464,1,0,0:0:0:0:
320,192,153210,128,0,153303:0:0:0:0:
64,192,153210,128,0,153489:0:0:0:0:
448,192,153210,128,0,153955:0:0:0:0:
320,192,153396,128,0,153675:0:0:0:0:
192,192,153396,128,0,153489:0:0:0:0:
64,192,153582,128,0,153862:0:0:0:0:
192,192,153582,128,0,153675:0:0:0:0:
192,192,153769,128,0,153862:0:0:0:0:
320,192,153769,128,0,153955:0:0:0:0:
64,192,153955,128,0,154234:0:0:0:0:
192,192,154048,128,0,154141:0:0:0:0:
448,192,154141,128,0,154328:0:0:0:0:
320,192,154141,128,0,154328:0:0:0:0:
64,192,154328,128,0,154514:0:0:0:0:
192,192,154328,128,0,154514:0:0:0:0:
448,192,154514,128,0,154700:0:0:0:0:
320,192,154514,128,0,154793:0:0:0:0:
192,192,154607,128,0,154793:0:0:0:0:
64,192,154700,128,0,154887:0:0:0:0:
448,192,154793,128,0,154980:0:0:0:0:
320,192,154887,128,0,155166:0:0:0:0:
64,192,155073,1,0,0:0:0:0:
192,192,155073,128,0,155166:0:0:0:0:
448,192,155073,1,0,0:0:0:0:
192,192,155259,1,0,0:0:0:0:
320,192,155259,1,0,0:0:0:0:
64,192,155446,1,0,0:0:0:0:
192,192,155446,1,0,0:0:0:0:
448,192,155446,1,0,0:0:0:0:
64,192,155632,1,0,0:0:0:0:
320,192,155632,1,0,0:0:0:0:
448,192,155632,1,0,0:0:0:0:
64,192,155818,128,0,156005:0:0:0:0:
448,192,155818,128,0,156005:0:0:0:0:
192,192,155912,128,0,156098:0:0:0:0:
320,192,156005,128,0,156191:0:0:0:0:
448,192,156098,128,0,156284:0:0:0:0:
64,192,156191,128,0,156377:0:0:0:0:
192,192,156191,128,0,156471:0:0:0:0:
320,192,156284,128,0,156471:0:0:0:0:
448,192,156377,128,0,156657:0:0:0:0:
64,192,156564,1,0,0:0:0:0:
192,192,156564,128,0,156657:0:0:0:0:
320,192,156564,1,0,0:0:0:0:
192,192,156750,1,0,0:0:0:0:
448,192,156750,1,0,0:0:0:0:
64,192,156936,1,0,0:0:0:0:
320,192,156936,1,0,0:0:0:0:
64,192,157123,1,0,0:0:0:0:
192,192,157123,1,0,0:0:0:0:
64,192,157309,1,0,0:0:0:0:
448,192,157309,128,0,157495:0:0:0:0:
320,192,157402,128,0,157589:0:0:0:0:
192,192,157495,128,0,157682:0:0:0:0:
64,192,157589,128,0,157775:0:0:0:0:
448,192,157682,1,0,0:0:0:0:
320,192,157682,128,0,157868:0:0:0:0:
192,192,157775,128,0,157961:0:0:0:0:
64,192,157868,128,0,158054:0:0:0:0:
448,192,158054,1,0,0:0:0:0:
192,192,158054,128,0,158241:0:0:0:0:
320,192,158148,128,0,158334:0:0:0:0:
448,192,158241,128,0,158334:0:0:0:0:
64,192,158241,128,0,158427:0:0:0:0:
192,192,158334,128,0,158520:0:0:0:0:
448,192,158427,128,0,158613:0:0:0:0:
320,192,158520,128,0,158893:0:0:0:0:
64,192,158613,1,0,0:0:0:0:
192,192,158613,128,0,158800:0:0:0:0:
64,192,158800,128,0,159079:0:0:0:0:
448,192,158800,128,0,158986:0:0:0:0:
320,192,158986,1,0,0:0:0:0:
192,192,159079,1,0,0:0:0:0:
64,192,159172,128,0,160011:0:0:0:0:
320,192,159172,128,0,159266:0:0:0:0:
448,192,159172,128,0,159452:0:0:0:0:
192,192,159359,128,0,159638:0:0:0:0:
320,192,159359,128,0,159452:0:0:0:0:
320,192,159545,128,0,159638:0:0:0:0:
448,192,159545,128,0,159825:0:0:0:0:
320,192,159731,128,0,159825:0:0:0:0:
192,192,159731,128,0,159918:0:0:0:0:
448,192,159918,128,0,160104:0:0:0:0:
320,192,160011,128,0,160197:0:0:0:0:
192,192,160104,128,0,160290:0:0:0:0:
64,192,160104,128,0,160290:0:0:0:0:
320,192,160290,128,0,160477:0:0:0:0:
448,192,160290,128,0,160477:0:0:0:0:
64,192,160477,128,0,160663:0:0:0:0:
192,192,160477,128,0,160663:0:0:0:0:
448,192,160570,128,0,160756:0:0:0:0:
320,192,160663,128,0,160943:0:0:0:0:
192,192,160756,128,0,161129:0:0:0:0:
64,192,160849,128,0,160943:0:0:0:0:
448,192,161036,1,0,0:0:0:0:
64,192,161036,1,0,0:0:0:0:
320,192,161036,128,0,161129:0:0:0:0:
192,192,161222,1,0,0:0:0:0:
320,192,161222,1,0,0:0:0:0:
448,192,161408,1,0,0:0:0:0:
320,192,161408,1,0,0:0:0:0:
64,192,161408,1,0,0:0:0:0:
64,192,161595,1,0,0:0:0:0:
192,192,161595,1,0,0:0:0:0:
448,192,161595,1,0,0:0:0:0:
64,192,161781,1,0,0:0:0:0:
448,192,161781,128,0,161967:0:0:0:0:
320,192,161781,128,0,161967:0:0:0:0:
192,192,161874,128,0,162061:0:0:0:0:
64,192,161967,128,0,162154:0:0:0:0:
320,192,162061,128,0,162247:0:0:0:0:
192,192,162154,128,0,162433:0:0:0:0:
448,192,162247,128,0,162433:0:0:0:0:
64,192,162340,128,0,162620:0:0:0:0:
448,192,162526,1,0,0:0:0:0:
320,192,162526,128,0,162620:0:0:0:0:
192,192,162526,1,0,0:0:0:0:
320,192,162713,1,0,0:0:0:0:
64,192,162713,128,0,162899:0:0:0:0:
192,192,162899,1,0,0:0:0:0:
448,192,162899,128,0,163085:0:0:0:0:
64,192,163085,1,0,0:0:0:0:
320,192,163085,128,0,163272:0:0:0:0:
64,192,163272,128,0,163458:0:0:0:0:
192,192,163365,128,0,163551:0:0:0:0:
448,192,163458,128,0,163644:0:0:0:0:
320,192,163551,128,0,163738:0:0:0:0:
192,192,163644,128,0,163831:0:0:0:0:
448,192,163738,128,0,163831:0:0:0:0:
320,192,163831,128,0,163924:0:0:0:0:
64,192,163831,128,0,164017:0:0:0:0:
192,192,163924,128,0,164017:0:0:0:0:
320,192,164017,1,0,0:0:0:0:
448,192,164017,128,0,164203:0:0:0:0:
64,192,164110,128,0,164203:0:0:0:0:
320,192,164203,1,0,0:0:0:0:
192,192,164203,128,0,164390:0:0:0:0:
64,192,164297,128,0,164483:0:0:0:0:
320,192,164390,1,0,0:0:0:0:
448,192,164390,128,0,164576:0:0:0:0:
192,192,164483,128,0,164669:0:0:0:0:
64,192,164576,1,0,0:0:0:0:
320,192,164576,128,0,164669:0:0:0:0:
448,192,164669,128,0,164856:0:0:0:0:
320,192,164762,1,0,0:0:0:0:
64,192,164762,128,0,164949:0:0:0:0:
192,192,164856,128,0,165042:0:0:0:0:
320,192,164949,128,0,165042:0:0:0:0:
448,192,164949,1,0,0:0:0:0:
320,192,165135,128,0,165228:0:0:0:0:
64,192,165135,128,0,165415:0:0:0:0:
448,192,165135,128,0,165880:0:0:0:0:
320,192,165321,128,0,165601:0:0:0:0:
192,192,165321,128,0,165415:0:0:0:0:
64,192,165508,128,0,165787:0:0:0:0:
192,192,165508,128,0,165601:0:0:0:0:
192,192,165694,128,0,165787:0:0:0:0:
320,192,165694,128,0,165880:0:0:0:0:
64,192,165880,128,0,166160:0:0:0:0:
192,192,165974,128,0,166067:0:0:0:0:
448,192,166067,128,0,166253:0:0:0:0:
320,192,166067,128,0,166253:0:0:0:0:
64,192,166253,128,0,166439:0:0:0:0:
192,192,166253,128,0,166439:0:0:0:0:
448,192,166439,128,0,166626:0:0:0:0:
320,192,166439,128,0,166719:0:0:0:0:
192,192,166533,128,0,166719:0:0:0:0:
64,192,166626,128,0,166812:0:0:0:0:
448,192,166719,128,0,166905:0:0:0:0:
320,192,166812,128,0,167092:0:0:0:0:
64,192,166998,1,0,0:0:0:0:
192,192,166998,128,0,167092:0:0:0:0:
448,192,166998,1,0,0:0:0:0:
192,192,167185,1,0,0:0:0:0:
320,192,167185,1,0,0:0:0:0:
64,192,167371,1,0,0:0:0:0:
192,192,167371,1,0,0:0:0:0:
448,192,167371,1,0,0:0:0:0:
64,192,167557,1,0,0:0:0:0:
320,192,167557,1,0,0:0:0:0:
448,192,167557,1,0,0:0:0:0:
64,192,167744,128,0,167930:0:0:0:0:
448,192,167744,128,0,167930:0:0:0:0:
192,192,167837,128,0,168023:0:0:0:0:
320,192,167930,128,0,168116:0:0:0:0:
448,192,168023,128,0,168210:0:0:0:0:
64,192,168116,128,0,168303:0:0:0:0:
192,192,168116,128,0,168396:0:0:0:0:
320,192,168210,128,0,168396:0:0:0:0:
448,192,168303,128,0,168582:0:0:0:0:
64,192,168489,1,0,0:0:0:0:
192,192,168489,128,0,168582:0:0:0:0:
320,192,168489,1,0,0:0:0:0:
192,192,168675,1,0,0:0:0:0:
448,192,168675,1,0,0:0:0:0:
64,192,168862,1,0,0:0:0:0:
320,192,168862,1,0,0:0:0:0:
64,192,169048,1,0,0:0:0:0:
192,192,169048,1,0,0:0:0:0:
64,192,169234,1,0,0:0:0:0:
448,192,169234,128,0,169421:0:0:0:0:
320,192,169328,128,0,169514:0:0:0:0:
192,192,169421,128,0,169607:0:0:0:0:
64,192,169514,128,0,169700:0:0:0:0:
448,192,169607,1,0,0:0:0:0:
320,192,169607,128,0,169793:0:0:0:0:
192,192,169700,128,0,169887:0:0:0:0:
64,192,169793,128,0,169980:0:0:0:0:
448,192,169980,5,0,0:0:0:0:
192,192,169980,128,0,170166:0:0:0:0:
320,192,170073,128,0,170259:0:0:0:0:
448,192,170166,128,0,170259:0:0:0:0:
64,192,170166,128,0,170352:0:0:0:0:
192,192,170259,128,0,170446:0:0:0:0:
448,192,170352,128,0,170539:0:0:0:0:
320,192,170446,128,0,170818:0:0:0:0:
64,192,170539,1,0,0:0:0:0:
192,192,170539,128,0,170725:0:0:0:0:
64,192,170725,128,0,171005:0:0:0:0:
448,192,170725,128,0,170912:0:0:0:0:
320,192,170912,1,0,0:0:0:0:
192,192,171005,1,0,0:0:0:0:
64,192,171098,128,0,171936:0:0:0:0:
320,192,171098,128,0,171191:0:0:0:0:
448,192,171098,128,0,171377:0:0:0:0:
192,192,171284,128,0,171564:0:0:0:0:
320,192,171284,128,0,171377:0:0:0:0:
320,192,171471,128,0,171564:0:0:0:0:
448,192,171471,128,0,171750:0:0:0:0:
320,192,171657,128,0,171750:0:0:0:0:
192,192,171657,128,0,171843:0:0:0:0:
448,192,171843,128,0,172030:0:0:0:0:
320,192,171936,128,0,172123:0:0:0:0:
192,192,172030,128,0,172216:0:0:0:0:
64,192,172030,128,0,172216:0:0:0:0:
320,192,172216,128,0,172402:0:0:0:0:
448,192,172216,128,0,172402:0:0:0:0:
64,192,172402,128,0,172589:0:0:0:0:
192,192,172402,128,0,172589:0:0:0:0:
448,192,172495,128,0,172682:0:0:0:0:
320,192,172589,128,0,172868:0:0:0:0:
192,192,172682,128,0,173054:0:0:0:0:
64,192,172775,128,0,172868:0:0:0:0:
448,192,172961,1,0,0:0:0:0:
64,192,172961,1,0,0:0:0:0:
320,192,172961,128,0,173054:0:0:0:0:
192,192,173148,1,0,0:0:0:0:
320,192,173148,1,0,0:0:0:0:
448,192,173334,1,0,0:0:0:0:
320,192,173334,1,0,0:0:0:0:
64,192,173334,1,0,0:0:0:0:
64,192,173520,1,0,0:0:0:0:
192,192,173520,1,0,0:0:0:0:
448,192,173520,1,0,0:0:0:0:
64,192,173707,1,0,0:0:0:0:
448,192,173707,128,0,173893:0:0:0:0:
320,192,173707,128,0,173893:0:0:0:0:
192,192,173800,128,0,173986:0:0:0:0:
64,192,173893,128,0,174079:0:0:0:0:
320,192,173986,128,0,174172:0:0:0:0:
192,192,174079,128,0,174359:0:0:0:0:
448,192,174172,128,0,174359:0:0:0:0:
64,192,174266,128,0,174545:0:0:0:0:
448,192,174452,1,0,0:0:0:0:
320,192,174452,128,0,174545:0:0:0:0:
192,192,174452,1,0,0:0:0:0:
320,192,174638,1,0,0:0:0:0:
64,192,174638,128,0,174825:0:0:0:0:
192,192,174825,1,0,0:0:0:0:
448,192,174825,128,0,175011:0:0:0:0:
64,192,175011,1,0,0:0:0:0:
320,192,175011,128,0,175197:0:0:0:0:
64,192,175197,128,0,175384:0:0:0:0:
192,192,175290,128,0,175477:0:0:0:0:
448,192,175384,128,0,175570:0:0:0:0:
320,192,175477,128,0,175663:0:0:0:0:
192,192,175570,128,0,175756:0:0:0:0:
448,192,175663,128,0,175756:0:0:0:0:
320,192,175756,128,0,175849:0:0:0:0:
64,192,175756,128,0,176036:0:0:0:0:
192,192,175849,128,0,175943:0:0:0:0:
448,192,175943,128,0,176222:0:0:0:0:
320,192,176036,128,0,176315:0:0:0:0:
192,192,176129,128,0,176408:0:0:0:0:
64,192,176222,128,0,176502:0:0:0:0:
448,192,176315,128,0,176595:0:0:0:0:
320,192,176408,128,0,176688:0:0:0:0:
192,192,176502,128,0,176781:0:0:0:0:
64,192,176595,128,0,176874:0:0:0:0:
448,192,176688,128,0,176967:0:0:0:0:
320,192,176781,128,0,176967:0:0:0:0:
192,192,176874,128,0,176967:0:0:0:0:
64,192,176967,128,0,177061:0:0:0:0:
448,192,177061,1,0,0:0:0:0:
320,192,177061,1,0,0:0:0:0:
192,192,177061,1,0,0:0:0:0:
64,192,177247,1,0,0:0:0:0:
192,192,177247,1,0,0:0:0:0:
320,192,177247,1,0,0:0:0:0:
64,192,177433,128,0,177806:0:0:0:0:
448,192,177433,128,0,177806:0:0:0:0:
192,192,177620,1,0,0:0:0:0:
320,192,177620,1,0,0:0:0:0:
64,192,177992,1,0,0:0:0:0:
192,192,177992,1,0,0:0:0:0:
320,192,177992,1,0,0:0:0:0:
448,192,177992,1,0,0:0:0:0:
64,192,178365,128,0,178551:0:0:0:0:
192,192,178551,128,0,182278:0:0:0:0:
448,192,178924,1,0,0:0:0:0:
64,192,179110,1,0,0:0:0:0:
320,192,179297,1,0,0:0:0:0:
448,192,179297,1,0,0:0:0:0:
64,192,179669,128,0,179856:0:0:0:0:
64,192,180042,1,0,0:0:0:0:
320,192,180042,1,0,0:0:0:0:
320,192,180415,1,0,0:0:0:0:
64,192,180601,1,0,0:0:0:0:
448,192,180787,1,0,0:0:0:0:
64,192,180787,1,0,0:0:0:0:
448,192,181160,128,0,181346:0:0:0:0:
448,192,181533,1,0,0:0:0:0:
320,192,181533,1,0,0:0:0:0:
64,192,181905,1,0,0:0:0:0:
448,192,182092,1,0,0:0:0:0:
320,192,182092,1,0,0:0:0:0:
64,192,182278,1,0,0:0:0:0:
320,192,182278,1,0,0:0:0:0:
448,192,182651,128,0,183023:0:0:0:0:
320,192,182651,1,0,0:0:0:0:
64,192,182837,128,0,183023:0:0:0:0:
192,192,183023,1,0,0:0:0:0:
64,192,183396,1,0,0:0:0:0:
192,192,183396,1,0,0:0:0:0:
448,192,183582,1,0,0:0:0:0:
320,192,183582,1,0,0:0:0:0:
448,192,183769,128,0,184328:0:0:0:0:
64,192,183769,1,0,0:0:0:0:
192,192,183769,1,0,0:0:0:0:
64,192,184141,1,0,0:0:0:0:
192,192,184141,128,0,184328:0:0:0:0:
320,192,184328,128,0,184514:0:0:0:0:
64,192,184514,128,0,186098:0:0:0:0:
192,192,184514,1,0,0:0:0:0:
448,192,184887,1,0,0:0:0:0:
192,192,184887,1,0,0:0:0:0:
192,192,185073,1,0,0:0:0:0:
320,192,185259,1,0,0:0:0:0:
448,192,185259,1,0,0:0:0:0:
192,192,185632,128,0,185818:0:0:0:0:
448,192,185818,128,0,185912:0:0:0:0:
192,192,186005,128,0,186098:0:0:0:0:
448,192,186005,1,0,0:0:0:0:
320,192,186098,128,0,186191:0:0:0:0:
448,192,186191,128,0,186564:0:0:0:0:
64,192,186377,1,0,0:0:0:0:
192,192,186377,1,0,0:0:0:0:
192,192,186564,128,0,187495:0:0:0:0:
320,192,186564,1,0,0:0:0:0:
448,192,186750,1,0,0:0:0:0:
64,192,186750,1,0,0:0:0:0:
320,192,187123,128,0,187309:0:0:0:0:
64,192,187495,128,0,190290:0:0:0:0:
448,192,187495,128,0,190104:0:0:0:0:
320,192,187495,1,0,0:0:0:0:
192,192,187868,1,0,0:0:0:0:
320,192,188054,1,0,0:0:0:0:
192,192,188241,1,0,0:0:0:0:
320,192,188241,1,0,0:0:0:0:
320,192,188613,128,0,188800:0:0:0:0:
192,192,188986,1,0,0:0:0:0:
320,192,189359,1,0,0:0:0:0:
192,192,189545,1,0,0:0:0:0:
192,192,189731,1,0,0:0:0:0:
320,192,189731,1,0,0:0:0:0:
320,192,190104,128,0,190290:0:0:0:0:
192,192,190290,128,0,190477:0:0:0:0:
448,192,190477,128,0,190663:0:0:0:0:
64,192,190477,1,0,0:0:0:0:
320,192,190663,128,0,191036:0:0:0:0:
192,192,190849,1,0,0:0:0:0:
448,192,190849,1,0,0:0:0:0:
64,192,190943,128,0,191036:0:0:0:0:
192,192,191036,128,0,191129:0:0:0:0:
448,192,191036,1,0,0:0:0:0:
448,192,191129,128,0,191222:0:0:0:0:
320,192,191222,128,0,191315:0:0:0:0:
64,192,191222,1,0,0:0:0:0:
192,192,191315,128,0,191408:0:0:0:0:
64,192,191408,128,0,191502:0:0:0:0:
192,192,191502,128,0,191595:0:0:0:0:
448,192,191595,128,0,192526:0:0:0:0:
320,192,191595,128,0,191781:0:0:0:0:
192,192,191967,1,0,0:0:0:0:
64,192,191967,1,0,0:0:0:0:
320,192,192340,1,0,0:0:0:0:
192,192,192340,1,0,0:0:0:0:
64,192,192526,128,0,192620:0:0:0:0:
192,192,192526,1,0,0:0:0:0:
64,192,192713,128,0,193458:0:0:0:0:
320,192,192713,1,0,0:0:0:0:
448,192,192713,1,0,0:0:0:0:
192,192,193085,1,0,0:0:0:0:
320,192,193085,128,0,193272:0:0:0:0:
320,192,193458,128,0,194949:0:0:0:0:
448,192,193458,1,0,0:0:0:0:
64,192,193831,1,0,0:0:0:0:
448,192,193831,1,0,0:0:0:0:
192,192,194017,1,0,0:0:0:0:
64,192,194203,1,0,0:0:0:0:
192,192,194203,1,0,0:0:0:0:
448,192,194203,1,0,0:0:0:0:
64,192,194576,1,0,0:0:0:0:
448,192,194576,128,0,194762:0:0:0:0:
64,192,194949,1,0,0:0:0:0:
192,192,194949,1,0,0:0:0:0:
448,192,195321,1,0,0:0:0:0:
320,192,195321,1,0,0:0:0:0:
64,192,195508,128,0,195694:0:0:0:0:
192,192,195508,1,0,0:0:0:0:
320,192,195694,128,0,195880:0:0:0:0:
448,192,195694,1,0,0:0:0:0:
192,192,195694,1,0,0:0:0:0:
192,192,195880,128,0,196067:0:0:0:0:
448,192,196067,128,0,196346:0:0:0:0:
64,192,196067,128,0,196253:0:0:0:0:
320,192,196346,128,0,196439:0:0:0:0:
192,192,196439,128,0,197682:0:0:0:0:
64,192,196439,1,0,0:0:0:0:
448,192,196812,1,0,0:0:0:0:
64,192,196812,128,0,196998:0:0:0:0:
320,192,196998,1,0,0:0:0:0:
64,192,197185,1,0,0:0:0:0:
448,192,197185,1,0,0:0:0:0:
448,192,197557,128,0,197930:0:0:0:0:
192,192,197806,1,0,0:0:0:0:
320,192,197930,1,0,0:0:0:0:
192,192,198054,1,0,0:0:0:0:
192,192,198303,1,0,0:0:0:0:
192,192,198582,1,0,0:0:0:0:
192,192,198862,1,0,0:0:0:0:
64,192,199048,1,0,0:0:0:0:
192,192,199234,1,0,0:0:0:0:
64,192,199421,1,0,0:0:0:0:
192,192,199607,1,0,0:0:0:0:
64,192,199793,1,0,0:0:0:0:
192,192,199980,1,0,0:0:0:0:
64,192,200166,1,0,0:0:0:0:
192,192,200352,1,0,0:0:0:0:
64,192,200539,1,0,0:0:0:0:
192,192,200725,1,0,0:0:0:0:
64,192,200912,1,0,0:0:0:0:
64,192,201284,1,0,0:0:0:0:
448,192,201284,1,0,0:0:0:0:
192,192,201471,1,0,0:0:0:0:
320,192,201471,1,0,0:0:0:0:
64,192,201657,1,0,0:0:0:0:
448,192,201657,1,0,0:0:0:0:
64,192,201843,128,0,202402:0:0:0:0:
448,192,202030,128,0,202216:0:0:0:0:
192,192,202309,128,0,202402:0:0:0:0:
448,192,202402,128,0,202589:0:0:0:0:
320,192,202495,128,0,202589:0:0:0:0:
192,192,202589,128,0,203241:0:0:0:0:
64,192,202775,1,0,0:0:0:0:
320,192,202961,1,0,0:0:0:0:
64,192,203148,1,0,0:0:0:0:
448,192,203148,128,0,203427:0:0:0:0:
64,192,203427,128,0,203893:0:0:0:0:
320,192,203520,128,0,203707:0:0:0:0:
448,192,203707,128,0,203893:0:0:0:0:
192,192,203893,128,0,205384:0:0:0:0:
320,192,203893,1,0,0:0:0:0:
448,192,204266,1,0,0:0:0:0:
320,192,204452,1,0,0:0:0:0:
64,192,204452,1,0,0:0:0:0:
64,192,204638,1,0,0:0:0:0:
448,192,204638,1,0,0:0:0:0:
448,192,205011,128,0,205197:0:0:0:0:
448,192,205384,128,0,206874:0:0:0:0:
320,192,205384,1,0,0:0:0:0:
64,192,205384,1,0,0:0:0:0:
192,192,205756,1,0,0:0:0:0:
64,192,205943,128,0,206874:0:0:0:0:
320,192,205943,1,0,0:0:0:0:
320,192,206129,1,0,0:0:0:0:
192,192,206129,1,0,0:0:0:0:
192,192,206502,128,0,206688:0:0:0:0:
320,192,206874,128,0,208365:0:0:0:0:
192,192,206874,1,0,0:0:0:0:
448,192,207247,1,0,0:0:0:0:
64,192,207433,128,0,207620:0:0:0:0:
192,192,207433,1,0,0:0:0:0:
448,192,207620,128,0,209110:0:0:0:0:
192,192,207620,1,0,0:0:0:0:
64,192,207992,128,0,208179:0:0:0:0:
64,192,208365,5,0,0:0:0:0:
192,192,208738,1,0,0:0:0:0:
64,192,208924,1,0,0:0:0:0:
320,192,209110,1,0,0:0:0:0:
192,192,209110,128,0,209297:0:0:0:0:
64,192,209297,128,0,209483:0:0:0:0:
448,192,209297,1,0,0:0:0:0:
192,192,209483,128,0,209669:0:0:0:0:
320,192,209483,1,0,0:0:0:0:
448,192,209483,1,0,0:0:0:0:
320,192,209669,128,0,209856:0:0:0:0:
64,192,209669,1,0,0:0:0:0:
448,192,209856,128,0,210042:0:0:0:0:
192,192,209856,1,0,0:0:0:0:
64,192,209856,1,0,0:0:0:0:
320,192,210042,128,0,210228:0:0:0:0:
192,192,210042,1,0,0:0:0:0:
64,192,210228,128,0,210415:0:0:0:0:
448,192,210228,1,0,0:0:0:0:
192,192,210228,1,0,0:0:0:0:
192,192,210415,128,0,210601:0:0:0:0:
320,192,210415,1,0,0:0:0:0:
64,192,210601,128,0,210787:0:0:0:0:
448,192,210601,1,0,0:0:0:0:
320,192,210601,1,0,0:0:0:0:
448,192,210787,128,0,210974:0:0:0:0:
192,192,210787,1,0,0:0:0:0:
320,192,210974,128,0,211160:0:0:0:0:
64,192,210974,1,0,0:0:0:0:
192,192,210974,1,0,0:0:0:0:
448,192,211160,128,0,211346:0:0:0:0:
64,192,211160,1,0,0:0:0:0:
192,192,211346,128,0,211533:0:0:0:0:
64,192,211346,1,0,0:0:0:0:
320,192,211346,1,0,0:0:0:0:
64,192,211533,128,0,211719:0:0:0:0:
448,192,211533,1,0,0:0:0:0:
192,192,211719,128,0,211905:0:0:0:0:
320,192,211719,1,0,0:0:0:0:
448,192,211719,1,0,0:0:0:0:
320,192,211905,128,0,212092:0:0:0:0:
64,192,211905,1,0,0:0:0:0:
448,192,212092,128,0,212278:0:0:0:0:
64,192,212092,1,0,0:0:0:0:
192,192,212092,1,0,0:0:0:0:
320,192,212278,128,0,212464:0:0:0:0:
192,192,212278,1,0,0:0:0:0:
64,192,212464,128,0,212651:0:0:0:0:
192,192,212464,1,0,0:0:0:0:
448,192,212464,1,0,0:0:0:0:
192,192,212651,128,0,212837:0:0:0:0:
448,192,212651,1,0,0:0:0:0:
64,192,212837,128,0,213023:0:0:0:0:
320,192,212837,1,0,0:0:0:0:
448,192,212837,1,0,0:0:0:0:
448,192,213023,128,0,213210:0:0:0:0:
192,192,213023,1,0,0:0:0:0:
320,192,213210,128,0,213396:0:0:0:0:
64,192,213210,1,0,0:0:0:0:
192,192,213210,1,0,0:0:0:0:
448,192,213396,128,0,213582:0:0:0:0:
192,192,213396,1,0,0:0:0:0:
192,192,213582,128,0,213769:0:0:0:0:
64,192,213582,1,0,0:0:0:0:
320,192,213582,1,0,0:0:0:0:
64,192,213769,128,0,213955:0:0:0:0:
320,192,213769,1,0,0:0:0:0:
192,192,213955,128,0,214141:0:0:0:0:
320,192,213955,1,0,0:0:0:0:
448,192,213955,1,0,0:0:0:0:
320,192,214141,128,0,214328:0:0:0:0:
64,192,214141,1,0,0:0:0:0:
64,192,214328,5,0,0:0:0:0:
448,192,214328,128,0,214576:0:0:0:0:
192,192,214328,1,0,0:0:0:0:
64,192,214576,128,0,214825:0:0:0:0:
320,192,214825,128,0,215073:0:0:0:0:
64,192,215073,128,0,215321:0:0:0:0:
448,192,215321,128,0,215570:0:0:0:0:
64,192,215570,128,0,215818:0:0:0:0:
320,192,215818,128,0,216067:0:0:0:0:
64,192,216067,128,0,216315:0:0:0:0:
320,192,216315,128,0,216564:0:0:0:0:
448,192,216564,128,0,216812:0:0:0:0:
192,192,216812,128,0,217061:0:0:0:0:
64,192,217061,128,0,217309:0:0:0:0:
448,192,217309,128,0,218427:0:0:0:0:
320,192,218801,128,0,218894:0:0:0:0:
64,192,218801,128,0,219080:0:0:0:0:
448,192,218801,128,0,219546:0:0:0:0:
192,192,218801,1,0,0:0:0:0:
320,192,218987,128,0,219266:0:0:0:0:
192,192,218987,128,0,219080:0:0:0:0:
64,192,219173,128,0,219453:0:0:0:0:
192,192,219173,128,0,219266:0:0:0:0:
192,192,219360,128,0,219453:0:0:0:0:
320,192,219360,128,0,219546:0:0:0:0:
64,192,219546,128,0,219825:0:0:0:0:
192,192,219639,128,0,219732:0:0:0:0:
448,192,219732,128,0,219919:0:0:0:0:
320,192,219732,128,0,219919:0:0:0:0:
64,192,219919,128,0,220105:0:0:0:0:
192,192,219919,128,0,220105:0:0:0:0:
448,192,220105,128,0,220291:0:0:0:0:
320,192,220105,128,0,220384:0:0:0:0:
192,192,220198,128,0,220384:0:0:0:0:
64,192,220291,128,0,220478:0:0:0:0:
448,192,220384,128,0,220571:0:0:0:0:
320,192,220478,128,0,220757:0:0:0:0:
64,192,220664,1,0,0:0:0:0:
192,192,220664,128,0,220757:0:0:0:0:
448,192,220664,1,0,0:0:0:0:
192,192,220850,1,0,0:0:0:0:
320,192,220850,128,0,221037:0:0:0:0:
64,192,221037,1,0,0:0:0:0:
192,192,221037,128,0,221223:0:0:0:0:
448,192,221037,128,0,221083:0:0:0:0:
448,192,221223,1,0,0:0:0:0:
320,192,221223,128,0,221409:0:0:0:0:
64,192,221223,128,0,221269:0:0:0:0:
64,192,221409,128,0,221596:0:0:0:0:
448,192,221409,128,0,221596:0:0:0:0:
192,192,221502,128,0,221689:0:0:0:0:
320,192,221596,128,0,221782:0:0:0:0:
448,192,221689,128,0,221875:0:0:0:0:
64,192,221782,128,0,221968:0:0:0:0:
192,192,221782,128,0,222061:0:0:0:0:
320,192,221875,128,0,222061:0:0:0:0:
448,192,221968,128,0,222248:0:0:0:0:
64,192,222155,1,0,0:0:0:0:
192,192,222155,128,0,222248:0:0:0:0:
320,192,222155,1,0,0:0:0:0:
448,192,222341,1,0,0:0:0:0:
192,192,222341,128,0,222527:0:0:0:0:
64,192,222527,1,0,0:0:0:0:
320,192,222527,128,0,222714:0:0:0:0:
64,192,222714,1,0,0:0:0:0:
192,192,222714,128,0,222900:0:0:0:0:
64,192,222900,1,0,0:0:0:0:
448,192,222900,128,0,223086:0:0:0:0:
320,192,222993,128,0,223179:0:0:0:0:
192,192,223086,128,0,223273:0:0:0:0:
64,192,223179,128,0,223366:0:0:0:0:
448,192,223273,1,0,0:0:0:0:
320,192,223273,128,0,223459:0:0:0:0:
192,192,223366,128,0,223552:0:0:0:0:
64,192,223459,128,0,223645:0:0:0:0:
448,192,223645,1,0,0:0:0:0:
192,192,223645,128,0,223832:0:0:0:0:
320,192,223738,128,0,223925:0:0:0:0:
448,192,223832,128,0,223925:0:0:0:0:
64,192,223832,128,0,224018:0:0:0:0:
192,192,223925,128,0,224111:0:0:0:0:
448,192,224018,128,0,224204:0:0:0:0:
320,192,224111,128,0,224484:0:0:0:0:
64,192,224204,1,0,0:0:0:0:
192,192,224204,128,0,224391:0:0:0:0:
64,192,224391,128,0,224670:0:0:0:0:
448,192,224391,128,0,224577:0:0:0:0:
320,192,224577,1,0,0:0:0:0:
192,192,224670,1,0,0:0:0:0:
64,192,224763,128,0,225602:0:0:0:0:
320,192,224763,128,0,224856:0:0:0:0:
448,192,224763,128,0,225043:0:0:0:0:
192,192,224950,128,0,225229:0:0:0:0:
320,192,224950,128,0,225043:0:0:0:0:
320,192,225136,128,0,225229:0:0:0:0:
448,192,225136,128,0,225415:0:0:0:0:
320,192,225322,128,0,225415:0:0:0:0:
192,192,225322,128,0,225509:0:0:0:0:
448,192,225509,128,0,225695:0:0:0:0:
320,192,225602,128,0,225788:0:0:0:0:
192,192,225695,128,0,225881:0:0:0:0:
64,192,225695,128,0,225881:0:0:0:0:
320,192,225881,128,0,226068:0:0:0:0:
448,192,225881,128,0,226068:0:0:0:0:
64,192,226068,128,0,226254:0:0:0:0:
192,192,226068,128,0,226254:0:0:0:0:
448,192,226161,128,0,226347:0:0:0:0:
320,192,226254,128,0,226533:0:0:0:0:
192,192,226347,128,0,226720:0:0:0:0:
64,192,226440,128,0,226533:0:0:0:0:
448,192,226627,1,0,0:0:0:0:
64,192,226627,1,0,0:0:0:0:
320,192,226627,128,0,226720:0:0:0:0:
192,192,226813,128,0,226999:0:0:0:0:
320,192,226813,128,0,226860:0:0:0:0:
448,192,226999,1,0,0:0:0:0:
64,192,226999,1,0,0:0:0:0:
320,192,226999,128,0,227186:0:0:0:0:
448,192,227186,1,0,0:0:0:0:
192,192,227186,128,0,227372:0:0:0:0:
64,192,227186,128,0,227232:0:0:0:0:
64,192,227372,1,0,0:0:0:0:
448,192,227372,128,0,227558:0:0:0:0:
320,192,227372,128,0,227558:0:0:0:0:
192,192,227465,128,0,227651:0:0:0:0:
64,192,227558,128,0,227745:0:0:0:0:
320,192,227651,128,0,227838:0:0:0:0:
192,192,227745,128,0,228024:0:0:0:0:
448,192,227838,128,0,228024:0:0:0:0:
64,192,227931,128,0,228210:0:0:0:0:
448,192,228117,1,0,0:0:0:0:
320,192,228117,128,0,228210:0:0:0:0:
192,192,228117,1,0,0:0:0:0:
64,192,228304,128,0,228490:0:0:0:0:
320,192,228304,128,0,228583:0:0:0:0:
448,192,228490,128,0,228676:0:0:0:0:
192,192,228490,128,0,228769:0:0:0:0:
320,192,228676,128,0,228863:0:0:0:0:
64,192,228676,128,0,228769:0:0:0:0:
64,192,228863,128,0,229049:0:0:0:0:
448,192,228863,1,0,0:0:0:0:
192,192,228956,128,0,229142:0:0:0:0:
448,192,229049,128,0,229235:0:0:0:0:
320,192,229142,128,0,229328:0:0:0:0:
192,192,229235,128,0,229422:0:0:0:0:
448,192,229328,128,0,229422:0:0:0:0:
320,192,229422,128,0,229515:0:0:0:0:
64,192,229422,128,0,229608:0:0:0:0:
192,192,229515,128,0,229608:0:0:0:0:
320,192,229608,1,0,0:0:0:0:
448,192,229608,128,0,229794:0:0:0:0:
64,192,229701,128,0,229794:0:0:0:0:
320,192,229794,1,0,0:0:0:0:
192,192,229794,128,0,229981:0:0:0:0:
64,192,229887,128,0,230074:0:0:0:0:
320,192,229981,1,0,0:0:0:0:
448,192,229981,128,0,230167:0:0:0:0:
192,192,230074,128,0,230260:0:0:0:0:
64,192,230167,1,0,0:0:0:0:
320,192,230167,128,0,230260:0:0:0:0:
448,192,230260,128,0,230446:0:0:0:0:
320,192,230353,1,0,0:0:0:0:
64,192,230353,128,0,230540:0:0:0:0:
192,192,230446,128,0,230633:0:0:0:0:
320,192,230540,128,0,230633:0:0:0:0:
448,192,230540,1,0,0:0:0:0:
320,192,230726,128,0,230819:0:0:0:0:
64,192,230726,128,0,231005:0:0:0:0:
448,192,230726,128,0,231471:0:0:0:0:
320,192,230912,128,0,231192:0:0:0:0:
192,192,230912,128,0,231005:0:0:0:0:
64,192,231099,128,0,231378:0:0:0:0:
192,192,231099,128,0,231192:0:0:0:0:
192,192,231285,128,0,231378:0:0:0:0:
320,192,231285,128,0,231471:0:0:0:0:
64,192,231471,128,0,231751:0:0:0:0:
192,192,231564,128,0,231658:0:0:0:0:
448,192,231658,128,0,231844:0:0:0:0:
320,192,231658,128,0,231844:0:0:0:0:
64,192,231844,128,0,232030:0:0:0:0:
192,192,231844,128,0,232030:0:0:0:0:
448,192,232030,128,0,232217:0:0:0:0:
320,192,232030,128,0,232310:0:0:0:0:
192,192,232123,128,0,232310:0:0:0:0:
64,192,232217,128,0,232403:0:0:0:0:
448,192,232310,128,0,232496:0:0:0:0:
320,192,232403,128,0,232682:0:0:0:0:
64,192,232589,1,0,0:0:0:0:
192,192,232589,128,0,232682:0:0:0:0:
448,192,232589,1,0,0:0:0:0:
320,192,232776,128,0,232962:0:0:0:0:
192,192,232776,128,0,232822:0:0:0:0:
64,192,232962,1,0,0:0:0:0:
192,192,232962,128,0,233148:0:0:0:0:
448,192,232962,128,0,233009:0:0:0:0:
448,192,233148,1,0,0:0:0:0:
320,192,233148,128,0,233335:0:0:0:0:
64,192,233148,128,0,233195:0:0:0:0:
64,192,233335,128,0,233521:0:0:0:0:
448,192,233335,128,0,233521:0:0:0:0:
192,192,233428,128,0,233614:0:0:0:0:
320,192,233521,128,0,233707:0:0:0:0:
448,192,233614,128,0,233801:0:0:0:0:
64,192,233707,128,0,233894:0:0:0:0:
192,192,233707,128,0,233987:0:0:0:0:
320,192,233801,128,0,233987:0:0:0:0:
448,192,233894,128,0,234173:0:0:0:0:
64,192,234080,1,0,0:0:0:0:
192,192,234080,128,0,234173:0:0:0:0:
320,192,234080,1,0,0:0:0:0:
192,192,234266,128,0,234453:0:0:0:0:
448,192,234266,128,0,234313:0:0:0:0:
320,192,234453,128,0,234639:0:0:0:0:
64,192,234453,128,0,234499:0:0:0:0:
64,192,234639,1,0,0:0:0:0:
192,192,234639,128,0,234825:0:0:0:0:
448,192,234639,128,0,234686:0:0:0:0:
448,192,234825,128,0,235012:0:0:0:0:
64,192,234825,128,0,234872:0:0:0:0:
320,192,234919,128,0,235105:0:0:0:0:
192,192,235012,128,0,235198:0:0:0:0:
64,192,235105,128,0,235291:0:0:0:0:
448,192,235198,1,0,0:0:0:0:
320,192,235198,128,0,235384:0:0:0:0:
192,192,235291,128,0,235478:0:0:0:0:
64,192,235384,128,0,235571:0:0:0:0:
448,192,235571,5,0,0:0:0:0:
192,192,235571,128,0,235757:0:0:0:0:
320,192,235664,128,0,235850:0:0:0:0:
448,192,235757,128,0,235850:0:0:0:0:
64,192,235757,128,0,235943:0:0:0:0:
192,192,235850,128,0,236037:0:0:0:0:
448,192,235943,128,0,236130:0:0:0:0:
320,192,236037,128,0,236409:0:0:0:0:
64,192,236130,1,0,0:0:0:0:
192,192,236130,128,0,236316:0:0:0:0:
64,192,236316,128,0,236596:0:0:0:0:
448,192,236316,128,0,236502:0:0:0:0:
320,192,236502,1,0,0:0:0:0:
192,192,236596,1,0,0:0:0:0:
64,192,236689,128,0,237527:0:0:0:0:
320,192,236689,128,0,236782:0:0:0:0:
448,192,236689,128,0,236968:0:0:0:0:
192,192,236875,128,0,237155:0:0:0:0:
320,192,236875,128,0,236968:0:0:0:0:
320,192,237061,128,0,237155:0:0:0:0:
448,192,237061,128,0,237341:0:0:0:0:
320,192,237248,128,0,237341:0:0:0:0:
192,192,237248,128,0,237434:0:0:0:0:
448,192,237434,128,0,237620:0:0:0:0:
320,192,237527,128,0,237714:0:0:0:0:
192,192,237620,128,0,237807:0:0:0:0:
64,192,237620,128,0,237807:0:0:0:0:
320,192,237807,128,0,237993:0:0:0:0:
448,192,237807,128,0,237993:0:0:0:0:
64,192,237993,128,0,238179:0:0:0:0:
192,192,237993,128,0,238179:0:0:0:0:
448,192,238086,128,0,238273:0:0:0:0:
320,192,238179,128,0,238459:0:0:0:0:
192,192,238273,128,0,238645:0:0:0:0:
64,192,238366,128,0,238459:0:0:0:0:
448,192,238552,1,0,0:0:0:0:
64,192,238552,1,0,0:0:0:0:
320,192,238552,128,0,238645:0:0:0:0:
320,192,238738,1,0,0:0:0:0:
192,192,238738,128,0,238925:0:0:0:0:
64,192,238925,1,0,0:0:0:0:
320,192,238925,128,0,239111:0:0:0:0:
448,192,238925,128,0,238971:0:0:0:0:
448,192,239111,1,0,0:0:0:0:
192,192,239111,128,0,239297:0:0:0:0:
64,192,239111,128,0,239158:0:0:0:0:
64,192,239297,1,0,0:0:0:0:
448,192,239297,128,0,239484:0:0:0:0:
320,192,239297,128,0,239484:0:0:0:0:
192,192,239391,128,0,239577:0:0:0:0:
64,192,239484,128,0,239670:0:0:0:0:
320,192,239577,128,0,239763:0:0:0:0:
192,192,239670,128,0,239950:0:0:0:0:
448,192,239763,128,0,239950:0:0:0:0:
64,192,239856,128,0,240136:0:0:0:0:
448,192,240043,1,0,0:0:0:0:
320,192,240043,128,0,240136:0:0:0:0:
192,192,240043,1,0,0:0:0:0:
64,192,240229,128,0,240415:0:0:0:0:
320,192,240229,128,0,240509:0:0:0:0:
448,192,240415,128,0,240602:0:0:0:0:
192,192,240415,128,0,240695:0:0:0:0:
320,192,240602,128,0,240788:0:0:0:0:
64,192,240602,128,0,240695:0:0:0:0:
64,192,240788,128,0,240974:0:0:0:0:
448,192,240788,1,0,0:0:0:0:
192,192,240881,128,0,241068:0:0:0:0:
448,192,240974,128,0,241161:0:0:0:0:
320,192,241068,128,0,241254:0:0:0:0:
192,192,241161,128,0,241347:0:0:0:0:
448,192,241254,128,0,241347:0:0:0:0:
320,192,241347,128,0,241440:0:0:0:0:
64,192,241347,128,0,241627:0:0:0:0:
192,192,241440,128,0,241533:0:0:0:0:
448,192,241533,128,0,241813:0:0:0:0:
320,192,241627,128,0,241906:0:0:0:0:
192,192,241720,128,0,241999:0:0:0:0:
64,192,241813,128,0,242092:0:0:0:0:
448,192,241906,128,0,242186:0:0:0:0:
320,192,241999,128,0,242279:0:0:0:0:
192,192,242092,128,0,242372:0:0:0:0:
64,192,242186,128,0,242465:0:0:0:0:
448,192,242279,128,0,242558:0:0:0:0:
320,192,242372,128,0,242558:0:0:0:0:
192,192,242465,128,0,242558:0:0:0:0:
64,192,242558,128,0,242651:0:0:0:0:
192,192,242651,1,0,0:0:0:0:
320,192,242651,1,0,0:0:0:0:
448,192,242651,1,0,0:0:0:0:
64,192,242838,1,0,0:0:0:0:
192,192,242838,1,0,0:0:0:0:
320,192,242838,1,0,0:0:0:0:
64,192,243210,1,0,0:0:0:0:
320,192,243210,1,0,0:0:0:0:
192,192,243210,1,0,0:0:0:0:
448,192,243210,1,0,0:0:0:0:
192,192,243583,1,0,0:0:0:0:
320,192,243583,1,0,0:0:0:0:
64,192,243956,128,0,247123:0:0:0:0:
448,192,243956,128,0,247123:0:0:0:0:
192,192,245446,1,0,0:0:0:0:
192,192,247123,128,0,251596:0:0:0:0:
320,192,247147,1,0,0:0:0:0:
448,192,248614,1,0,0:0:0:0:
64,192,249173,1,0,0:0:0:0:
