osu file format v14

[General]
AudioFilename: audio.mp3
AudioLeadIn: 0
PreviewTime: 53845
Countdown: 1
SampleSet: Normal
StackLeniency: 0.7
Mode: 0
LetterboxInBreaks: 0
CountdownOffset: 2
WidescreenStoryboard: 1

[Editor]
Bookmarks: 214,5578,9097,15633,27030,37756,48399,61723,72365,83343
DistanceSpacing: 1.3
BeatDivisor: 4
GridSize: 16
TimelineZoom: 1

[Metadata]
Title:Fatima
TitleUnicode:Fatima
Artist:Kanako Ito
ArtistUnicode:Kanako Ito
Creator:angelovanrooij
Version:Normal
Source:Steins;gate 0
Tags:Anime Steins;Gate 0
BeatmapID:1621792
BeatmapSetID:768621

[Difficulty]
HPDrainRate:5
CircleSize:4
OverallDifficulty:6
ApproachRate:5
SliderMultiplier:1.4
SliderTickRate:1

[Events]
//Background and Video events
0,0,"thumb-1920-224760.jpg",0,0
Video,0,"Steins;Gate 0 Op 2.avi"
//Break Periods
//Storyboard Layer 0 (Background)
//Storyboard Layer 1 (Fail)
//Storyboard Layer 2 (Pass)
//Storyboard Layer 3 (Foreground)
//Storyboard Sound Samples

[TimingPoints]
214,335.195530726257,4,1,0,65,1,0
59209,-100,4,1,0,100,0,0
61722,-100,4,1,0,80,0,1
61723,-100,4,1,0,100,0,1
80660,-100,4,1,0,70,0,1
81331,-100,4,1,0,65,0,1
82001,-100,4,1,0,55,0,1
83677,-133.333333333333,4,1,0,60,0,0
88706,-100,4,1,0,60,0,0

[HitObjects]
112,272,214,5,0,0:0:0:0:
48,192,549,1,0,0:0:0:0:
112,127,884,2,2,B|175:68|175:68|234:45,1,140
272,112,1554,5,0,0:0:0:0:
336,192,1889,1,0,0:0:0:0:
272,256,2224,2,2,B|214:319|214:319|156:347,1,140
64,224,2896,5,0,0:0:0:0:
160,128,3231,1,0,0:0:0:0:
160,224,3566,2,2,B|240:256|240:256|304:256,1,140
448,160,4236,5,0,0:0:0:0:
352,256,4571,1,0,0:0:0:0:
352,160,4906,2,0,B|320:144|320:144|272:144,1,70
80,192,5577,5,0,0:0:0:0:
160,224,5912,1,0,0:0:0:0:
208,144,6079,2,2,B|288:112|288:112|352:112,1,140
416,128,6750,1,0,0:0:0:0:
475,207,7085,2,2,P|379:223|347:191,2,140
272,112,8259,5,0,0:0:0:0:
176,64,8594,1,0,0:0:0:0:
176,160,8761,2,2,B|256:192|256:192|320:192,1,140
400,208,9431,1,0,0:0:0:0:
458,275,9767,2,2,P|362:291|330:259,2,140
128,192,10940,5,0,0:0:0:0:
176,128,11276,1,0,0:0:0:0:
240,80,11443,2,2,B|320:80|320:80|384:96,1,140
416,160,12113,1,0,0:0:0:0:
416,240,12448,2,2,P|353:265|293:232,2,140,0|0|0,0:0|0:0|0:0,0:0:0:0:
352,160,13622,6,2,P|288:128|208:176,1,140
288,224,14292,2,2,P|223:246|163:214,1,140
224,160,14963,1,0,0:0:0:0:
224,160,15466,1,0,0:0:0:0:
48,144,16303,6,2,L|64:288,2,140
96,80,17309,1,0,0:0:0:0:
160,128,17644,2,0,L|172:271,1,140
256,224,18146,2,0,L|268:80,1,140
352,112,18817,6,2,L|368:256,2,140
256,96,19991,1,0,0:0:0:0:
288,176,20158,2,2,L|160:256,2,140
80,112,20996,6,0,B|112:48|112:48|192:48,1,140
272,48,21667,2,2,B|368:48|368:48|416:64,1,140,0|0,0:0|0:0,0:0:0:0:
448,144,22337,5,0,0:0:0:0:
368,176,22672,1,0,0:0:0:0:
320,240,23007,2,2,B|297:330|297:330|229:330,1,140
224,240,23510,2,2,B|246:149|246:149|314:149,1,140
384,160,24348,5,0,0:0:0:0:
368,240,24683,1,0,0:0:0:0:
288,272,25018,1,0,0:0:0:0:
208,272,25353,1,0,0:0:0:0:
208,272,25521,6,2,P|158:133|272:288,1,630,2|2,3:0|3:0,3:0:0:0:
256,192,27700,1,0,0:0:0:0:
176,192,28035,1,0,0:0:0:0:
192,112,28371,6,2,B|256:64|256:64|320:80,1,140
400,112,28873,1,0,0:0:0:0:
496,160,29208,1,0,0:0:0:0:
416,208,29543,1,0,0:0:0:0:
320,224,29711,2,2,L|160:240,2,140
80,240,30717,5,0,0:0:0:0:
128,304,31052,2,2,B|192:352|192:352|256:336,1,140
256,240,31554,1,0,0:0:0:0:
352,304,31889,1,0,0:0:0:0:
352,192,32225,1,0,0:0:0:0:
272,144,32392,6,2,L|128:96,2,140
272,144,33398,1,0,0:0:0:0:
208,80,33734,2,2,P|299:50|339:70,1,140
400,128,34236,2,2,P|308:157|268:137,1,140
96,256,35074,5,0,0:0:0:0:
112,176,35409,2,0,L|256:160,2,140
336,192,36247,1,0,0:0:0:0:
240,256,36582,1,0,0:0:0:0:
128,208,36917,1,0,0:0:0:0:
76,130,37420,1,0,0:0:0:0:
144,80,37756,6,2,B|240:64|240:64|304:80,1,140
368,144,38426,2,2,B|272:160|272:160|208:144,1,140
160,208,39097,1,0,0:0:0:0:
224,272,39431,2,0,P|304:288|368:272,1,140
294,205,40102,1,0,0:0:0:0:
361,133,40438,6,2,P|281:117|217:133,1,140
176,176,41108,1,0,0:0:0:0:
144,240,41443,1,0,0:0:0:0:
187,300,41778,2,2,P|264:322|330:312,1,140
263,239,42281,2,2,P|278:159|262:95,1,140
192,240,42951,5,0,0:0:0:0:
192,176,43119,1,0,0:0:0:0:
192,48,43454,1,0,0:0:0:0:
192,112,43790,1,0,0:0:0:0:
112,112,44125,5,0,0:0:0:0:
112,112,44460,2,2,B|48:176|48:176|48:240,1,140
64,288,44962,2,2,B|128:352|128:352|192:352,1,140
160,272,45801,6,0,L|304:256,1,140
208,176,46303,2,0,L|68:189,2,140
304,160,47308,1,0,0:0:0:0:
288,256,47644,1,0,0:0:0:0:
288,256,47812,2,0,L|192:272,1,70
128,288,48482,5,4,0:0:0:0:
176,352,48817,1,0,0:0:0:0:
256,352,49153,2,2,L|395:338,1,140
435,258,49823,1,4,0:0:0:0:
352,208,50158,2,0,L|212:194,2,140
167,124,51164,6,4,P|124:193|137:249,1,140
200,199,51834,2,0,P|297:166|346:179,1,140
280,237,52505,2,4,P|230:327|185:351,1,140
192,261,53175,2,4,P|126:180|120:130,1,140
128,80,53845,6,2,L|288:96,1,140
352,112,54348,1,4,0:0:0:0:
352,112,54683,1,4,0:0:0:0:
381,223,55186,6,2,L|221:239,1,140
147,248,55689,1,4,0:0:0:0:
147,248,56024,1,4,0:0:0:0:
38,249,56527,6,2,L|70:73,1,140
130,112,57197,2,2,L|162:288,1,140
221,259,57867,2,2,L|253:83,1,140
315,125,58538,2,2,L|356:290,1,140
256,192,59209,12,0,60549,0:0:0:0:
224,256,61722,5,0,0:0:0:0:
144,208,62225,2,2,P|240:176|288:192,2,140
224,272,63063,1,4,0:0:0:0:
288,330,63565,2,2,B|368:282|368:282|400:234,1,140
288,208,64403,2,2,L|176:304,2,140
416,208,65409,1,0,0:0:0:0:
352,128,65744,1,4,0:0:0:0:
384,48,66247,6,2,P|315:56|263:128,2,140
148,210,67588,2,2,L|308:178,1,140
320,288,68426,2,2,P|224:320|176:304,2,140
336,192,69600,1,2,0:0:0:0:
432,128,69935,6,4,P|336:96|208:144,2,210
334,202,71611,1,2,0:0:0:0:
334,202,71946,1,2,0:0:0:0:
210,199,72449,5,4,0:0:0:0:
160,128,72952,2,2,P|208:112|288:160,2,140
96,208,73957,1,4,0:0:0:0:
144,288,74292,2,2,P|240:288|272:240,1,140
158,176,75130,5,4,0:0:0:0:
208,112,75633,2,2,P|160:96|80:144,2,140
158,176,76639,1,6,0:0:0:0:
176,256,76974,2,0,L|336:272,1,140
416,288,77644,1,4,0:0:0:0:
389,161,77979,5,4,0:0:0:0:
307,108,78650,2,2,P|368:76|438:73,2,140
400,144,79655,1,4,0:0:0:0:
437,249,79991,1,4,0:0:0:0:
338,213,80326,1,4,0:0:0:0:
396,114,80660,6,2,P|305:89|253:138,1,140
333,160,81331,2,2,P|242:184|190:135,1,140
272,112,82001,2,2,P|181:87|129:136,1,140
208,162,82672,2,2,P|117:186|65:137,1,140
80,80,83342,5,4,0:0:0:0:
80,80,84013,1,0,0:0:0:0:
144,128,84683,2,4,L|240:192,2,105.000004005432
295,233,85689,1,0,0:0:0:0:
210,234,86024,5,4,0:0:0:0:
210,234,86695,1,2,0:0:0:0:
274,182,87364,2,4,L|361:123,2,105.000004005432
208,224,88371,1,4,0:0:0:0:
96,128,88706,6,2,L|240:48,1,140
304,112,89376,2,2,L|160:192,1,140
272,256,90047,2,2,L|416:176,1,140
454,262,90717,2,2,L|310:342,1,140
