osu file format v14

[General]
AudioFilename: audio.mp3
AudioLeadIn: 0
PreviewTime: 53845
Countdown: 1
SampleSet: Normal
StackLeniency: 0.8
Mode: 0
LetterboxInBreaks: 0
CountdownOffset: 2
WidescreenStoryboard: 0

[Editor]
Bookmarks: 214,5578,9097,15633,27030,37756,48399,61723,72365,83343
DistanceSpacing: 1.3
BeatDivisor: 4
GridSize: 16
TimelineZoom: 2.1

[Metadata]
Title:Fatima
TitleUnicode:Fatima
Artist:Kanako Ito
ArtistUnicode:Kanako Ito
Creator:angelovanrooij
Version:Insane
Source:Steins;gate 0
Tags:Anime Steins;Gate 0
BeatmapID:1616470
BeatmapSetID:768621

[Difficulty]
HPDrainRate:7
CircleSize:4
OverallDifficulty:6
ApproachRate:9
SliderMultiplier:1.4
SliderTickRate:1

[Events]
//Background and Video events
0,0,"thumb-1920-224760.jpg",0,0
Video,0,"Steins;Gate 0 Op 2.avi"
//Break Periods
//Storyboard Layer 0 (Background)
//Storyboard Layer 1 (Fail)
//Storyboard Layer 2 (Pass)
//Storyboard Layer 3 (Foreground)
//Storyboard Sound Samples

[TimingPoints]
214,335.195530726257,4,1,0,50,1,0
2896,-125,4,1,0,30,0,0
3566,-111.111111111111,4,1,0,60,0,0
4236,-100,4,1,0,90,0,0
5242,-100,4,1,0,65,0,0
14544,-166.666666666667,4,1,0,65,0,0
15465,-166.666666666667,4,1,0,65,0,0
15716,-100,4,1,0,65,0,0
16555,-100,4,1,0,65,0,0
17644,-166.666666666667,4,1,0,65,0,0
18147,-100,4,1,0,65,0,0
36248,-166.666666666667,4,1,0,65,0,0
37756,-100,4,1,0,65,0,0
39097,-166.666666666667,4,1,0,65,0,0
40270,-100,4,1,0,65,0,0
42281,-166.666666666667,4,2,0,65,0,0
43287,-71.4285714285714,4,1,0,65,0,0
55186,-83.3333333333333,4,1,0,75,0,0
56527,-55.5555555555556,4,1,0,85,0,0
60382,-66.6666666666667,4,1,0,90,0,0
61722,-50,4,1,0,100,0,1
61723,-50,4,1,0,100,0,1
72365,-50,4,3,0,100,0,1
80577,-50,4,1,0,100,0,0
83343,-133.333333333333,4,1,0,50,0,0
88705,-50,4,1,0,50,0,0

[HitObjects]
123,160,214,6,0,P|165:146|179:188,1,70
160,234,549,2,0,P|203:247|215:203,1,70
179,160,884,2,0,P|221:146|235:188,1,70
216,232,1219,2,0,P|273:232|277:209,1,70
235,160,1554,2,0,P|277:146|291:188,1,70
273,230,1889,2,0,P|316:243|328:199,1,70
291,160,2225,2,0,P|331:141|350:182,1,70
329,228,2560,2,0,P|386:227|390:204,1,70
128,160,2896,6,0,L|192:145,1,56
128,226,3230,2,0,L|192:241,1,56
224,161,3565,2,0,L|288:146,1,56
224,225,3899,2,0,L|288:240,1,56
320,161,4236,2,0,L|400:144,1,70
320,225,4570,2,0,L|400:240,1,70
256,192,4907,1,4,0:0:0:0:
256,192,5075,1,4,0:0:0:0:
144,144,5410,5,0,0:0:0:0:
144,144,5494,1,0,0:0:0:0:
144,144,5577,2,2,L|208:80,1,70
284,64,5913,1,0,0:0:0:0:
240,240,6079,2,2,L|304:176,1,70
376,124,6415,2,2,L|381:210,1,70
384,312,6751,2,2,L|312:264,1,70
220,80,7086,2,2,L|188:148,1,70
120,208,7421,2,2,L|77:146,1,70
68,48,7756,2,2,L|156:56,1,70
212,308,8091,5,0,0:0:0:0:
212,308,8175,1,0,0:0:0:0:
212,308,8259,2,10,B|206:315|239:229,1,70
272,160,8594,1,0,0:0:0:0:
304,64,8762,2,2,L|392:72,1,70
448,112,9097,2,2,L|397:184,1,70
332,212,9432,2,2,L|294:131,1,70
217,309,9767,2,2,L|129:317,1,70
29,321,10103,2,2,L|62:232,1,70
128,160,10438,2,2,L|178:232,1,70
96,304,10773,5,0,0:0:0:0:
96,304,10857,1,0,0:0:0:0:
96,304,10941,2,2,L|144:240,1,70
208,192,11276,1,0,0:0:0:0:
304,192,11443,2,2,L|400:192,1,70
464,192,11779,2,2,L|426:272,1,70
384,336,12114,2,2,L|333:263,1,70
189,179,12449,2,2,L|101:171,1,70
31,128,12784,2,2,L|81:55,1,70
142,30,13119,2,2,L|179:110,1,70
208,160,13454,5,0,0:0:0:0:
255,209,13538,1,0,0:0:0:0:
304,256,13621,1,0,0:0:0:0:
416,176,13789,1,0,0:0:0:0:
308,261,13957,1,0,0:0:0:0:
304,96,14124,1,0,0:0:0:0:
308,261,14292,1,0,0:0:0:0:
192,176,14459,1,0,0:0:0:0:
80,288,14627,6,0,L|112:256,1,41.9999987182618
256,112,14962,1,4,0:0:0:0:
176,192,15130,1,0,0:0:0:0:
256,288,15297,1,0,0:0:0:0:
256,112,15465,5,4,0:0:0:0:
352,192,15632,1,0,0:0:0:0:
256,288,15800,1,0,0:0:0:0:
80,320,15968,2,0,P|42:286|40:250,1,70
128,240,16219,1,0,0:0:0:0:
128,240,16303,6,0,L|192:176,1,70
256,112,16638,1,0,0:0:0:0:
80,112,16806,1,0,0:0:0:0:
177,190,16973,2,0,L|257:222,1,70
256,336,17309,5,0,0:0:0:0:
256,256,17477,1,0,0:0:0:0:
288,176,17644,2,0,P|260:160|212:192,1,83.9999974365235
144,160,18147,6,2,L|64:96,1,70
32,32,18483,2,2,L|128:32,1,70
224,32,18818,2,2,L|160:112,1,70
293,158,19153,5,0,0:0:0:0:
211,210,19321,1,0,0:0:0:0:
301,259,19488,1,0,0:0:0:0:
224,112,19656,2,2,L|144:96,1,70
64,80,19991,5,0,0:0:0:0:
128,16,20159,2,2,L|216:24,1,70
256,48,20493,1,0,0:0:0:0:
276,143,20661,1,0,0:0:0:0:
352,74,20828,1,0,0:0:0:0:
224,256,20996,6,0,P|267:269|287:240,1,70
256,192,21331,1,0,0:0:0:0:
256,112,21499,1,0,0:0:0:0:
288,48,21666,6,0,P|244:34|224:63,1,70
144,96,22002,2,2,L|211:152,1,70
368,288,22336,2,2,L|301:232,1,70
208,304,22672,5,0,0:0:0:0:
144,256,22840,1,0,0:0:0:0:
96,192,23008,2,2,L|176:128,1,70
256,192,23343,1,0,0:0:0:0:
96,192,23510,2,2,L|176:192,1,70
256,192,23845,1,0,0:0:0:0:
96,192,24013,2,2,L|152:248,1,70
264,234,24348,6,0,L|200:186,1,70
208,192,24683,2,0,L|256:128,1,70
250,136,25018,2,0,L|314:184,1,70
306,178,25353,2,0,L|258:242,1,70
264,234,25689,5,0,0:0:0:0:
189,160,25857,1,0,0:0:0:0:
264,85,26024,1,0,0:0:0:0:
338,160,26192,1,0,0:0:0:0:
192,231,26359,1,0,0:0:0:0:
192,88,26527,1,0,0:0:0:0:
335,88,26694,1,0,0:0:0:0:
335,231,26862,1,0,0:0:0:0:
264,160,27030,1,0,0:0:0:0:
144,288,27198,5,0,0:0:0:0:
144,288,27365,1,0,0:0:0:0:
144,288,27533,2,0,P|94:276|75:246,1,70
39,166,27868,1,0,0:0:0:0:
54,77,28036,5,0,0:0:0:0:
54,77,28119,1,0,0:0:0:0:
54,77,28203,1,0,0:0:0:0:
158,73,28371,2,2,L|246:65,1,70
342,56,28706,1,4,0:0:0:0:
384,160,28874,2,2,L|296:168,1,70
229,180,29209,1,4,0:0:0:0:
229,180,29376,1,4,0:0:0:0:
229,180,29544,2,6,L|141:172,1,70
54,168,29879,5,0,0:0:0:0:
54,168,29963,1,4,0:0:0:0:
54,168,30047,1,4,0:0:0:0:
140,96,30214,1,4,0:0:0:0:
255,71,30382,2,2,L|351:71,1,70
400,160,30717,5,0,0:0:0:0:
400,160,30885,1,0,0:0:0:0:
400,160,31052,2,2,L|320:128,1,70
256,96,31388,1,4,0:0:0:0:
176,128,31555,2,2,L|96:176,1,70
112,240,31890,2,2,L|180:281,1,70
256,304,32225,1,4,0:0:0:0:
336,272,32392,2,2,L|407:244,1,70
380,152,32728,5,4,0:0:0:0:
380,152,32896,1,0,0:0:0:0:
380,152,33064,2,2,L|292:144,1,70
192,128,33399,5,0,0:0:0:0:
144,208,33566,1,0,0:0:0:0:
208,272,33734,2,0,P|255:281|292:255,1,70
240,192,34069,1,0,0:0:0:0:
220,112,34236,2,0,P|268:112|300:144,1,70
368,192,34572,1,4,0:0:0:0:
256,192,34740,5,4,0:0:0:0:
256,192,34823,1,4,0:0:0:0:
256,192,34907,1,4,0:0:0:0:
154,323,35075,5,2,0:0:0:0:
400,192,35242,1,0,0:0:0:0:
107,192,35410,1,0,0:0:0:0:
346,326,35578,1,2,0:0:0:0:
93,59,35913,5,0,0:0:0:0:
410,58,36079,1,0,0:0:0:0:
176,192,36248,2,0,L|272:192,1,83.9999974365235
64,192,36918,5,0,0:0:0:0:
368,192,37253,1,0,0:0:0:0:
256,184,37421,1,0,0:0:0:0:
256,184,37505,1,0,0:0:0:0:
256,184,37589,1,0,0:0:0:0:
368,48,37756,6,2,L|448:80,1,70
464,176,38091,1,0,0:0:0:0:
464,176,38259,2,2,L|388:204,1,70
257,35,38762,5,0,0:0:0:0:
180,66,38929,1,0,0:0:0:0:
124,119,39097,2,0,P|103:159|97:215,1,83.9999974365235
111,271,39600,2,0,P|145:299|199:318,1,83.9999974365235
257,326,40103,1,0,0:0:0:0:
330,309,40270,2,0,P|372:293|415:256,1,70
410,186,40605,5,4,0:0:0:0:
395,67,40773,1,4,0:0:0:0:
308,132,40941,1,4,0:0:0:0:
238,154,41108,2,0,P|254:196|283:200,1,70
144,160,41443,5,0,0:0:0:0:
352,160,41611,1,0,0:0:0:0:
224,314,41778,2,0,P|267:325|301:287,1,70
254,246,42114,1,0,0:0:0:0:
176,112,42281,2,0,L|222:150,1,41.9999987182618
336,112,42616,2,0,L|289:150,1,41.9999987182618
256,272,42951,2,0,L|255:211,1,41.9999987182618
34,44,43454,5,4,0:0:0:0:
116,93,43621,1,4,0:0:0:0:
182,46,43789,2,0,P|193:102|177:153,1,97.9999970092774
478,44,44124,5,4,0:0:0:0:
396,93,44291,1,4,0:0:0:0:
330,46,44459,2,0,P|319:102|335:153,1,97.9999970092774
368,224,44795,1,0,0:0:0:0:
368,224,44962,2,2,L|245:260,1,97.9999970092774
160,288,45297,1,0,0:0:0:0:
320,128,45801,5,0,0:0:0:0:
256,192,45969,1,4,0:0:0:0:
256,192,46052,1,4,0:0:0:0:
256,192,46136,1,4,0:0:0:0:
294,275,46303,2,0,P|342:255|341:191,1,97.9999970092774
192,80,46638,5,0,0:0:0:0:
336,176,46806,1,0,0:0:0:0:
192,240,46973,1,0,0:0:0:0:
320,304,47308,1,0,0:0:0:0:
192,160,47644,1,0,0:0:0:0:
336,96,47811,1,0,0:0:0:0:
192,32,47979,5,0,0:0:0:0:
96,256,48314,5,0,0:0:0:0:
96,256,48483,5,0,0:0:0:0:
160,128,48650,1,4,0:0:0:0:
160,128,48734,1,4,0:0:0:0:
160,128,48818,1,6,0:0:0:0:
224,256,48985,5,0,0:0:0:0:
288,128,49153,1,4,0:0:0:0:
288,128,49237,1,4,0:0:0:0:
288,128,49321,1,6,0:0:0:0:
331,215,49488,2,2,L|269:92,1,97.9999970092774
96,128,49823,5,0,0:0:0:0:
160,256,49990,1,4,0:0:0:0:
160,256,50074,1,4,0:0:0:0:
160,256,50158,1,6,0:0:0:0:
224,128,50325,5,0,0:0:0:0:
288,256,50493,1,4,0:0:0:0:
288,256,50577,1,4,0:0:0:0:
288,256,50661,1,6,0:0:0:0:
331,168,50828,2,2,L|269:290,1,97.9999970092774
448,288,51164,5,0,0:0:0:0:
352,128,51331,1,4,0:0:0:0:
352,128,51415,1,4,0:0:0:0:
352,128,51499,1,6,0:0:0:0:
304,288,51666,5,0,0:0:0:0:
240,160,51834,1,4,0:0:0:0:
240,160,51918,1,4,0:0:0:0:
240,160,52002,1,6,0:0:0:0:
196,247,52169,2,2,L|257:124,1,97.9999970092774
416,128,52505,5,0,0:0:0:0:
352,256,52672,1,4,0:0:0:0:
352,256,52756,1,4,0:0:0:0:
352,256,52840,1,6,0:0:0:0:
288,128,53007,5,0,0:0:0:0:
224,256,53175,1,4,0:0:0:0:
224,256,53259,1,4,0:0:0:0:
224,256,53343,1,6,0:0:0:0:
176,160,53510,2,2,L|237:282,1,97.9999970092774
352,96,53846,5,0,0:0:0:0:
395,159,54013,2,0,P|402:77|386:79,1,97.9999970092774
428,90,54348,1,0,0:0:0:0:
320,128,54683,5,0,0:0:0:0:
287,160,54766,1,0,0:0:0:0:
254,193,54850,1,0,0:0:0:0:
223,224,54934,1,0,0:0:0:0:
190,257,55018,1,0,0:0:0:0:
160,96,55186,5,0,0:0:0:0:
117,33,55353,2,0,P|109:114|125:112,1,97.9999970092774
84,102,55688,1,0,0:0:0:0:
192,128,56025,5,0,0:0:0:0:
225,160,56108,1,0,0:0:0:0:
258,193,56192,1,0,0:0:0:0:
289,224,56276,1,0,0:0:0:0:
322,257,56360,1,0,0:0:0:0:
416,160,56527,5,0,0:0:0:0:
400,48,56694,2,2,L|288:161,1,125.999996154785
96,160,57029,5,0,0:0:0:0:
112,48,57196,2,2,L|223:161,1,125.999996154785
320,240,57532,1,0,0:0:0:0:
192,240,57700,1,0,0:0:0:0:
224,112,57867,6,0,P|192:176|224:208,1,125.999996154785
256,160,58202,2,0,P|288:224|256:256,1,125.999996154785
144,208,58538,1,0,0:0:0:0:
315,287,58705,1,0,0:0:0:0:
256,64,59040,1,0,0:0:0:0:
256,192,59209,12,0,60214,0:0:0:0:
224,336,60549,6,0,P|292:355|305:336,1,105.000004005432
263,272,60885,1,2,0:0:0:0:
201,192,61052,2,2,L|348:191,2,105.000004005432
80,240,61554,1,0,0:0:0:0:
80,112,61723,6,2,L|224:80,1,140
304,128,62058,1,0,0:0:0:0:
224,208,62226,1,0,0:0:0:0:
224,208,62393,1,0,0:0:0:0:
144,288,62561,2,2,L|295:301,1,140
384,336,62896,1,0,0:0:0:0:
384,224,63063,2,2,L|233:211,1,140
152,179,63398,5,0,0:0:0:0:
95,147,63566,1,0,0:0:0:0:
100,93,63734,1,0,0:0:0:0:
160,74,63901,1,0,0:0:0:0:
192,128,64069,2,0,P|160:176|93:142,1,140
180,44,64404,6,2,L|331:57,1,140
307,165,64740,1,0,0:0:0:0:
307,165,64823,1,0,0:0:0:0:
307,165,64907,1,0,0:0:0:0:
224,224,65075,1,0,0:0:0:0:
240,336,65242,2,2,L|391:349,1,140
480,336,65578,1,0,0:0:0:0:
416,256,65745,2,2,L|264:242,1,140
152,179,66079,5,0,0:0:0:0:
95,147,66247,1,0,0:0:0:0:
100,93,66415,1,0,0:0:0:0:
160,74,66582,1,0,0:0:0:0:
192,128,66750,2,0,P|160:176|93:142,1,140
320,136,67086,5,0,0:0:0:0:
96,288,67253,1,0,0:0:0:0:
96,288,67421,2,2,L|247:301,1,140
396,292,67756,1,0,0:0:0:0:
336,212,67924,2,2,L|184:225,1,140
64,240,68259,1,0,0:0:0:0:
48,128,68427,2,2,L|199:114,1,140
288,96,68762,1,0,0:0:0:0:
96,224,68929,2,2,L|247:211,1,140
345,193,69264,5,0,0:0:0:0:
254,281,69431,1,0,0:0:0:0:
166,190,69599,1,0,0:0:0:0:
257,102,69767,1,0,0:0:0:0:
448,48,69935,6,2,L|288:160,1,140
96,320,70270,1,4,0:0:0:0:
64,48,70438,6,2,L|224:160,1,140
416,320,70773,1,4,0:0:0:0:
256,64,70940,6,2,L|256:256,1,140
48,344,71276,1,4,0:0:0:0:
256,240,71443,5,0,0:0:0:0:
199,208,71611,1,0,0:0:0:0:
204,154,71779,1,0,0:0:0:0:
264,135,71946,1,0,0:0:0:0:
296,189,72114,2,0,P|264:237|197:203,1,140
44,50,72449,6,8,L|196:63,1,140
352,88,72784,1,0,0:0:0:0:
448,224,72952,2,8,L|296:237,1,140
96,288,73287,1,0,0:0:0:0:
256,336,73454,1,0,0:0:0:0:
416,288,73622,1,2,0:0:0:0:
256,240,73790,2,0,L|136:144,1,140
64,80,74125,5,0,0:0:0:0:
64,80,74209,1,8,0:0:0:0:
64,80,74293,1,2,0:0:0:0:
98,164,74459,1,8,0:0:0:0:
180,188,74628,2,0,P|247:145|235:96,1,140
185,35,74963,1,8,0:0:0:0:
320,32,75130,6,0,P|400:63|413:119,1,140
404,187,75466,1,0,0:0:0:0:
384,253,75633,1,0,0:0:0:0:
329,295,75801,1,0,0:0:0:0:
256,320,75968,2,0,P|176:336|128:304,1,140
112,224,76304,1,8,0:0:0:0:
114,145,76471,2,0,P|178:95|236:103,1,140
336,144,76806,5,0,0:0:0:0:
398,145,76973,1,0,0:0:0:0:
426,108,77141,1,0,0:0:0:0:
385,68,77309,1,0,0:0:0:0:
338,78,77476,2,2,P|411:95|407:87,1,140
276,200,77812,5,0,0:0:0:0:
276,200,77896,1,0,0:0:0:0:
276,200,77980,2,2,L|263:48,1,140
112,84,78315,1,0,0:0:0:0:
112,84,78483,1,8,0:0:0:0:
64,160,78650,1,2,0:0:0:0:
80,256,78818,2,2,L|232:269,1,140
368,256,79153,5,10,0:0:0:0:
64,128,79488,1,10,0:0:0:0:
400,48,79823,1,10,0:0:0:0:
203,139,80159,1,0,0:0:0:0:
64,128,80325,2,10,L|216:141,1,140
256,192,80660,12,0,82336,0:0:0:0:
256,310,82672,5,2,0:0:0:0:
137,191,82840,1,2,0:0:0:0:
256,73,83008,1,2,0:0:0:0:
374,192,83175,1,2,0:0:0:0:
256,192,83343,6,0,L|356:120,2,105.000004005432
408,80,84348,1,0,0:0:0:0:
256,192,84684,2,0,L|156:120,2,105.000004005432
88,72,85689,1,4,0:0:0:0:
88,72,85857,1,4,0:0:0:0:
256,192,86024,6,0,L|156:264,2,105.000004005432
84,316,87030,1,4,0:0:0:0:
256,192,87365,2,0,L|356:264,2,105.000004005432
415,303,88371,1,4,0:0:0:0:
415,303,88538,1,4,0:0:0:0:
96,192,88705,6,0,L|205:65,1,140
96,192,89040,2,0,L|236:188,1,140
96,192,89376,2,0,L|208:288,1,140
256,192,89711,5,0,0:0:0:0:
256,192,89879,1,0,0:0:0:0:
416,192,90046,6,0,L|296:88,1,140
416,192,90381,2,0,L|268:188,1,140
416,192,90717,2,0,L|299:311,1,140
