osu file format v14

[General]
AudioFilename: audio.mp3
AudioLeadIn: 0
PreviewTime: -1
Countdown: 0
SampleSet: Normal
StackLeniency: 0.7
Mode: 3
LetterboxInBreaks: 0
SpecialStyle: 0
WidescreenStoryboard: 0

[Editor]
DistanceSpacing: 0.8
BeatDivisor: 4
GridSize: 4
TimelineZoom: 1

[Metadata]
Title:Fatima (Full Version)
TitleUnicode:Fatima (Full Version)
Artist:Kanako Ito
ArtistUnicode:Kanako Ito
Creator:LaKyeTV
Version:Normal
Source:
Tags:
BeatmapID:1843118
BeatmapSetID:881534

[Difficulty]
HPDrainRate:5
CircleSize:4
OverallDifficulty:5
ApproachRate:5
SliderMultiplier:1.4
SliderTickRate:1

[Events]
//Background and Video events
0,0,"Steins gate background.jpg",0,0
//Break Periods
//Storyboard Layer 0 (Background)
//Storyboard Layer 1 (Fail)
//Storyboard Layer 2 (Pass)
//Storyboard Layer 3 (Foreground)
//Storyboard Layer 4 (Overlay)
//Storyboard Sound Samples

[TimingPoints]
5858.48876404494,335.178651685393,4,1,0,100,1,0

[HitObjects]
64,192,495,5,0,0:0:0:0:
448,192,663,1,0,0:0:0:0:
320,192,830,1,0,0:0:0:0:
192,192,830,1,0,0:0:0:0:
64,192,998,1,0,0:0:0:0:
192,192,1165,1,0,0:0:0:0:
448,192,1165,1,0,0:0:0:0:
320,192,1333,1,0,0:0:0:0:
320,192,1501,1,0,0:0:0:0:
192,192,1501,1,0,0:0:0:0:
320,192,1668,1,0,0:0:0:0:
448,192,1668,1,0,0:0:0:0:
192,192,1836,1,0,0:0:0:0:
192,192,2003,1,0,0:0:0:0:
64,192,2171,1,0,0:0:0:0:
448,192,2171,1,0,0:0:0:0:
192,192,2339,1,0,0:0:0:0:
320,192,2339,1,0,0:0:0:0:
320,192,2506,1,0,0:0:0:0:
192,192,2674,1,0,0:0:0:0:
64,192,2841,1,0,0:0:0:0:
320,192,2841,1,0,0:0:0:0:
448,192,3009,1,0,0:0:0:0:
192,192,3177,1,0,0:0:0:0:
64,192,3344,1,0,0:0:0:0:
320,192,3512,1,0,0:0:0:0:
448,192,3512,1,0,0:0:0:0:
192,192,3679,1,0,0:0:0:0:
320,192,3847,1,0,0:0:0:0:
64,192,3847,1,0,0:0:0:0:
448,192,4015,1,0,0:0:0:0:
192,192,4182,1,0,0:0:0:0:
64,192,4350,1,0,0:0:0:0:
448,192,4350,1,0,0:0:0:0:
320,192,4517,128,0,5020:0:0:0:0:
192,192,4685,1,0,0:0:0:0:
64,192,4852,1,0,0:0:0:0:
192,192,5020,1,0,0:0:0:0:
448,192,5188,1,0,0:0:0:0:
64,192,5188,1,0,0:0:0:0:
448,192,5355,1,0,0:0:0:0:
64,192,5355,1,0,0:0:0:0:
64,192,5690,1,0,0:0:0:0:
192,192,5774,1,0,0:0:0:0:
320,192,5858,128,0,6193:0:0:0:0:
192,192,6193,1,0,0:0:0:0:
64,192,6361,1,0,0:0:0:0:
320,192,6361,1,0,0:0:0:0:
192,192,6696,1,0,0:0:0:0:
320,192,6696,1,0,0:0:0:0:
448,192,7031,1,0,0:0:0:0:
64,192,7031,1,0,0:0:0:0:
192,192,7366,1,0,0:0:0:0:
320,192,7366,1,0,0:0:0:0:
448,192,7701,128,0,8288:0:0:0:0:
320,192,7701,128,0,7953:0:0:0:0:
192,192,8037,128,0,8288:0:0:0:0:
320,192,8539,128,0,8875:0:0:0:0:
192,192,8539,128,0,8875:0:0:0:0:
64,192,8875,1,0,0:0:0:0:
192,192,9042,1,0,0:0:0:0:
320,192,9042,1,0,0:0:0:0:
448,192,9042,1,0,0:0:0:0:
192,192,9377,1,0,0:0:0:0:
64,192,9377,1,0,0:0:0:0:
448,192,9713,1,0,0:0:0:0:
192,192,9713,1,0,0:0:0:0:
192,192,10048,1,0,0:0:0:0:
320,192,10383,128,0,10634:0:0:0:0:
64,192,10383,128,0,10969:0:0:0:0:
448,192,10718,128,0,10969:0:0:0:0:
192,192,11221,128,0,11556:0:0:0:0:
64,192,11221,128,0,11556:0:0:0:0:
448,192,11556,1,0,0:0:0:0:
192,192,11724,1,0,0:0:0:0:
320,192,11724,1,0,0:0:0:0:
192,192,12059,1,0,0:0:0:0:
64,192,12059,1,0,0:0:0:0:
448,192,12059,1,0,0:0:0:0:
320,192,12394,1,0,0:0:0:0:
192,192,12729,1,0,0:0:0:0:
192,192,13064,1,0,0:0:0:0:
320,192,13064,1,0,0:0:0:0:
320,192,13400,1,0,0:0:0:0:
64,192,13400,1,0,0:0:0:0:
192,192,13902,128,0,14573:0:0:0:0:
448,192,14573,128,0,14992:0:0:0:0:
64,192,15243,1,0,0:0:0:0:
320,192,15243,1,0,0:0:0:0:
448,192,15746,1,0,0:0:0:0:
192,192,15746,1,0,0:0:0:0:
64,192,15746,1,0,0:0:0:0:
320,192,15913,128,0,16500:0:0:0:0:
64,192,16584,1,0,0:0:0:0:
320,192,16751,1,0,0:0:0:0:
192,192,16919,1,0,0:0:0:0:
448,192,16919,1,0,0:0:0:0:
448,192,17086,1,0,0:0:0:0:
320,192,17170,1,0,0:0:0:0:
192,192,17254,1,0,0:0:0:0:
192,192,17422,1,0,0:0:0:0:
320,192,17422,1,0,0:0:0:0:
64,192,17589,1,0,0:0:0:0:
320,192,17589,1,0,0:0:0:0:
448,192,17589,1,0,0:0:0:0:
192,192,17757,1,0,0:0:0:0:
448,192,17924,1,0,0:0:0:0:
192,192,18092,1,0,0:0:0:0:
192,192,18260,1,0,0:0:0:0:
320,192,18260,1,0,0:0:0:0:
64,192,18427,1,0,0:0:0:0:
320,192,18762,1,0,0:0:0:0:
192,192,18762,1,0,0:0:0:0:
448,192,19098,128,0,20271:0:0:0:0:
192,192,20271,1,0,0:0:0:0:
64,192,20438,128,0,21276:0:0:0:0:
192,192,21276,1,0,0:0:0:0:
448,192,21947,128,0,22449:0:0:0:0:
192,192,22617,1,0,0:0:0:0:
320,192,22617,1,0,0:0:0:0:
448,192,22785,1,0,0:0:0:0:
320,192,22952,1,0,0:0:0:0:
64,192,23120,1,0,0:0:0:0:
320,192,23287,1,0,0:0:0:0:
320,192,23622,1,0,0:0:0:0:
192,192,23622,1,0,0:0:0:0:
192,192,23790,1,0,0:0:0:0:
64,192,23790,1,0,0:0:0:0:
64,192,24125,1,0,0:0:0:0:
320,192,24125,1,0,0:0:0:0:
448,192,24125,1,0,0:0:0:0:
448,192,24460,128,0,25298:0:0:0:0:
192,192,24460,128,0,25298:0:0:0:0:
320,192,25634,128,0,25801:0:0:0:0:
64,192,25801,128,0,26136:0:0:0:0:
64,192,26304,128,0,26639:0:0:0:0:
320,192,26639,128,0,26974:0:0:0:0:
192,192,26974,128,0,27309:0:0:0:0:
64,192,27309,1,0,0:0:0:0:
448,192,27309,1,0,0:0:0:0:
320,192,27477,1,0,0:0:0:0:
448,192,27477,1,0,0:0:0:0:
448,192,27812,1,0,0:0:0:0:
320,192,27980,128,0,28399:0:0:0:0:
320,192,28650,1,0,0:0:0:0:
192,192,28650,1,0,0:0:0:0:
320,192,29153,1,0,0:0:0:0:
192,192,29153,1,0,0:0:0:0:
64,192,29153,1,0,0:0:0:0:
320,192,29488,1,0,0:0:0:0:
192,192,29488,1,0,0:0:0:0:
320,192,29823,1,0,0:0:0:0:
448,192,29907,1,0,0:0:0:0:
320,192,29991,1,0,0:0:0:0:
320,192,30158,1,0,0:0:0:0:
192,192,30158,1,0,0:0:0:0:
320,192,30494,1,0,0:0:0:0:
192,192,30494,1,0,0:0:0:0:
448,192,30661,1,0,0:0:0:0:
64,192,30996,128,0,31332:0:0:0:0:
448,192,31164,1,0,0:0:0:0:
192,192,31332,1,0,0:0:0:0:
320,192,31834,1,0,0:0:0:0:
192,192,31834,1,0,0:0:0:0:
448,192,32170,1,0,0:0:0:0:
192,192,32170,1,0,0:0:0:0:
320,192,32505,1,0,0:0:0:0:
192,192,32588,1,0,0:0:0:0:
64,192,32672,1,0,0:0:0:0:
320,192,32840,1,0,0:0:0:0:
192,192,32840,1,0,0:0:0:0:
448,192,33175,1,0,0:0:0:0:
64,192,33175,1,0,0:0:0:0:
320,192,33343,128,0,34013:0:0:0:0:
64,192,33678,1,0,0:0:0:0:
448,192,34013,1,0,0:0:0:0:
448,192,34516,1,0,0:0:0:0:
320,192,34516,1,0,0:0:0:0:
64,192,34851,1,0,0:0:0:0:
320,192,34851,1,0,0:0:0:0:
448,192,34851,1,0,0:0:0:0:
320,192,35354,1,0,0:0:0:0:
192,192,35521,1,0,0:0:0:0:
320,192,35689,1,0,0:0:0:0:
448,192,35856,128,0,36192:0:0:0:0:
320,192,36192,1,0,0:0:0:0:
64,192,36359,1,0,0:0:0:0:
192,192,36527,1,0,0:0:0:0:
448,192,36694,1,0,0:0:0:0:
64,192,36862,1,0,0:0:0:0:
320,192,36862,1,0,0:0:0:0:
448,192,37197,1,0,0:0:0:0:
320,192,37197,1,0,0:0:0:0:
192,192,37197,1,0,0:0:0:0:
192,192,37532,1,0,0:0:0:0:
320,192,37532,1,0,0:0:0:0:
64,192,37700,128,0,38035:0:0:0:0:
192,192,38035,1,0,0:0:0:0:
192,192,38203,1,0,0:0:0:0:
320,192,38203,1,0,0:0:0:0:
448,192,38538,1,0,0:0:0:0:
320,192,38622,1,0,0:0:0:0:
64,192,38705,128,0,39041:0:0:0:0:
192,192,38705,128,0,39041:0:0:0:0:
320,192,39208,1,0,0:0:0:0:
192,192,39376,1,0,0:0:0:0:
320,192,39543,1,0,0:0:0:0:
320,192,39879,1,0,0:0:0:0:
64,192,39879,1,0,0:0:0:0:
320,192,40214,1,0,0:0:0:0:
192,192,40214,1,0,0:0:0:0:
320,192,40381,1,0,0:0:0:0:
448,192,40549,1,0,0:0:0:0:
320,192,40717,1,0,0:0:0:0:
64,192,40717,1,0,0:0:0:0:
64,192,40884,1,0,0:0:0:0:
320,192,40884,1,0,0:0:0:0:
192,192,41219,1,0,0:0:0:0:
320,192,41303,1,0,0:0:0:0:
448,192,41387,128,0,41722:0:0:0:0:
320,192,41722,1,0,0:0:0:0:
64,192,42057,1,0,0:0:0:0:
320,192,42057,1,0,0:0:0:0:
192,192,42392,1,0,0:0:0:0:
320,192,42392,1,0,0:0:0:0:
448,192,42392,1,0,0:0:0:0:
448,192,42560,128,0,43314:0:0:0:0:
64,192,42895,1,0,0:0:0:0:
320,192,43230,1,0,0:0:0:0:
64,192,43398,1,0,0:0:0:0:
192,192,43482,1,0,0:0:0:0:
320,192,43566,1,0,0:0:0:0:
448,192,43733,1,0,0:0:0:0:
320,192,43733,1,0,0:0:0:0:
448,192,43901,1,0,0:0:0:0:
320,192,43901,1,0,0:0:0:0:
64,192,44068,128,0,44739:0:0:0:0:
192,192,44739,1,0,0:0:0:0:
192,192,45074,1,0,0:0:0:0:
320,192,45241,1,0,0:0:0:0:
448,192,45241,1,0,0:0:0:0:
64,192,45577,1,0,0:0:0:0:
192,192,45577,1,0,0:0:0:0:
448,192,46079,1,0,0:0:0:0:
320,192,46247,1,0,0:0:0:0:
64,192,46415,1,0,0:0:0:0:
448,192,46582,128,0,46917:0:0:0:0:
320,192,46917,1,0,0:0:0:0:
64,192,47253,128,0,47588:0:0:0:0:
192,192,47253,1,0,0:0:0:0:
448,192,47588,1,0,0:0:0:0:
192,192,47923,1,0,0:0:0:0:
320,192,47923,1,0,0:0:0:0:
192,192,48258,1,0,0:0:0:0:
64,192,48258,1,0,0:0:0:0:
448,192,48258,1,0,0:0:0:0:
448,192,48761,1,0,0:0:0:0:
64,192,48928,1,0,0:0:0:0:
192,192,49012,1,0,0:0:0:0:
448,192,49264,1,0,0:0:0:0:
320,192,49347,1,0,0:0:0:0:
192,192,49431,1,0,0:0:0:0:
64,192,49515,1,0,0:0:0:0:
448,192,49683,1,0,0:0:0:0:
320,192,49766,1,0,0:0:0:0:
192,192,49850,1,0,0:0:0:0:
320,192,49934,1,0,0:0:0:0:
320,192,50102,1,0,0:0:0:0:
64,192,50185,1,0,0:0:0:0:
192,192,50269,1,0,0:0:0:0:
320,192,50353,1,0,0:0:0:0:
448,192,50521,1,0,0:0:0:0:
320,192,50604,1,0,0:0:0:0:
64,192,50688,1,0,0:0:0:0:
320,192,50772,1,0,0:0:0:0:
192,192,50940,1,0,0:0:0:0:
320,192,50940,1,0,0:0:0:0:
192,192,51107,1,0,0:0:0:0:
320,192,51107,1,0,0:0:0:0:
192,192,51358,1,0,0:0:0:0:
448,192,51442,1,0,0:0:0:0:
320,192,51526,1,0,0:0:0:0:
448,192,51610,1,0,0:0:0:0:
320,192,51777,1,0,0:0:0:0:
64,192,51777,1,0,0:0:0:0:
192,192,51945,1,0,0:0:0:0:
320,192,52029,1,0,0:0:0:0:
448,192,52113,1,0,0:0:0:0:
320,192,52196,1,0,0:0:0:0:
192,192,52280,1,0,0:0:0:0:
64,192,52364,1,0,0:0:0:0:
320,192,52448,1,0,0:0:0:0:
448,192,52532,1,0,0:0:0:0:
448,192,52699,1,0,0:0:0:0:
320,192,52783,1,0,0:0:0:0:
192,192,52867,1,0,0:0:0:0:
448,192,53118,1,0,0:0:0:0:
320,192,53202,1,0,0:0:0:0:
192,192,53286,1,0,0:0:0:0:
64,192,53286,1,0,0:0:0:0:
64,192,53453,1,0,0:0:0:0:
320,192,53453,1,0,0:0:0:0:
64,192,53621,1,0,0:0:0:0:
448,192,53621,1,0,0:0:0:0:
192,192,53789,1,0,0:0:0:0:
448,192,53789,1,0,0:0:0:0:
320,192,53956,1,0,0:0:0:0:
448,192,53956,1,0,0:0:0:0:
448,192,54124,1,0,0:0:0:0:
192,192,54291,1,0,0:0:0:0:
448,192,54459,1,0,0:0:0:0:
192,192,54626,1,0,0:0:0:0:
320,192,54626,128,0,54962:0:0:0:0:
192,192,54962,1,0,0:0:0:0:
64,192,55129,1,0,0:0:0:0:
320,192,55297,1,0,0:0:0:0:
192,192,55297,1,0,0:0:0:0:
448,192,55464,1,0,0:0:0:0:
192,192,55464,1,0,0:0:0:0:
192,192,55632,1,0,0:0:0:0:
64,192,55632,1,0,0:0:0:0:
448,192,55632,1,0,0:0:0:0:
320,192,55800,1,0,0:0:0:0:
64,192,55967,128,0,56302:0:0:0:0:
192,192,56302,1,0,0:0:0:0:
320,192,56638,1,0,0:0:0:0:
192,192,56805,1,0,0:0:0:0:
448,192,56973,1,0,0:0:0:0:
320,192,57140,1,0,0:0:0:0:
192,192,57140,1,0,0:0:0:0:
320,192,57308,1,0,0:0:0:0:
64,192,57476,1,0,0:0:0:0:
448,192,57476,1,0,0:0:0:0:
192,192,57476,1,0,0:0:0:0:
320,192,57643,1,0,0:0:0:0:
448,192,57811,1,0,0:0:0:0:
192,192,57978,1,0,0:0:0:0:
448,192,58146,1,0,0:0:0:0:
320,192,58146,1,0,0:0:0:0:
64,192,58313,1,0,0:0:0:0:
64,192,58481,1,0,0:0:0:0:
192,192,58481,1,0,0:0:0:0:
320,192,58649,1,0,0:0:0:0:
448,192,58816,1,0,0:0:0:0:
64,192,58816,1,0,0:0:0:0:
192,192,58984,1,0,0:0:0:0:
320,192,58984,1,0,0:0:0:0:
64,192,58984,1,0,0:0:0:0:
320,192,59151,1,0,0:0:0:0:
192,192,59487,128,0,60743:0:0:0:0:
64,192,59487,128,0,60743:0:0:0:0:
448,192,59487,1,0,0:0:0:0:
320,192,59822,1,0,0:0:0:0:
448,192,60157,1,0,0:0:0:0:
320,192,60492,1,0,0:0:0:0:
320,192,60827,1,0,0:0:0:0:
448,192,60995,1,0,0:0:0:0:
192,192,61330,1,0,0:0:0:0:
64,192,61330,1,0,0:0:0:0:
192,192,61665,1,0,0:0:0:0:
64,192,61665,1,0,0:0:0:0:
320,192,62000,128,0,62503:0:0:0:0:
64,192,62336,1,0,0:0:0:0:
192,192,62503,1,0,0:0:0:0:
448,192,62671,1,0,0:0:0:0:
320,192,62838,1,0,0:0:0:0:
64,192,63006,1,0,0:0:0:0:
192,192,63006,1,0,0:0:0:0:
192,192,63341,128,0,63676:0:0:0:0:
320,192,63676,1,0,0:0:0:0:
448,192,63844,1,0,0:0:0:0:
192,192,64011,1,0,0:0:0:0:
320,192,64011,1,0,0:0:0:0:
448,192,64179,1,0,0:0:0:0:
64,192,64347,1,0,0:0:0:0:
448,192,64682,128,0,65185:0:0:0:0:
64,192,65017,1,0,0:0:0:0:
320,192,65185,1,0,0:0:0:0:
64,192,65352,1,0,0:0:0:0:
448,192,65352,1,0,0:0:0:0:
192,192,65687,1,0,0:0:0:0:
64,192,65687,1,0,0:0:0:0:
320,192,66023,128,0,66358:0:0:0:0:
192,192,66358,1,0,0:0:0:0:
448,192,66525,1,0,0:0:0:0:
320,192,66693,1,0,0:0:0:0:
192,192,66861,1,0,0:0:0:0:
64,192,66861,1,0,0:0:0:0:
64,192,67028,1,0,0:0:0:0:
192,192,67028,1,0,0:0:0:0:
192,192,67866,1,0,0:0:0:0:
320,192,67866,1,0,0:0:0:0:
448,192,68201,1,0,0:0:0:0:
320,192,68369,1,0,0:0:0:0:
192,192,68369,1,0,0:0:0:0:
448,192,68704,128,0,69207:0:0:0:0:
320,192,69039,1,0,0:0:0:0:
320,192,69207,1,0,0:0:0:0:
320,192,69374,1,0,0:0:0:0:
192,192,69542,1,0,0:0:0:0:
64,192,69710,1,0,0:0:0:0:
192,192,69877,1,0,0:0:0:0:
320,192,70045,1,0,0:0:0:0:
448,192,70212,128,0,70715:0:0:0:0:
192,192,70380,1,0,0:0:0:0:
64,192,70547,1,0,0:0:0:0:
320,192,70715,1,0,0:0:0:0:
192,192,70715,128,0,71218:0:0:0:0:
448,192,70883,1,0,0:0:0:0:
64,192,71050,1,0,0:0:0:0:
320,192,71218,1,0,0:0:0:0:
64,192,71218,128,0,71721:0:0:0:0:
448,192,71385,1,0,0:0:0:0:
320,192,71553,1,0,0:0:0:0:
192,192,71721,1,0,0:0:0:0:
320,192,71888,1,0,0:0:0:0:
192,192,72056,1,0,0:0:0:0:
320,192,72223,1,0,0:0:0:0:
448,192,72223,1,0,0:0:0:0:
320,192,72391,1,0,0:0:0:0:
448,192,72391,1,0,0:0:0:0:
64,192,72726,128,0,73061:0:0:0:0:
192,192,72726,128,0,73061:0:0:0:0:
448,192,73061,1,0,0:0:0:0:
192,192,73229,1,0,0:0:0:0:
448,192,73396,1,0,0:0:0:0:
192,192,73564,1,0,0:0:0:0:
320,192,73564,1,0,0:0:0:0:
192,192,73732,1,0,0:0:0:0:
320,192,73732,1,0,0:0:0:0:
448,192,74067,128,0,74402:0:0:0:0:
64,192,74067,128,0,74402:0:0:0:0:
320,192,74402,1,0,0:0:0:0:
192,192,74570,1,0,0:0:0:0:
448,192,74737,1,0,0:0:0:0:
320,192,74905,1,0,0:0:0:0:
192,192,74905,1,0,0:0:0:0:
192,192,75072,1,0,0:0:0:0:
320,192,75072,1,0,0:0:0:0:
448,192,75408,128,0,75743:0:0:0:0:
192,192,75408,128,0,75743:0:0:0:0:
64,192,75408,128,0,75743:0:0:0:0:
320,192,75743,1,0,0:0:0:0:
192,192,75910,1,0,0:0:0:0:
320,192,75994,1,0,0:0:0:0:
448,192,76078,1,0,0:0:0:0:
448,192,76246,1,0,0:0:0:0:
320,192,76246,1,0,0:0:0:0:
192,192,76413,1,0,0:0:0:0:
64,192,76413,1,0,0:0:0:0:
320,192,76748,128,0,77083:0:0:0:0:
192,192,77083,1,0,0:0:0:0:
320,192,77251,1,0,0:0:0:0:
64,192,77251,1,0,0:0:0:0:
192,192,77419,1,0,0:0:0:0:
320,192,77586,1,0,0:0:0:0:
448,192,77586,1,0,0:0:0:0:
64,192,77586,1,0,0:0:0:0:
64,192,77754,1,0,0:0:0:0:
320,192,77754,1,0,0:0:0:0:
448,192,77754,1,0,0:0:0:0:
448,192,78257,128,0,78592:0:0:0:0:
320,192,78592,1,0,0:0:0:0:
192,192,78927,1,0,0:0:0:0:
192,192,79095,1,0,0:0:0:0:
448,192,79095,1,0,0:0:0:0:
64,192,79262,1,0,0:0:0:0:
320,192,79262,1,0,0:0:0:0:
64,192,79430,1,0,0:0:0:0:
192,192,79430,1,0,0:0:0:0:
64,192,79597,1,0,0:0:0:0:
448,192,79597,1,0,0:0:0:0:
64,192,79765,1,0,0:0:0:0:
192,192,79765,1,0,0:0:0:0:
320,192,79765,1,0,0:0:0:0:
448,192,80100,1,0,0:0:0:0:
320,192,80100,1,0,0:0:0:0:
320,192,80268,1,0,0:0:0:0:
192,192,80435,1,0,0:0:0:0:
64,192,80603,128,0,80938:0:0:0:0:
192,192,80938,1,0,0:0:0:0:
192,192,81106,1,0,0:0:0:0:
448,192,81106,1,0,0:0:0:0:
448,192,81273,1,0,0:0:0:0:
320,192,81441,1,0,0:0:0:0:
64,192,81441,1,0,0:0:0:0:
320,192,81608,1,0,0:0:0:0:
64,192,81608,1,0,0:0:0:0:
192,192,81776,1,0,0:0:0:0:
448,192,81944,1,0,0:0:0:0:
64,192,82111,1,0,0:0:0:0:
320,192,82279,1,0,0:0:0:0:
448,192,82279,1,0,0:0:0:0:
320,192,82446,1,0,0:0:0:0:
448,192,82446,1,0,0:0:0:0:
64,192,82614,1,0,0:0:0:0:
192,192,82614,1,0,0:0:0:0:
64,192,82781,1,0,0:0:0:0:
192,192,82781,1,0,0:0:0:0:
448,192,82949,1,0,0:0:0:0:
192,192,83117,1,0,0:0:0:0:
448,192,83284,1,0,0:0:0:0:
320,192,83619,1,0,0:0:0:0:
64,192,83787,1,0,0:0:0:0:
320,192,83955,1,0,0:0:0:0:
448,192,84122,1,0,0:0:0:0:
448,192,84290,1,0,0:0:0:0:
320,192,84457,1,0,0:0:0:0:
192,192,84625,1,0,0:0:0:0:
320,192,84793,1,0,0:0:0:0:
64,192,84960,1,0,0:0:0:0:
320,192,84960,1,0,0:0:0:0:
192,192,85128,1,0,0:0:0:0:
320,192,85128,1,0,0:0:0:0:
448,192,85295,128,0,85631:0:0:0:0:
192,192,85463,1,0,0:0:0:0:
320,192,85631,1,0,0:0:0:0:
192,192,85798,1,0,0:0:0:0:
320,192,85798,1,0,0:0:0:0:
64,192,85966,1,0,0:0:0:0:
64,192,86133,1,0,0:0:0:0:
192,192,86301,1,0,0:0:0:0:
448,192,86468,1,0,0:0:0:0:
320,192,86636,1,0,0:0:0:0:
192,192,86804,1,0,0:0:0:0:
320,192,86804,1,0,0:0:0:0:
192,192,86971,1,0,0:0:0:0:
448,192,86971,1,0,0:0:0:0:
64,192,87139,1,0,0:0:0:0:
448,192,87306,1,0,0:0:0:0:
320,192,87474,1,0,0:0:0:0:
192,192,87642,1,0,0:0:0:0:
320,192,87642,1,0,0:0:0:0:
64,192,87642,1,0,0:0:0:0:
448,192,87642,1,0,0:0:0:0:
320,192,87809,1,0,0:0:0:0:
192,192,87977,1,0,0:0:0:0:
320,192,88144,1,0,0:0:0:0:
64,192,88312,1,0,0:0:0:0:
192,192,88312,1,0,0:0:0:0:
320,192,88312,1,0,0:0:0:0:
448,192,88312,1,0,0:0:0:0:
64,192,88480,1,0,0:0:0:0:
448,192,88647,1,0,0:0:0:0:
64,192,88815,1,0,0:0:0:0:
192,192,91496,1,0,0:0:0:0:
320,192,91580,1,0,0:0:0:0:
448,192,91664,1,0,0:0:0:0:
448,192,91999,1,0,0:0:0:0:
192,192,91999,1,0,0:0:0:0:
320,192,92166,1,0,0:0:0:0:
448,192,92166,1,0,0:0:0:0:
320,192,92502,1,0,0:0:0:0:
192,192,92502,1,0,0:0:0:0:
64,192,92669,1,0,0:0:0:0:
448,192,92669,1,0,0:0:0:0:
448,192,92837,128,0,93507:0:0:0:0:
320,192,92837,128,0,93172:0:0:0:0:
64,192,93172,128,0,93507:0:0:0:0:
192,192,93507,128,0,93842:0:0:0:0:
320,192,93842,128,0,94345:0:0:0:0:
448,192,94345,1,0,0:0:0:0:
192,192,94680,1,0,0:0:0:0:
320,192,94680,1,0,0:0:0:0:
448,192,94848,1,0,0:0:0:0:
320,192,95183,1,0,0:0:0:0:
192,192,95183,1,0,0:0:0:0:
64,192,95518,1,0,0:0:0:0:
192,192,95686,1,0,0:0:0:0:
64,192,95853,1,0,0:0:0:0:
448,192,96189,1,0,0:0:0:0:
192,192,96356,1,0,0:0:0:0:
320,192,96524,1,0,0:0:0:0:
64,192,96691,1,0,0:0:0:0:
64,192,97027,128,0,97529:0:0:0:0:
448,192,97362,1,0,0:0:0:0:
192,192,97529,1,0,0:0:0:0:
192,192,97865,1,0,0:0:0:0:
320,192,97865,1,0,0:0:0:0:
448,192,98200,1,0,0:0:0:0:
192,192,98535,128,0,98870:0:0:0:0:
64,192,98870,128,0,99205:0:0:0:0:
192,192,99205,128,0,99540:0:0:0:0:
320,192,99708,128,0,100714:0:0:0:0:
448,192,99708,128,0,101049:0:0:0:0:
192,192,100714,128,0,101049:0:0:0:0:
64,192,101049,1,0,0:0:0:0:
320,192,101551,1,0,0:0:0:0:
192,192,101551,1,0,0:0:0:0:
448,192,102389,1,0,0:0:0:0:
192,192,102557,1,0,0:0:0:0:
320,192,102557,1,0,0:0:0:0:
320,192,102725,1,0,0:0:0:0:
64,192,102892,1,0,0:0:0:0:
192,192,102892,1,0,0:0:0:0:
64,192,103060,1,0,0:0:0:0:
320,192,103227,1,0,0:0:0:0:
64,192,103395,1,0,0:0:0:0:
448,192,103395,1,0,0:0:0:0:
192,192,103395,1,0,0:0:0:0:
320,192,103563,1,0,0:0:0:0:
320,192,103730,1,0,0:0:0:0:
192,192,103730,1,0,0:0:0:0:
448,192,103898,1,0,0:0:0:0:
320,192,104065,1,0,0:0:0:0:
64,192,104065,1,0,0:0:0:0:
192,192,104233,1,0,0:0:0:0:
64,192,104401,1,0,0:0:0:0:
192,192,104401,1,0,0:0:0:0:
320,192,104568,1,0,0:0:0:0:
448,192,104736,1,0,0:0:0:0:
192,192,104736,1,0,0:0:0:0:
64,192,104736,1,0,0:0:0:0:
192,192,104903,1,0,0:0:0:0:
320,192,105071,1,0,0:0:0:0:
448,192,105238,1,0,0:0:0:0:
192,192,105238,1,0,0:0:0:0:
192,192,105406,1,0,0:0:0:0:
448,192,105574,1,0,0:0:0:0:
64,192,105574,1,0,0:0:0:0:
192,192,105741,1,0,0:0:0:0:
320,192,105909,1,0,0:0:0:0:
448,192,105909,1,0,0:0:0:0:
192,192,106076,1,0,0:0:0:0:
320,192,106076,1,0,0:0:0:0:
448,192,106076,1,0,0:0:0:0:
192,192,106244,1,0,0:0:0:0:
64,192,106412,1,0,0:0:0:0:
320,192,106412,1,0,0:0:0:0:
320,192,106579,1,0,0:0:0:0:
448,192,106747,1,0,0:0:0:0:
320,192,106747,1,0,0:0:0:0:
64,192,106914,1,0,0:0:0:0:
192,192,107082,1,0,0:0:0:0:
448,192,107082,1,0,0:0:0:0:
320,192,107250,1,0,0:0:0:0:
192,192,107417,1,0,0:0:0:0:
320,192,107417,1,0,0:0:0:0:
64,192,107417,1,0,0:0:0:0:
320,192,107752,1,0,0:0:0:0:
448,192,107920,1,0,0:0:0:0:
320,192,108087,1,0,0:0:0:0:
64,192,108255,1,0,0:0:0:0:
192,192,108339,1,0,0:0:0:0:
320,192,108423,1,0,0:0:0:0:
448,192,108423,1,0,0:0:0:0:
320,192,108590,1,0,0:0:0:0:
448,192,108590,1,0,0:0:0:0:
192,192,108758,1,0,0:0:0:0:
64,192,108758,1,0,0:0:0:0:
448,192,108925,1,0,0:0:0:0:
320,192,109093,1,0,0:0:0:0:
64,192,109261,1,0,0:0:0:0:
192,192,109428,1,0,0:0:0:0:
64,192,109596,1,0,0:0:0:0:
448,192,109680,1,0,0:0:0:0:
320,192,109763,1,0,0:0:0:0:
192,192,109763,1,0,0:0:0:0:
192,192,109931,1,0,0:0:0:0:
320,192,109931,1,0,0:0:0:0:
448,192,110099,1,0,0:0:0:0:
64,192,110099,1,0,0:0:0:0:
64,192,110266,1,0,0:0:0:0:
448,192,110434,1,0,0:0:0:0:
192,192,110601,1,0,0:0:0:0:
320,192,110769,1,0,0:0:0:0:
320,192,110936,1,0,0:0:0:0:
192,192,111020,1,0,0:0:0:0:
64,192,111104,1,0,0:0:0:0:
320,192,111104,1,0,0:0:0:0:
64,192,111272,1,0,0:0:0:0:
320,192,111272,1,0,0:0:0:0:
192,192,111439,1,0,0:0:0:0:
448,192,111439,1,0,0:0:0:0:
448,192,111607,1,0,0:0:0:0:
320,192,111774,1,0,0:0:0:0:
64,192,111942,1,0,0:0:0:0:
320,192,112110,1,0,0:0:0:0:
448,192,112277,1,0,0:0:0:0:
192,192,112277,1,0,0:0:0:0:
320,192,112445,1,0,0:0:0:0:
64,192,112445,1,0,0:0:0:0:
64,192,112612,1,0,0:0:0:0:
192,192,112612,1,0,0:0:0:0:
320,192,112780,1,0,0:0:0:0:
448,192,112780,1,0,0:0:0:0:
64,192,112948,1,0,0:0:0:0:
192,192,112948,1,0,0:0:0:0:
64,192,113115,1,0,0:0:0:0:
448,192,113115,1,0,0:0:0:0:
64,192,113283,1,0,0:0:0:0:
448,192,113283,1,0,0:0:0:0:
320,192,113450,1,0,0:0:0:0:
192,192,113618,1,0,0:0:0:0:
320,192,113702,1,0,0:0:0:0:
448,192,113786,1,0,0:0:0:0:
448,192,114121,1,0,0:0:0:0:
320,192,114121,1,0,0:0:0:0:
192,192,114288,1,0,0:0:0:0:
64,192,114456,128,0,114791:0:0:0:0:
192,192,114791,1,0,0:0:0:0:
320,192,114791,128,0,114959:0:0:0:0:
448,192,114959,128,0,115294:0:0:0:0:
192,192,115294,128,0,115629:0:0:0:0:
320,192,115629,1,0,0:0:0:0:
64,192,115797,128,0,116299:0:0:0:0:
192,192,115797,1,0,0:0:0:0:
448,192,115964,1,0,0:0:0:0:
320,192,116132,1,0,0:0:0:0:
192,192,116299,1,0,0:0:0:0:
64,192,116802,1,0,0:0:0:0:
320,192,116970,1,0,0:0:0:0:
192,192,117137,1,0,0:0:0:0:
320,192,117137,1,0,0:0:0:0:
448,192,117472,1,0,0:0:0:0:
320,192,117472,1,0,0:0:0:0:
192,192,117640,1,0,0:0:0:0:
448,192,117975,128,0,118646:0:0:0:0:
192,192,117975,128,0,118310:0:0:0:0:
320,192,118310,128,0,118646:0:0:0:0:
64,192,118478,1,0,0:0:0:0:
64,192,118646,1,0,0:0:0:0:
64,192,118981,1,0,0:0:0:0:
192,192,119065,1,0,0:0:0:0:
320,192,119148,1,0,0:0:0:0:
448,192,119484,1,0,0:0:0:0:
320,192,119651,1,0,0:0:0:0:
448,192,119819,1,0,0:0:0:0:
64,192,120154,1,0,0:0:0:0:
192,192,120154,1,0,0:0:0:0:
64,192,120321,1,0,0:0:0:0:
320,192,120321,1,0,0:0:0:0:
448,192,120657,1,0,0:0:0:0:
192,192,120657,1,0,0:0:0:0:
64,192,121159,1,0,0:0:0:0:
192,192,121327,1,0,0:0:0:0:
320,192,121495,1,0,0:0:0:0:
320,192,121662,128,0,121997:0:0:0:0:
192,192,121997,1,0,0:0:0:0:
64,192,122165,1,0,0:0:0:0:
320,192,122333,1,0,0:0:0:0:
448,192,122668,1,0,0:0:0:0:
192,192,122668,1,0,0:0:0:0:
64,192,123003,1,0,0:0:0:0:
192,192,123003,1,0,0:0:0:0:
320,192,123003,1,0,0:0:0:0:
64,192,123338,1,0,0:0:0:0:
192,192,123338,1,0,0:0:0:0:
320,192,123338,1,0,0:0:0:0:
448,192,123506,1,0,0:0:0:0:
320,192,123673,1,0,0:0:0:0:
64,192,123841,1,0,0:0:0:0:
320,192,124008,1,0,0:0:0:0:
448,192,124344,1,0,0:0:0:0:
320,192,124427,1,0,0:0:0:0:
64,192,124511,128,0,125014:0:0:0:0:
192,192,124511,1,0,0:0:0:0:
192,192,125014,1,0,0:0:0:0:
64,192,125182,1,0,0:0:0:0:
448,192,125182,1,0,0:0:0:0:
320,192,125517,1,0,0:0:0:0:
192,192,125517,1,0,0:0:0:0:
64,192,125684,1,0,0:0:0:0:
192,192,125684,1,0,0:0:0:0:
64,192,126020,1,0,0:0:0:0:
192,192,126020,1,0,0:0:0:0:
448,192,126187,1,0,0:0:0:0:
320,192,126271,1,0,0:0:0:0:
192,192,126355,1,0,0:0:0:0:
192,192,126522,1,0,0:0:0:0:
320,192,126522,1,0,0:0:0:0:
192,192,126690,1,0,0:0:0:0:
320,192,126690,1,0,0:0:0:0:
448,192,126857,1,0,0:0:0:0:
320,192,127025,1,0,0:0:0:0:
64,192,127109,1,0,0:0:0:0:
192,192,127193,1,0,0:0:0:0:
320,192,127528,1,0,0:0:0:0:
192,192,127695,1,0,0:0:0:0:
64,192,127695,1,0,0:0:0:0:
320,192,127863,1,0,0:0:0:0:
448,192,127863,1,0,0:0:0:0:
320,192,128198,1,0,0:0:0:0:
64,192,128366,128,0,129371:0:0:0:0:
192,192,128366,128,0,128701:0:0:0:0:
320,192,128701,128,0,129036:0:0:0:0:
448,192,129036,128,0,129371:0:0:0:0:
192,192,129204,1,0,0:0:0:0:
320,192,129371,1,0,0:0:0:0:
320,192,129707,1,0,0:0:0:0:
192,192,129790,1,0,0:0:0:0:
64,192,129874,1,0,0:0:0:0:
192,192,130209,1,0,0:0:0:0:
320,192,130377,1,0,0:0:0:0:
448,192,130377,1,0,0:0:0:0:
64,192,130544,1,0,0:0:0:0:
448,192,130880,1,0,0:0:0:0:
64,192,131047,1,0,0:0:0:0:
192,192,131382,1,0,0:0:0:0:
320,192,131382,1,0,0:0:0:0:
192,192,131550,1,0,0:0:0:0:
320,192,131550,1,0,0:0:0:0:
320,192,131885,1,0,0:0:0:0:
64,192,132053,1,0,0:0:0:0:
448,192,132220,1,0,0:0:0:0:
320,192,132220,1,0,0:0:0:0:
448,192,132388,1,0,0:0:0:0:
320,192,132388,1,0,0:0:0:0:
320,192,132723,1,0,0:0:0:0:
64,192,132891,1,0,0:0:0:0:
448,192,133058,128,0,133393:0:0:0:0:
320,192,133393,1,0,0:0:0:0:
64,192,133729,1,0,0:0:0:0:
448,192,133896,1,0,0:0:0:0:
64,192,134064,1,0,0:0:0:0:
448,192,134567,1,0,0:0:0:0:
320,192,134650,1,0,0:0:0:0:
192,192,134734,1,0,0:0:0:0:
64,192,134902,1,0,0:0:0:0:
192,192,135069,1,0,0:0:0:0:
320,192,135069,1,0,0:0:0:0:
64,192,135237,1,0,0:0:0:0:
64,192,135405,1,0,0:0:0:0:
192,192,135488,1,0,0:0:0:0:
320,192,135572,1,0,0:0:0:0:
320,192,135740,1,0,0:0:0:0:
192,192,135907,1,0,0:0:0:0:
448,192,135907,1,0,0:0:0:0:
320,192,136075,1,0,0:0:0:0:
192,192,136159,1,0,0:0:0:0:
64,192,136242,1,0,0:0:0:0:
64,192,136410,1,0,0:0:0:0:
320,192,136410,1,0,0:0:0:0:
192,192,136578,1,0,0:0:0:0:
320,192,136661,1,0,0:0:0:0:
448,192,136745,1,0,0:0:0:0:
192,192,136913,1,0,0:0:0:0:
320,192,136913,1,0,0:0:0:0:
192,192,137080,1,0,0:0:0:0:
320,192,137080,1,0,0:0:0:0:
64,192,137248,1,0,0:0:0:0:
320,192,137416,1,0,0:0:0:0:
448,192,137416,1,0,0:0:0:0:
192,192,137583,1,0,0:0:0:0:
320,192,137667,1,0,0:0:0:0:
64,192,137751,1,0,0:0:0:0:
64,192,137918,1,0,0:0:0:0:
448,192,138002,1,0,0:0:0:0:
320,192,138086,1,0,0:0:0:0:
320,192,138254,1,0,0:0:0:0:
192,192,138254,1,0,0:0:0:0:
64,192,138421,1,0,0:0:0:0:
448,192,138505,1,0,0:0:0:0:
64,192,138589,1,0,0:0:0:0:
320,192,138756,1,0,0:0:0:0:
192,192,138840,1,0,0:0:0:0:
320,192,138924,1,0,0:0:0:0:
192,192,139092,1,0,0:0:0:0:
320,192,139092,1,0,0:0:0:0:
64,192,139259,1,0,0:0:0:0:
192,192,139427,1,0,0:0:0:0:
320,192,139427,1,0,0:0:0:0:
192,192,139594,1,0,0:0:0:0:
320,192,139594,1,0,0:0:0:0:
192,192,139762,1,0,0:0:0:0:
320,192,139762,1,0,0:0:0:0:
320,192,139929,1,0,0:0:0:0:
448,192,140097,1,0,0:0:0:0:
192,192,140265,1,0,0:0:0:0:
64,192,140432,1,0,0:0:0:0:
192,192,140432,1,0,0:0:0:0:
448,192,140767,1,0,0:0:0:0:
320,192,140767,1,0,0:0:0:0:
192,192,140935,1,0,0:0:0:0:
64,192,141103,1,0,0:0:0:0:
320,192,141270,1,0,0:0:0:0:
448,192,141438,1,0,0:0:0:0:
448,192,141605,1,0,0:0:0:0:
192,192,141605,1,0,0:0:0:0:
320,192,141773,1,0,0:0:0:0:
64,192,141773,1,0,0:0:0:0:
320,192,142108,1,0,0:0:0:0:
192,192,142443,1,0,0:0:0:0:
64,192,142443,1,0,0:0:0:0:
320,192,142946,128,0,143281:0:0:0:0:
448,192,143281,128,0,143616:0:0:0:0:
192,192,143616,128,0,143952:0:0:0:0:
320,192,143952,1,0,0:0:0:0:
320,192,144287,1,0,0:0:0:0:
192,192,144287,1,0,0:0:0:0:
448,192,144622,1,0,0:0:0:0:
320,192,144790,1,0,0:0:0:0:
64,192,145125,128,0,146298:0:0:0:0:
448,192,145292,1,0,0:0:0:0:
448,192,145627,1,0,0:0:0:0:
448,192,145963,1,0,0:0:0:0:
448,192,146298,1,0,0:0:0:0:
320,192,146633,1,0,0:0:0:0:
64,192,146801,1,0,0:0:0:0:
320,192,147136,1,0,0:0:0:0:
192,192,147136,1,0,0:0:0:0:
448,192,147471,1,0,0:0:0:0:
64,192,147471,1,0,0:0:0:0:
320,192,147806,128,0,148141:0:0:0:0:
192,192,148141,1,0,0:0:0:0:
64,192,148309,1,0,0:0:0:0:
448,192,148477,1,0,0:0:0:0:
320,192,148477,1,0,0:0:0:0:
64,192,148644,1,0,0:0:0:0:
192,192,148812,1,0,0:0:0:0:
64,192,148979,1,0,0:0:0:0:
448,192,148979,1,0,0:0:0:0:
320,192,149147,128,0,149482:0:0:0:0:
448,192,149482,1,0,0:0:0:0:
320,192,149650,1,0,0:0:0:0:
448,192,149817,1,0,0:0:0:0:
64,192,149817,1,0,0:0:0:0:
320,192,149985,1,0,0:0:0:0:
64,192,150152,1,0,0:0:0:0:
192,192,150152,1,0,0:0:0:0:
320,192,150320,1,0,0:0:0:0:
448,192,150320,1,0,0:0:0:0:
320,192,150488,1,0,0:0:0:0:
64,192,150488,1,0,0:0:0:0:
320,192,150655,1,0,0:0:0:0:
192,192,150823,1,0,0:0:0:0:
320,192,150990,1,0,0:0:0:0:
448,192,151158,1,0,0:0:0:0:
320,192,151158,1,0,0:0:0:0:
64,192,151326,1,0,0:0:0:0:
64,192,151493,1,0,0:0:0:0:
320,192,151493,1,0,0:0:0:0:
192,192,151828,128,0,152163:0:0:0:0:
320,192,152163,1,0,0:0:0:0:
448,192,152331,1,0,0:0:0:0:
192,192,152499,1,0,0:0:0:0:
320,192,152499,1,0,0:0:0:0:
64,192,152666,1,0,0:0:0:0:
192,192,152834,1,0,0:0:0:0:
320,192,152834,1,0,0:0:0:0:
448,192,152834,1,0,0:0:0:0:
448,192,153169,128,0,153672:0:0:0:0:
320,192,153672,1,0,0:0:0:0:
320,192,154007,1,0,0:0:0:0:
192,192,154007,1,0,0:0:0:0:
320,192,154175,1,0,0:0:0:0:
192,192,154175,1,0,0:0:0:0:
64,192,154510,128,0,154845:0:0:0:0:
192,192,154845,1,0,0:0:0:0:
448,192,155012,1,0,0:0:0:0:
320,192,155180,1,0,0:0:0:0:
320,192,155515,1,0,0:0:0:0:
64,192,155683,1,0,0:0:0:0:
192,192,155850,1,0,0:0:0:0:
320,192,156018,128,0,156521:0:0:0:0:
448,192,156018,128,0,156521:0:0:0:0:
64,192,156186,1,0,0:0:0:0:
64,192,156353,1,0,0:0:0:0:
192,192,156521,1,0,0:0:0:0:
320,192,156688,1,0,0:0:0:0:
192,192,156856,1,0,0:0:0:0:
320,192,156856,1,0,0:0:0:0:
64,192,157024,128,0,157526:0:0:0:0:
320,192,157024,1,0,0:0:0:0:
448,192,157191,1,0,0:0:0:0:
320,192,157359,1,0,0:0:0:0:
192,192,157526,1,0,0:0:0:0:
320,192,157694,1,0,0:0:0:0:
448,192,157862,1,0,0:0:0:0:
192,192,158029,1,0,0:0:0:0:
64,192,158029,1,0,0:0:0:0:
448,192,158029,1,0,0:0:0:0:
64,192,158197,1,0,0:0:0:0:
192,192,158197,1,0,0:0:0:0:
448,192,158197,1,0,0:0:0:0:
320,192,158532,128,0,158867:0:0:0:0:
192,192,158867,1,0,0:0:0:0:
448,192,159035,1,0,0:0:0:0:
192,192,159202,1,0,0:0:0:0:
192,192,159370,1,0,0:0:0:0:
320,192,159370,1,0,0:0:0:0:
192,192,159537,1,0,0:0:0:0:
320,192,159537,1,0,0:0:0:0:
448,192,159873,128,0,160208:0:0:0:0:
320,192,160208,1,0,0:0:0:0:
192,192,160375,1,0,0:0:0:0:
64,192,160543,1,0,0:0:0:0:
448,192,160711,1,0,0:0:0:0:
448,192,160878,1,0,0:0:0:0:
320,192,160878,1,0,0:0:0:0:
448,192,161213,128,0,161548:0:0:0:0:
320,192,161548,1,0,0:0:0:0:
64,192,161716,1,0,0:0:0:0:
448,192,161884,1,0,0:0:0:0:
192,192,162051,1,0,0:0:0:0:
320,192,162219,1,0,0:0:0:0:
64,192,162219,1,0,0:0:0:0:
320,192,162554,1,0,0:0:0:0:
64,192,162554,1,0,0:0:0:0:
192,192,162889,1,0,0:0:0:0:
320,192,162889,1,0,0:0:0:0:
448,192,163057,1,0,0:0:0:0:
192,192,163224,1,0,0:0:0:0:
320,192,163392,1,0,0:0:0:0:
64,192,163560,1,0,0:0:0:0:
64,192,163895,1,0,0:0:0:0:
192,192,163979,1,0,0:0:0:0:
320,192,164062,128,0,164733:0:0:0:0:
192,192,164733,1,0,0:0:0:0:
64,192,164900,1,0,0:0:0:0:
448,192,165235,1,0,0:0:0:0:
192,192,165235,1,0,0:0:0:0:
320,192,165571,1,0,0:0:0:0:
192,192,165906,1,0,0:0:0:0:
64,192,166073,1,0,0:0:0:0:
192,192,166241,1,0,0:0:0:0:
64,192,166409,128,0,166744:0:0:0:0:
192,192,166744,1,0,0:0:0:0:
320,192,166911,1,0,0:0:0:0:
448,192,167079,1,0,0:0:0:0:
192,192,167247,1,0,0:0:0:0:
320,192,167247,1,0,0:0:0:0:
448,192,167414,128,0,167749:0:0:0:0:
64,192,167582,1,0,0:0:0:0:
192,192,167582,1,0,0:0:0:0:
320,192,167749,1,0,0:0:0:0:
192,192,167917,1,0,0:0:0:0:
448,192,167917,1,0,0:0:0:0:
64,192,168084,1,0,0:0:0:0:
448,192,168252,1,0,0:0:0:0:
64,192,168420,1,0,0:0:0:0:
192,192,168420,1,0,0:0:0:0:
320,192,168420,1,0,0:0:0:0:
192,192,168587,1,0,0:0:0:0:
320,192,168755,1,0,0:0:0:0:
448,192,168755,1,0,0:0:0:0:
320,192,168922,1,0,0:0:0:0:
64,192,168922,1,0,0:0:0:0:
192,192,169090,1,0,0:0:0:0:
320,192,169258,1,0,0:0:0:0:
64,192,169258,1,0,0:0:0:0:
448,192,169425,128,0,169760:0:0:0:0:
320,192,169760,1,0,0:0:0:0:
64,192,170096,1,0,0:0:0:0:
448,192,170431,128,0,171101:0:0:0:0:
320,192,171101,128,0,171771:0:0:0:0:
64,192,171771,1,0,0:0:0:0:
192,192,172107,1,0,0:0:0:0:
320,192,172107,1,0,0:0:0:0:
192,192,172442,1,0,0:0:0:0:
64,192,172777,128,0,173112:0:0:0:0:
192,192,173112,128,0,173782:0:0:0:0:
320,192,173782,128,0,174453:0:0:0:0:
192,192,174453,1,0,0:0:0:0:
448,192,174788,128,0,175794:0:0:0:0:
64,192,175291,1,0,0:0:0:0:
64,192,175458,1,0,0:0:0:0:
192,192,175626,1,0,0:0:0:0:
320,192,175794,1,0,0:0:0:0:
448,192,175961,1,0,0:0:0:0:
64,192,176129,128,0,177134:0:0:0:0:
192,192,176464,1,0,0:0:0:0:
448,192,176632,1,0,0:0:0:0:
320,192,176632,1,0,0:0:0:0:
320,192,176799,1,0,0:0:0:0:
448,192,176967,1,0,0:0:0:0:
192,192,177134,1,0,0:0:0:0:
320,192,177302,1,0,0:0:0:0:
320,192,177469,128,0,178475:0:0:0:0:
192,192,177637,1,0,0:0:0:0:
448,192,177805,1,0,0:0:0:0:
448,192,177972,1,0,0:0:0:0:
192,192,178140,1,0,0:0:0:0:
64,192,178140,1,0,0:0:0:0:
448,192,178307,1,0,0:0:0:0:
192,192,178475,1,0,0:0:0:0:
64,192,178643,1,0,0:0:0:0:
320,192,178643,1,0,0:0:0:0:
448,192,178810,1,0,0:0:0:0:
320,192,178978,1,0,0:0:0:0:
192,192,178978,1,0,0:0:0:0:
448,192,178978,1,0,0:0:0:0:
320,192,179145,1,0,0:0:0:0:
64,192,179313,1,0,0:0:0:0:
448,192,179481,128,0,179983:0:0:0:0:
320,192,179983,1,0,0:0:0:0:
192,192,180151,128,0,181156:0:0:0:0:
448,192,180486,1,0,0:0:0:0:
320,192,180654,1,0,0:0:0:0:
64,192,180654,1,0,0:0:0:0:
448,192,180821,1,0,0:0:0:0:
320,192,180989,1,0,0:0:0:0:
448,192,181156,1,0,0:0:0:0:
192,192,181324,1,0,0:0:0:0:
64,192,181324,1,0,0:0:0:0:
320,192,181492,128,0,182497:0:0:0:0:
192,192,181827,1,0,0:0:0:0:
64,192,181827,1,0,0:0:0:0:
448,192,181994,1,0,0:0:0:0:
448,192,182162,1,0,0:0:0:0:
64,192,182162,1,0,0:0:0:0:
192,192,182330,1,0,0:0:0:0:
64,192,182497,1,0,0:0:0:0:
320,192,182665,1,0,0:0:0:0:
192,192,182832,128,0,183838:0:0:0:0:
448,192,182832,128,0,183838:0:0:0:0:
320,192,183000,1,0,0:0:0:0:
320,192,183167,1,0,0:0:0:0:
64,192,183335,1,0,0:0:0:0:
320,192,183503,1,0,0:0:0:0:
64,192,183503,1,0,0:0:0:0:
320,192,183670,1,0,0:0:0:0:
64,192,183838,1,0,0:0:0:0:
320,192,184173,1,0,0:0:0:0:
192,192,184173,1,0,0:0:0:0:
320,192,184341,1,0,0:0:0:0:
320,192,184508,1,0,0:0:0:0:
448,192,184676,1,0,0:0:0:0:
64,192,184676,1,0,0:0:0:0:
192,192,184843,1,0,0:0:0:0:
192,192,185011,1,0,0:0:0:0:
64,192,185179,1,0,0:0:0:0:
192,192,185262,1,0,0:0:0:0:
320,192,185346,1,0,0:0:0:0:
448,192,185430,1,0,0:0:0:0:
192,192,185514,128,0,186184:0:0:0:0:
320,192,186184,128,0,186854:0:0:0:0:
64,192,186854,128,0,187525:0:0:0:0:
448,192,187525,128,0,188195:0:0:0:0:
192,192,188195,128,0,189536:0:0:0:0:
320,192,189536,1,0,0:0:0:0:
448,192,189703,1,0,0:0:0:0:
192,192,189871,1,0,0:0:0:0:
64,192,190039,1,0,0:0:0:0:
448,192,190039,1,0,0:0:0:0:
320,192,190206,1,0,0:0:0:0:
64,192,190374,1,0,0:0:0:0:
320,192,190541,1,0,0:0:0:0:
192,192,190541,1,0,0:0:0:0:
448,192,190709,1,0,0:0:0:0:
320,192,190793,1,0,0:0:0:0:
192,192,190877,128,0,191547:0:0:0:0:
320,192,191547,128,0,192217:0:0:0:0:
448,192,192217,128,0,192720:0:0:0:0:
64,192,192720,128,0,193223:0:0:0:0:
320,192,193223,1,0,0:0:0:0:
192,192,193558,128,0,194228:0:0:0:0:
64,192,193558,128,0,194228:0:0:0:0:
448,192,194396,1,0,0:0:0:0:
320,192,194396,1,0,0:0:0:0:
64,192,194564,1,0,0:0:0:0:
192,192,194564,1,0,0:0:0:0:
192,192,194731,1,0,0:0:0:0:
320,192,194731,1,0,0:0:0:0:
192,192,195066,1,0,0:0:0:0:
320,192,195066,1,0,0:0:0:0:
320,192,195402,1,0,0:0:0:0:
192,192,195402,1,0,0:0:0:0:
64,192,195402,1,0,0:0:0:0:
320,192,195904,1,0,0:0:0:0:
64,192,196239,1,0,0:0:0:0:
448,192,196239,1,0,0:0:0:0:
64,192,196575,1,0,0:0:0:0:
192,192,196910,1,0,0:0:0:0:
320,192,196910,1,0,0:0:0:0:
320,192,197245,1,0,0:0:0:0:
448,192,197580,1,0,0:0:0:0:
192,192,197580,1,0,0:0:0:0:
64,192,197915,1,0,0:0:0:0:
448,192,198251,1,0,0:0:0:0:
64,192,198251,1,0,0:0:0:0:
320,192,198586,1,0,0:0:0:0:
448,192,198586,1,0,0:0:0:0:
192,192,198753,1,0,0:0:0:0:
64,192,198753,1,0,0:0:0:0:
320,192,198921,1,0,0:0:0:0:
448,192,198921,1,0,0:0:0:0:
320,192,199256,1,0,0:0:0:0:
192,192,199591,1,0,0:0:0:0:
320,192,199591,1,0,0:0:0:0:
448,192,199926,1,0,0:0:0:0:
192,192,200094,1,0,0:0:0:0:
192,192,200262,1,0,0:0:0:0:
64,192,200429,1,0,0:0:0:0:
192,192,200597,1,0,0:0:0:0:
64,192,200764,1,0,0:0:0:0:
320,192,200932,1,0,0:0:0:0:
192,192,201100,1,0,0:0:0:0:
448,192,201267,1,0,0:0:0:0:
320,192,201435,1,0,0:0:0:0:
64,192,201602,1,0,0:0:0:0:
192,192,201602,1,0,0:0:0:0:
320,192,201770,1,0,0:0:0:0:
192,192,201937,1,0,0:0:0:0:
320,192,202105,1,0,0:0:0:0:
448,192,202105,1,0,0:0:0:0:
192,192,202273,1,0,0:0:0:0:
64,192,202440,1,0,0:0:0:0:
320,192,202440,1,0,0:0:0:0:
192,192,202608,1,0,0:0:0:0:
320,192,202775,1,0,0:0:0:0:
448,192,202775,1,0,0:0:0:0:
192,192,202943,1,0,0:0:0:0:
320,192,202943,1,0,0:0:0:0:
64,192,203111,1,0,0:0:0:0:
448,192,203278,1,0,0:0:0:0:
192,192,203278,1,0,0:0:0:0:
320,192,203446,1,0,0:0:0:0:
448,192,203613,1,0,0:0:0:0:
192,192,203781,1,0,0:0:0:0:
64,192,203781,1,0,0:0:0:0:
448,192,204116,1,0,0:0:0:0:
320,192,204116,1,0,0:0:0:0:
192,192,204284,1,0,0:0:0:0:
320,192,204451,1,0,0:0:0:0:
448,192,204619,1,0,0:0:0:0:
192,192,204619,1,0,0:0:0:0:
64,192,204787,1,0,0:0:0:0:
320,192,204787,1,0,0:0:0:0:
448,192,204954,1,0,0:0:0:0:
192,192,204954,1,0,0:0:0:0:
320,192,205122,1,0,0:0:0:0:
64,192,205122,1,0,0:0:0:0:
192,192,205289,1,0,0:0:0:0:
320,192,205289,1,0,0:0:0:0:
448,192,205457,1,0,0:0:0:0:
320,192,205624,1,0,0:0:0:0:
64,192,205624,1,0,0:0:0:0:
64,192,205792,1,0,0:0:0:0:
192,192,205792,1,0,0:0:0:0:
320,192,205960,1,0,0:0:0:0:
448,192,206127,1,0,0:0:0:0:
320,192,206295,1,0,0:0:0:0:
448,192,206462,1,0,0:0:0:0:
320,192,206630,1,0,0:0:0:0:
64,192,206965,1,0,0:0:0:0:
192,192,207133,1,0,0:0:0:0:
320,192,207133,1,0,0:0:0:0:
192,192,207300,1,0,0:0:0:0:
320,192,207300,1,0,0:0:0:0:
448,192,207468,1,0,0:0:0:0:
192,192,207636,1,0,0:0:0:0:
448,192,207636,1,0,0:0:0:0:
448,192,207803,1,0,0:0:0:0:
192,192,207803,1,0,0:0:0:0:
320,192,207971,1,0,0:0:0:0:
64,192,208138,1,0,0:0:0:0:
192,192,208138,1,0,0:0:0:0:
64,192,208306,1,0,0:0:0:0:
192,192,208306,1,0,0:0:0:0:
448,192,208473,1,0,0:0:0:0:
64,192,208641,1,0,0:0:0:0:
448,192,208641,1,0,0:0:0:0:
64,192,208809,1,0,0:0:0:0:
448,192,208809,1,0,0:0:0:0:
192,192,208976,1,0,0:0:0:0:
320,192,208976,1,0,0:0:0:0:
448,192,208976,1,0,0:0:0:0:
64,192,209311,1,0,0:0:0:0:
192,192,209311,1,0,0:0:0:0:
64,192,209647,1,0,0:0:0:0:
192,192,209730,1,0,0:0:0:0:
320,192,209814,1,0,0:0:0:0:
448,192,209898,1,0,0:0:0:0:
64,192,209982,1,0,0:0:0:0:
192,192,210066,1,0,0:0:0:0:
320,192,210149,1,0,0:0:0:0:
448,192,210233,1,0,0:0:0:0:
64,192,210317,1,0,0:0:0:0:
192,192,210401,1,0,0:0:0:0:
320,192,210485,1,0,0:0:0:0:
448,192,210568,1,0,0:0:0:0:
64,192,210652,1,0,0:0:0:0:
192,192,210736,1,0,0:0:0:0:
320,192,210820,1,0,0:0:0:0:
448,192,210904,1,0,0:0:0:0:
64,192,210987,1,0,0:0:0:0:
192,192,210987,1,0,0:0:0:0:
192,192,211323,1,0,0:0:0:0:
320,192,211658,1,0,0:0:0:0:
448,192,211658,1,0,0:0:0:0:
320,192,211993,1,0,0:0:0:0:
448,192,211993,1,0,0:0:0:0:
192,192,212160,128,0,214339:0:0:0:0:
320,192,212160,1,0,0:0:0:0:
448,192,212496,1,0,0:0:0:0:
64,192,212663,1,0,0:0:0:0:
448,192,212831,1,0,0:0:0:0:
64,192,212998,1,0,0:0:0:0:
320,192,213166,1,0,0:0:0:0:
448,192,213166,1,0,0:0:0:0:
64,192,213501,1,0,0:0:0:0:
320,192,213836,1,0,0:0:0:0:
448,192,214004,1,0,0:0:0:0:
64,192,214172,1,0,0:0:0:0:
320,192,214339,128,0,214842:0:0:0:0:
64,192,214507,1,0,0:0:0:0:
448,192,214842,128,0,215680:0:0:0:0:
64,192,215177,1,0,0:0:0:0:
320,192,215345,1,0,0:0:0:0:
192,192,215512,1,0,0:0:0:0:
64,192,215680,128,0,216350:0:0:0:0:
320,192,215847,1,0,0:0:0:0:
320,192,216183,1,0,0:0:0:0:
448,192,216350,128,0,217021:0:0:0:0:
192,192,216518,1,0,0:0:0:0:
64,192,216685,1,0,0:0:0:0:
192,192,216853,1,0,0:0:0:0:
64,192,216853,1,0,0:0:0:0:
320,192,217021,128,0,217523:0:0:0:0:
192,192,217523,1,0,0:0:0:0:
64,192,217523,1,0,0:0:0:0:
64,192,217858,1,0,0:0:0:0:
192,192,217858,1,0,0:0:0:0:
448,192,217858,1,0,0:0:0:0:
320,192,218026,1,0,0:0:0:0:
192,192,218361,1,0,0:0:0:0:
448,192,218529,1,0,0:0:0:0:
64,192,218864,128,0,219367:0:0:0:0:
448,192,218864,128,0,219367:0:0:0:0:
320,192,219032,1,0,0:0:0:0:
320,192,219199,1,0,0:0:0:0:
320,192,219367,1,0,0:0:0:0:
192,192,219367,1,0,0:0:0:0:
320,192,219534,1,0,0:0:0:0:
192,192,219534,1,0,0:0:0:0:
320,192,219870,1,0,0:0:0:0:
192,192,220037,1,0,0:0:0:0:
320,192,220205,1,0,0:0:0:0:
320,192,220372,1,0,0:0:0:0:
448,192,220372,1,0,0:0:0:0:
320,192,220540,1,0,0:0:0:0:
448,192,220540,1,0,0:0:0:0:
64,192,220708,1,0,0:0:0:0:
192,192,220875,1,0,0:0:0:0:
64,192,220875,1,0,0:0:0:0:
64,192,221043,1,0,0:0:0:0:
192,192,221043,1,0,0:0:0:0:
320,192,221210,1,0,0:0:0:0:
192,192,221378,1,0,0:0:0:0:
448,192,221378,1,0,0:0:0:0:
192,192,221545,1,0,0:0:0:0:
448,192,221545,1,0,0:0:0:0:
448,192,221713,1,0,0:0:0:0:
320,192,221713,1,0,0:0:0:0:
448,192,221881,1,0,0:0:0:0:
192,192,221881,1,0,0:0:0:0:
448,192,222048,1,0,0:0:0:0:
64,192,222048,1,0,0:0:0:0:
448,192,222216,1,0,0:0:0:0:
64,192,222216,1,0,0:0:0:0:
192,192,222383,1,0,0:0:0:0:
320,192,222383,1,0,0:0:0:0:
192,192,222551,1,0,0:0:0:0:
320,192,222551,1,0,0:0:0:0:
320,192,222886,128,0,223389:0:0:0:0:
64,192,223054,1,0,0:0:0:0:
448,192,223054,1,0,0:0:0:0:
448,192,223221,1,0,0:0:0:0:
192,192,223389,1,0,0:0:0:0:
448,192,223557,1,0,0:0:0:0:
64,192,223724,1,0,0:0:0:0:
320,192,223892,1,0,0:0:0:0:
192,192,223892,1,0,0:0:0:0:
64,192,223892,1,0,0:0:0:0:
64,192,224059,1,0,0:0:0:0:
320,192,224227,1,0,0:0:0:0:
64,192,224394,1,0,0:0:0:0:
192,192,224394,1,0,0:0:0:0:
448,192,224394,1,0,0:0:0:0:
192,192,224562,1,0,0:0:0:0:
320,192,224730,1,0,0:0:0:0:
448,192,224897,1,0,0:0:0:0:
320,192,224897,1,0,0:0:0:0:
192,192,225065,1,0,0:0:0:0:
64,192,225065,1,0,0:0:0:0:
64,192,225232,1,0,0:0:0:0:
448,192,225232,1,0,0:0:0:0:
64,192,225400,1,0,0:0:0:0:
448,192,225400,1,0,0:0:0:0:
192,192,225568,1,0,0:0:0:0:
320,192,225651,1,0,0:0:0:0:
448,192,225735,128,0,226070:0:0:0:0:
192,192,225903,1,0,0:0:0:0:
64,192,226070,1,0,0:0:0:0:
192,192,226238,1,0,0:0:0:0:
320,192,226238,1,0,0:0:0:0:
448,192,226406,1,0,0:0:0:0:
64,192,226406,1,0,0:0:0:0:
192,192,226573,1,0,0:0:0:0:
320,192,226573,1,0,0:0:0:0:
320,192,226741,1,0,0:0:0:0:
448,192,226908,1,0,0:0:0:0:
192,192,226908,1,0,0:0:0:0:
64,192,226908,1,0,0:0:0:0:
192,192,227076,1,0,0:0:0:0:
320,192,227243,1,0,0:0:0:0:
448,192,227411,1,0,0:0:0:0:
192,192,227579,1,0,0:0:0:0:
448,192,227746,1,0,0:0:0:0:
64,192,227914,1,0,0:0:0:0:
64,192,228417,128,0,229087:0:0:0:0:
320,192,229087,1,0,0:0:0:0:
192,192,229255,1,0,0:0:0:0:
320,192,229590,1,0,0:0:0:0:
192,192,229590,1,0,0:0:0:0:
64,192,229925,1,0,0:0:0:0:
320,192,229925,1,0,0:0:0:0:
448,192,230260,1,0,0:0:0:0:
320,192,230260,1,0,0:0:0:0:
192,192,230428,1,0,0:0:0:0:
64,192,230595,1,0,0:0:0:0:
192,192,230763,128,0,231098:0:0:0:0:
320,192,231098,1,0,0:0:0:0:
320,192,231266,1,0,0:0:0:0:
448,192,231433,1,0,0:0:0:0:
192,192,231433,1,0,0:0:0:0:
448,192,231601,128,0,232104:0:0:0:0:
192,192,231936,1,0,0:0:0:0:
320,192,232104,1,0,0:0:0:0:
64,192,232104,1,0,0:0:0:0:
448,192,232271,1,0,0:0:0:0:
192,192,232439,1,0,0:0:0:0:
320,192,232606,128,0,232942:0:0:0:0:
448,192,232606,128,0,232942:0:0:0:0:
64,192,232774,1,0,0:0:0:0:
192,192,232942,1,0,0:0:0:0:
320,192,233277,1,0,0:0:0:0:
320,192,233444,1,0,0:0:0:0:
64,192,233444,1,0,0:0:0:0:
320,192,233779,1,0,0:0:0:0:
64,192,234115,1,0,0:0:0:0:
192,192,234450,1,0,0:0:0:0:
448,192,234785,128,0,235455:0:0:0:0:
320,192,235455,128,0,236126:0:0:0:0:
64,192,236461,1,0,0:0:0:0:
192,192,236461,1,0,0:0:0:0:
192,192,236796,1,0,0:0:0:0:
448,192,236796,1,0,0:0:0:0:
320,192,237131,1,0,0:0:0:0:
64,192,237466,128,0,239142:0:0:0:0:
192,192,237466,128,0,239142:0:0:0:0:
448,192,237466,128,0,239142:0:0:0:0:
320,192,238137,1,0,0:0:0:0:
320,192,239142,1,0,0:0:0:0:
