osu file format v14

[General]
AudioFilename: audio.mp3
AudioLeadIn: 0
PreviewTime: 61444
Countdown: 0
SampleSet: Soft
StackLeniency: 0.7
Mode: 0
LetterboxInBreaks: 0
WidescreenStoryboard: 0

[Editor]
DistanceSpacing: 1
BeatDivisor: 4
GridSize: 4
TimelineZoom: 1.8

[Metadata]
Title:Endless Starlight ~Inochi no Kirameki~ (OP ver.)
TitleUnicode:Endless Starlight 〜命のキラメキ〜(OP ver.)
Artist:Kanae Asaba
ArtistUnicode:浅場佳苗
Creator:Monstrata
Version:Gold
Source:リーグ・オブ・レジェンド
Tags:lol league of legends janna lux poppy lulu jinx star guardians theme song opening version guardian mahou shoujo magical girl riot games tencent japan japanese
BeatmapID:1102146
BeatmapSetID:518737

[Difficulty]
HPDrainRate:3
CircleSize:3.5
OverallDifficulty:4
ApproachRate:5
SliderMultiplier:1
SliderTickRate:1

[Events]
//Background and Video events
0,0,"plscarrymetochallenjour.jpg",0,0
Video,-357,"starguardians.avi"
//Break Periods
//Storyboard Layer 0 (Background)
//Storyboard Layer 1 (Fail)
//Storyboard Layer 2 (Pass)
//Storyboard Layer 3 (Foreground)
//Storyboard Sound Samples

[TimingPoints]
7660,331.491712707182,4,2,1,35,1,0
8985,-100,4,2,1,55,0,0
10311,-100,4,2,1,5,0,0
11637,-100,4,2,1,55,0,0
17936,-100,4,2,1,70,0,0
51416,-100,4,2,1,60,0,0
56555,-100,4,2,1,70,0,0
60698,-100,4,2,1,50,0,0
61527,-100,4,2,1,70,0,0
61858,-100,4,2,1,85,0,1
88378,-100,4,2,1,70,0,0
98985,-104.384133611691,4,2,1,70,0,0
102300,-100,4,2,1,15,0,0

[Colours]
Combo1 : 255,128,128
Combo2 : 155,155,206
Combo3 : 255,128,255
Combo4 : 128,255,255
Combo5 : 255,174,94
Combo6 : 113,113,255
Combo7 : 128,255,128
Combo8 : 197,138,255

[HitObjects]
63,116,8985,6,0,P|144:95|352:300,1,400,2|0,0:0|0:0,0:0:0:0:
449,116,11637,6,0,P|368:95|160:300,1,400,2|2,0:0|0:0,0:0:0:0:
161,289,14289,6,0,B|206:253|255:269|255:269|306:288|359:253,1,200,2|2,0:0|0:0,0:0:0:0:
341,108,15450,2,0,L|177:132,1,150,2|2,0:0|0:0,0:0:0:0:
73,290,16610,1,2,0:0:0:0:
154,231,16941,6,0,P|249:211|335:259,1,200,2|0,0:0|0:0,0:0:0:0:
386,345,17936,1,0,0:0:0:0:
439,261,18267,6,0,P|450:212|442:163,1,100,8|2,0:0|0:3,0:0:0:0:
405,129,18764,2,0,P|355:136|307:126,1,100,8|2,0:0|0:3,0:0:0:0:
261,105,19262,1,2,0:3:0:0:
213,119,19427,6,0,P|161:164|154:252,1,150,6|8,0:0|0:0,0:0:0:0:
214,318,20256,2,0,P|263:323|311:312,1,100,2|8,0:0|0:0,0:0:0:0:
356,290,20753,6,0,L|341:133,1,150,2|8,0:0|0:0,0:0:0:0:
268,72,21582,2,0,L|271:1,2,50,2|0|8,0:0|0:0|0:0,0:0:0:0:
265,121,22079,6,0,P|195:146|124:126,1,150,6|8,0:0|0:0,0:0:0:0:
42,186,22908,2,0,P|27:233|34:282,1,100,2|10,0:0|0:0,0:0:0:0:
58,326,23405,6,0,B|108:342|108:342|220:318,1,150,2|10,0:0|0:0,0:0:0:0:
234,282,24068,2,0,B|342:258,1,100,2|2,0:2|0:3,0:0:0:0:
364,222,24566,1,10,0:0:0:0:
395,183,24731,6,0,P|405:109|369:45,1,150,6|10,0:0|0:0,0:0:0:0:
280,90,25560,2,0,L|277:160,2,50,0|0|8,0:0|0:0|0:0,0:0:0:0:
237,63,26057,5,2,0:0:0:0:
137,75,26389,1,2,0:3:0:0:
117,173,26720,1,2,0:0:0:0:
204,222,27052,2,0,L|262:254,1,50,2|8,0:0|0:0,0:0:0:0:
288,273,27383,6,0,P|351:237|423:253,1,150,6|8,0:0|0:0,0:0:0:0:
367,336,28212,2,0,P|316:370|263:370,1,100,2|8,0:3|0:0,0:0:0:0:
230,360,28709,1,2,0:0:0:0:
136,325,29041,6,0,L|68:341,2,50,0|0|0,0:0|0:0|0:0,0:0:0:0:
176,295,29538,2,0,B|189:247|189:247|169:189,1,100,0|0,0:0|0:0,0:0:0:0:
186,151,30035,6,0,P|216:120|323:128,1,150,4|8,0:0|0:0,0:0:0:0:
381,198,30864,2,0,L|446:202,2,50,2|0|8,3:2|0:0|0:0,0:0:0:0:
345,233,31361,6,0,B|272:255|271:210|194:232,1,150,2|8,0:0|0:0,0:0:0:0:
232,323,32190,2,0,P|280:337|330:336,1,100,2|8,3:2|0:0,0:0:0:0:
378,321,32687,6,0,B|414:297|454:310|454:310|477:285,1,100,2|0,0:0|0:0,0:0:0:0:
495,253,33184,1,8,0:0:0:0:
471,155,33516,2,0,P|427:176|402:218,1,100,2|8,3:2|0:0,0:0:0:0:
355,235,34013,6,0,B|308:250|308:250|187:227,1,150,2|8,0:0|0:0,0:0:0:0:
160,219,34676,2,0,P|132:177|164:83,1,150,2|8,0:0|0:0,0:0:0:0:
207,99,35339,6,0,B|305:117|305:117|352:102,1,150,2|8,0:2|0:0,0:0:0:0:
394,11,36168,2,0,P|433:42|453:88,1,100,2|8,3:2|0:0,0:0:0:0:
445,137,36665,6,0,B|424:178|424:178|447:291,1,150,2|8,0:0|0:0,0:0:0:0:
406,312,37328,1,0,0:0:0:0:
367,343,37494,2,0,L|267:345,1,100,2|8,3:2|0:0,0:0:0:0:
216,345,37991,6,0,P|234:289|202:190,1,150,2|8,0:0|0:0,0:0:0:0:
162,195,38654,2,0,L|177:86,1,100,2|2,3:2|0:3,0:0:0:0:
183,46,39151,1,8,0:0:0:0:
224,17,39317,6,0,P|293:7|335:29,2,100,6|2|2,3:2|0:0|0:0,0:0:0:0:
271,105,40311,2,0,L|274:165,1,50,0|8,3:0|3:2,0:0:0:0:
279,205,40643,6,0,P|349:237|414:215,1,150,6|8,0:0|0:0,0:0:0:0:
495,274,41472,2,0,L|485:379,1,100,2|8,3:2|0:0,0:0:0:0:
437,360,41969,6,0,B|366:337|366:389|290:360,1,150,2|8,0:0|0:0,0:0:0:0:
330,269,42798,2,0,L|339:169,1,100,2|8,3:2|0:0,0:0:0:0:
344,119,43295,6,0,P|301:94|205:127,1,150,2|8,3:2|0:0,0:0:0:0:
221,170,43958,2,0,P|232:222|186:305,1,150,2|8,3:2|0:0,0:0:0:0:
137,299,44621,6,0,L|24:292,1,100,2|2,3:2|0:3,0:0:0:0:
24,193,45284,2,0,L|123:199,1,100,2|2,0:0|0:3,0:0:0:0:
180,116,45947,6,0,P|229:67|327:72,1,150,6|8,3:2|0:0,0:0:0:0:
272,158,46776,2,0,L|262:280,1,100,2|8,0:0|0:0,0:0:0:0:
257,307,47273,6,0,B|331:340|331:290|404:323,1,150,6|8,3:2|0:0,0:0:0:0:
487,375,48101,2,0,P|502:319|470:248,1,100,2|8,3:2|0:0,0:0:0:0:
453,247,48599,6,0,L|466:82,1,150,6|8,3:2|0:0,0:0:0:0:
436,55,49262,2,0,P|392:29|290:39,1,150,2|8,3:2|0:0,0:0:0:0:
257,67,49925,6,0,L|248:171,1,100,6|2,3:2|0:0,0:0:0:0:
241,265,50588,2,0,P|303:250|346:175,1,150,2|8,3:2|0:0,0:0:0:0:
342,79,51416,6,0,P|390:88|435:135,1,100,4|0,0:0|0:0,0:0:0:0:
434,221,52079,2,0,L|439:327,1,100,8|0,0:0|0:0,0:0:0:0:
440,370,52577,6,0,P|398:352|327:367,1,100,2|2,3:2|3:2,0:0:0:0:
247,376,53240,2,0,P|197:381|152:362,1,100,2|0,0:3|0:0,0:0:0:0:
125,319,53737,1,0,0:0:0:0:
46,257,54068,6,0,P|99:221|150:220,1,100,2|0,0:0|0:0,0:0:0:0:
226,179,54731,2,0,P|230:242|206:287,1,100,8|0,0:0|0:0,0:0:0:0:
232,322,55229,6,0,P|263:359|312:378,1,100,2|2,0:0|0:0,0:0:0:0:
323,278,55892,2,0,L|345:112,1,150,2|8,0:0|0:0,0:0:0:0:
351,79,56555,6,0,P|284:48|212:64,1,150,6|8,0:0|0:0,0:0:0:0:
113,81,57383,2,0,P|133:126|173:156,1,100,2|8,0:0|0:0,0:0:0:0:
222,164,57880,6,0,P|172:199|164:302,1,150,6|8,0:0|0:0,0:0:0:0:
253,259,58709,2,0,L|372:229,1,100,2|8,0:0|0:0,0:0:0:0:
398,224,59206,6,0,P|431:242|434:354,1,150,6|8,0:0|0:0,0:0:0:0:
397,367,59869,2,0,B|329:337|329:337|239:358,1,150,0|10,0:0|0:0,0:0:0:0:
208,335,60532,1,0,0:0:0:0:
160,315,60698,6,0,P|157:240|227:204,1,150,2|2,0:3|0:0,0:0:0:0:
307,241,61527,2,0,L|370:228,1,50,2|2,0:0|0:0,0:0:0:0:
405,223,61858,6,0,P|421:181|378:78,1,150,6|8,0:0|0:0,0:0:0:0:
293,122,62687,2,0,P|246:136|198:124,1,100,2|8,0:0|0:0,0:0:0:0:
156,96,63184,6,0,L|164:212,1,100,2|2,0:0|0:3,0:0:0:0:
167,245,63682,1,8,0:0:0:0:
105,323,64013,2,0,P|148:345|197:340,1,100,2|8,0:0|0:0,0:0:0:0:
240,314,64510,6,0,B|289:301|289:301|338:311|338:311|390:300,1,150,6|8,0:0|0:0,0:0:0:0:
338,211,65339,2,0,P|338:162|357:116,1,100,2|8,0:0|0:0,0:0:0:0:
379,71,65836,6,0,L|264:74,1,100,2|2,0:0|0:0,0:0:0:0:
229,84,66334,2,0,B|203:161|257:159|224:235,1,150,8|2,0:0|0:0,0:0:0:0:
199,272,66997,1,8,0:0:0:0:
169,312,67162,6,0,P|224:361|297:355,1,150,6|8,0:0|0:0,0:0:0:0:
325,259,67991,2,0,P|370:285|394:339,1,100,2|8,0:0|0:0,0:0:0:0:
417,369,68488,6,0,L|464:271,1,100,2|0,0:0|0:0,0:0:0:0:
482,233,68985,1,8,0:0:0:0:
471,133,69317,2,0,P|422:150|388:204,1,100,2|8,0:0|0:0,0:0:0:0:
373,233,69814,6,0,L|266:220,1,100,6|2,0:0|0:3,0:0:0:0:
248,317,70477,2,0,L|347:329,1,100,6|2,0:0|0:3,0:0:0:0:
442,298,71140,6,0,P|466:246|454:185,1,100,6|0,0:0|0:0,0:0:0:0:
434,162,71637,1,10,0:0:0:0:
335,152,71969,2,0,L|328:34,1,100,8|8,0:0|0:0,0:0:0:0:
280,41,72466,6,0,B|226:30|226:30|181:69|121:48,1,150,6|8,0:0|0:0,0:0:0:0:
40,26,73295,2,0,P|40:76|62:120,1,100,2|8,0:0|0:0,0:0:0:0:
105,146,73792,6,0,L|98:250,1,100,2|2,0:0|0:3,0:0:0:0:
93,295,74289,1,8,0:0:0:0:
148,378,74621,2,0,P|178:347|192:282,1,100,2|8,0:0|0:0,0:0:0:0:
194,242,75118,6,0,P|264:220|336:237,1,150,6|8,0:0|0:0,0:0:0:0:
403,311,75947,2,0,P|428:274|427:201,1,100,2|8,0:0|0:0,0:0:0:0:
411,174,76444,6,0,L|415:65,1,100,2|2,0:0|0:3,0:0:0:0:
384,33,76941,2,0,P|313:13|251:53,1,150,8|2,0:0|0:0,0:0:0:0:
228,96,77604,1,8,0:0:0:0:
202,138,77770,6,0,P|228:191|223:250,1,100,6|2,0:0|0:0,0:0:0:0:
214,330,78433,2,0,P|267:304|326:309,1,100,6|2,0:0|0:0,0:0:0:0:
406,318,79096,6,0,P|380:265|385:206,1,100,6|2,0:0|0:0,0:0:0:0:
399,179,79593,2,0,P|445:159|477:119,1,100,8|2,0:0|0:3,0:0:0:0:
383,79,80256,1,8,0:0:0:0:
332,80,80422,6,0,L|210:82,1,100,6|2,0:0|0:0,0:0:0:0:
209,179,81085,2,0,L|308:177,1,100,6|2,0:0|0:0,0:0:0:0:
284,274,81748,6,0,L|185:276,1,100,6|2,0:0|0:0,0:0:0:0:
134,276,82245,2,0,P|96:252|68:190,1,100,8|2,0:0|0:3,0:0:0:0:
166,183,82908,1,8,0:0:0:0:
215,176,83074,6,0,L|237:54,1,100,6|2,0:0|0:0,0:0:0:0:
332,87,83737,2,0,L|314:185,1,100,6|2,0:0|0:0,0:0:0:0:
256,267,84400,6,0,P|304:287|395:248,1,150,6|8,0:0|0:0,0:0:0:0:
417,210,85063,1,0,0:0:0:0:
446,169,85229,2,0,L|431:52,1,100,2|8,0:0|0:0,0:0:0:0:
394,38,85726,6,0,P|346:4|246:34,1,150,6|8,0:0|0:0,0:0:0:0:
319,98,86555,2,0,L|306:216,1,100,2|8,0:3|0:0,0:0:0:0:
301,246,87052,6,0,P|255:266|206:260,1,100,2|2,0:0|0:0,0:0:0:0:
123,204,87715,2,0,L|139:82,1,100,2|2,0:0|0:0,0:0:0:0:
228,142,88378,6,0,P|273:161|369:126,1,150,6|8,0:0|0:0,0:0:0:0:
457,93,89206,2,0,L|443:206,1,100,2|8,0:0|0:0,0:0:0:0:
437,242,89704,6,0,B|363:224|362:270|286:248,1,150,2|8,0:0|0:0,0:0:0:0:
226,171,90532,2,0,P|197:212|189:261,1,100,2|8,0:0|0:0,0:0:0:0:
207,308,91030,6,0,P|129:346|71:330,1,150,6|8,0:0|0:0,0:0:0:0:
5,255,91858,2,0,L|31:137,1,100,2|10,0:0|0:0,0:0:0:0:
37,108,92356,1,2,0:0:0:0:
49,59,92521,6,0,P|79:26|148:19,1,100,2|8,0:0|0:0,0:0:0:0:
191,95,93184,2,0,L|169:192,1,100,2|8,0:0|0:0,0:0:0:0:
156,240,93682,6,0,P|227:260|295:231,1,150,6|10,0:0|0:0,0:0:0:0:
345,144,94510,2,0,P|382:178|394:226,1,100,2|8,0:0|0:0,0:0:0:0:
388,276,95008,6,0,L|508:275,2,100,2|2|2,0:0|0:0|0:0,0:0:0:0:
321,350,96002,2,0,L|265:350,1,50,2|8,0:0|0:0,0:0:0:0:
220,349,96334,6,0,P|168:312|158:213,1,150,6|8,0:0|0:0,0:0:0:0:
249,253,97162,2,0,P|287:229|317:174,1,100,2|8,0:3|0:0,0:0:0:0:
305,132,97659,6,0,L|284:29,1,100,6|2,0:0|0:0,0:0:0:0:
239,13,98157,1,8,0:0:0:0:
149,57,98488,2,0,P|126:100|129:149,1,100,2|8,0:3|0:0,0:0:0:0:
140,196,98985,6,0,B|79:277|79:277|176:285|176:285|235:368|235:368|276:277|276:277|372:246|372:246|297:182|297:182|297:80|297:80|215:130|215:130|115:97|115:97|129:152,1,957.87502265482,4|0,0:0|0:0,0:0:0:0:
