osu file format v14

[General]
AudioFilename: audio.mp3
AudioLeadIn: 0
PreviewTime: 61444
Countdown: 0
SampleSet: Soft
StackLeniency: 0.7
Mode: 0
LetterboxInBreaks: 0
WidescreenStoryboard: 0

[Editor]
DistanceSpacing: 1.1
BeatDivisor: 4
GridSize: 4
TimelineZoom: 1.8

[Metadata]
Title:Endless Starlight ~Inochi no Kirameki~ (OP ver.)
TitleUnicode:Endless Starlight 〜命のキラメキ〜(OP ver.)
Artist:Kanae Asaba
ArtistUnicode:浅場佳苗
Creator:Monstrata
Version:Bronze
Source:リーグ・オブ・レジェンド
Tags:lol league of legends janna lux poppy lulu jinx star guardians theme song opening version guardian mahou shoujo magical girl riot games tencent japan japanese
BeatmapID:1102143
BeatmapSetID:518737

[Difficulty]
HPDrainRate:1
CircleSize:3
OverallDifficulty:1
ApproachRate:1
SliderMultiplier:0.5
SliderTickRate:1

[Events]
//Background and Video events
0,0,"plscarrymetochallenjour.jpg",0,0
Video,-357,"starguardians.avi"
//Break Periods
2,9185,9957
2,11837,12609
2,14489,15261
2,51416,54875
//Storyboard Layer 0 (Background)
//Storyboard Layer 1 (Fail)
//Storyboard Layer 2 (Pass)
//Storyboard Layer 3 (Foreground)
//Storyboard Sound Samples

[TimingPoints]
7660,331.491712707182,4,2,1,35,1,0
8985,-100,4,2,1,55,0,0
17936,-100,4,2,1,70,0,0
51416,-100,4,2,1,60,0,0
56555,-100,4,2,1,70,0,0
60698,-100,4,2,1,80,0,0
61527,-100,4,2,1,70,0,0
61858,-100,4,2,1,85,0,1
88378,-100,4,2,1,70,0,0
98985,-105.596620908131,4,2,1,70,0,0
102300,-100,4,2,1,15,0,0

[Colours]
Combo1 : 255,128,128
Combo2 : 155,155,206
Combo3 : 255,128,255
Combo4 : 128,255,255
Combo5 : 255,174,94
Combo6 : 113,113,255
Combo7 : 128,255,128
Combo8 : 197,138,255

[HitObjects]
208,141,8985,5,2,0:0:0:0:
307,144,11637,5,2,0:0:0:0:
304,243,14289,5,2,0:0:0:0:
204,239,16941,6,0,P|122:191|99:87,1,200,2|8,0:0|0:0,0:0:0:0:
289,77,19427,6,0,P|334:78|390:136,1,125,6|2,0:0|0:0,0:0:0:0:
384,214,20753,2,0,L|379:345,1,125,2|2,0:0|0:0,0:0:0:0:
307,380,22079,6,0,P|239:382|180:361,1,125,6|2,0:0|0:0,0:0:0:0:
122,311,23405,2,0,B|103:250|140:249|119:183,1,125,2|0,0:0|0:0,0:0:0:0:
49,146,24731,6,0,P|79:116|166:119,1,125,6|0,0:0|0:0,0:0:0:0:
219,168,26057,2,0,L|344:165,1,125,2|0,0:0|0:0,0:0:0:0:
377,89,27383,6,0,P|416:124|418:203,1,125,6|2,0:0|0:3,0:0:0:0:
360,248,28709,1,2,0:0:0:0:
152,321,30035,6,0,L|157:187,1,125,4|2,0:0|3:2,0:0:0:0:
89,148,31361,2,0,P|135:117|205:130,1,125,2|2,0:0|3:2,0:0:0:0:
237,201,32687,6,0,L|368:191,1,125,2|2,0:0|3:2,0:0:0:0:
406,260,34013,2,0,P|435:228|440:172,1,100,2|2,0:0|0:0,0:0:0:0:
356,101,35339,6,0,P|304:95|222:105,1,125,2|2,0:2|3:2,0:0:0:0:
150,90,36665,2,0,P|159:141|220:186,1,125,2|2,0:0|3:2,0:0:0:0:
295,198,37991,6,0,L|284:326,1,125,2|2,0:0|0:0,0:0:0:0:
363,344,39317,2,0,L|372:238,1,100,6|2,3:2|0:0,0:0:0:0:
355,138,40643,6,0,P|299:113|234:138,1,125,6|2,0:0|3:2,0:0:0:0:
212,209,41969,2,0,P|172:176|166:99,1,125,2|2,0:0|3:2,0:0:0:0:
225,51,43295,6,0,P|182:26|125:34,1,100,2|2,3:2|3:2,0:0:0:0:
34,77,44621,2,0,L|29:182,1,100,2|2,3:2|0:0,0:0:0:0:
25,286,45947,6,0,P|76:296|140:255,1,125,6|2,3:2|0:0,0:0:0:0:
196,203,47273,2,0,L|331:204,1,125,6|2,3:2|3:2,0:0:0:0:
388,156,48599,6,0,P|404:199|390:250,1,100,6|2,3:2|0:0,0:0:0:0:
303,317,49925,2,0,L|178:317,1,125,6|0,3:2|0:0,0:0:0:0:
95,146,56555,6,0,L|226:133,1,125,6|2,0:0|0:0,0:0:0:0:
255,59,57880,2,0,P|287:86|290:174,1,125,6|2,0:0|0:0,0:0:0:0:
240,226,59206,6,0,B|286:267|344:248|368:208|368:208|403:181|446:199,1,225,6|2,3:0|3:2,3:0:0:0:
326,352,61858,6,0,L|195:351,1,125,6|2,0:0|0:0,0:0:0:0:
119,366,63184,2,0,P|125:315|179:270,1,125,2|2,0:0|0:0,0:0:0:0:
261,278,64510,6,0,P|251:229|188:188,1,125,6|2,0:0|0:0,0:0:0:0:
109,180,65836,2,0,L|95:55,1,125,2|2,0:0|0:3,0:0:0:0:
171,25,67162,6,0,B|233:7|232:49|300:28,1,125,6|2,0:0|0:0,0:0:0:0:
372,5,68488,2,0,P|367:65|322:107,1,125,2|2,0:0|0:0,0:0:0:0:
243,131,69814,6,0,L|244:239,2,100,6|6|6,0:0|0:0|0:0,0:0:0:0:
165,98,71637,2,0,P|141:96|116:101,1,50,2|2,0:0|0:0,0:0:0:0:
58,159,72466,6,0,L|79:290,1,125,6|2,0:0|0:0,0:0:0:0:
49,359,73792,2,0,P|106:361|156:312,1,125,2|2,0:0|0:0,0:0:0:0:
202,250,75118,6,0,B|250:236|250:236|335:250,1,125,6|2,0:0|0:0,0:0:0:0:
381,307,76444,2,0,P|406:259|384:193,1,125,2|2,0:0|0:3,0:0:0:0:
310,159,77770,6,0,L|310:59,1,100,6|6,0:0|0:0,0:0:0:0:
200,45,79096,2,0,L|200:175,1,125,6|2,0:0|0:3,0:0:0:0:
269,215,80422,6,0,P|235:245|177:249,1,100,6|6,0:0|0:0,0:0:0:0:
82,203,81748,2,0,L|82:78,1,125,6|2,0:0|0:3,0:0:0:0:
153,37,83074,6,0,P|200:23|249:35,1,100,6|6,0:0|0:0,0:0:0:0:
291,135,84400,2,0,P|351:150|408:126,1,125,6|2,0:0|0:0,0:0:0:0:
454,57,85726,6,0,P|483:93|472:177,1,125,6|2,0:0|0:3,0:0:0:0:
411,217,87052,2,0,L|424:320,1,100,2|2,0:0|0:0,0:0:0:0:
316,284,88378,6,0,P|258:266|199:283,1,125,6|2,0:0|0:0,0:0:0:0:
145,345,89704,2,0,P|118:294|142:225,1,125,2|2,0:0|0:0,0:0:0:0:
197,177,91030,6,0,B|327:162,1,125,6|2,0:0|0:0,0:0:0:0:
330,53,92521,2,0,B|229:64,1,100,2|2,0:0|0:0,0:0:0:0:
156,26,93682,6,0,L|119:148,1,125,6|2,0:0|0:0,0:0:0:0:
45,179,95008,2,0,P|75:216|127:227,1,100,2|0,0:0|0:0,0:0:0:0:
218,169,96334,6,0,P|236:224|213:295,1,125,6|2,0:0|0:3,0:0:0:0:
280,342,97659,2,0,P|341:344|386:305,1,125,6|2,0:0|0:3,0:0:0:0:
376,225,98985,6,0,B|362:172|362:172|319:145|319:145|364:115|364:115|378:66|378:66|420:101|420:101|471:99|471:99|451:149|451:149|468:197|468:197|412:193,1,473.549995375488,4|0,0:0|0:0,0:0:0:0:
