osu file format v14

[General]
AudioFilename: audio.mp3
AudioLeadIn: 0
PreviewTime: 61531
Countdown: 0
SampleSet: Soft
StackLeniency: 0.4
Mode: 0
LetterboxInBreaks: 0
WidescreenStoryboard: 0

[Editor]
DistanceSpacing: 1.4
BeatDivisor: 4
GridSize: 4
TimelineZoom: 3.5

[Metadata]
Title:Endless Starlight ~Inochi no Kirameki~ (OP ver.)
TitleUnicode:Endless Starlight 〜命のキラメキ〜 (OP ver.)
Artist:Kanae Asaba
ArtistUnicode:浅場佳苗
Creator:Bearizm
Version:Star Guardian
Source:リーグ・オブ・レジェンド
Tags:LoL League of Legends Star Guardian Lux Janna Jinx Poppy Lulu Riot Games Tencent Mahou Shoujo Magical Girls handsome pishifat Lama Poluna
BeatmapID:1100327
BeatmapSetID:517894

[Difficulty]
HPDrainRate:6
CircleSize:4
OverallDifficulty:9
ApproachRate:9.2
SliderMultiplier:1.6
SliderTickRate:1

[Events]
//Background and Video events
0,0,"Background.jpg",0,0
Video,0,"video.flv"
//Break Periods
//Storyboard Layer 0 (Background)
//Storyboard Layer 1 (Fail)
//Storyboard Layer 2 (Pass)
//Storyboard Layer 3 (Foreground)
//Storyboard Sound Samples

[TimingPoints]
8990,331.491712707182,4,2,1,50,1,0
8990,-200,4,2,1,50,0,0
9072,-200,4,2,1,5,0,0
11641,-200,4,2,1,50,0,0
11724,-200,4,2,1,5,0,0
14293,-200,4,2,1,50,0,0
14376,-200,4,2,1,5,0,0
16614,-200,4,2,1,50,0,0
16945,-1000,4,2,1,50,0,0
17028,-1000,4,2,1,5,0,0
17940,-1000,4,2,1,50,0,0
18106,-100,4,2,1,70,0,0
19431,-100,4,2,1,90,0,1
28713,-100,4,2,1,90,0,0
29045,-133.333333333333,4,2,1,70,0,0
30039,-100,4,2,1,70,0,0
40315,-200,4,2,1,70,0,0
40398,-200,4,2,1,5,0,0
40647,-100,4,2,1,80,0,0
51420,-133.333333333333,4,2,1,70,0,0
55233,-100,4,2,1,70,0,0
56559,-100,4,2,1,80,0,0
61862,-90.9090909090909,4,2,1,90,0,1
72387,-90.9090909090909,4,2,1,90,0,0
72470,-90.9090909090909,4,2,1,90,0,1
77691,-90.9090909090909,4,2,1,90,0,0
77774,-90.9090909090909,4,2,1,90,0,1
80343,-90.9090909090909,4,2,1,90,0,0
80426,-90.9090909090909,4,2,1,90,0,1
82995,-90.9090909090909,4,2,1,90,0,0
83078,-90.9090909090909,4,2,1,90,0,1
85647,-90.9090909090909,4,2,1,90,0,0
85730,-90.9090909090909,4,2,1,90,0,1
88299,-90.9090909090909,4,2,1,90,0,0
88382,-100,4,2,1,90,0,1
88465,-100,4,2,1,90,0,0
97912,-100,4,2,1,5,0,0
97995,-100,4,2,1,90,0,0
98575,-100,4,2,1,5,0,0
98658,-100,4,2,1,90,0,0
98989,-181.818181818182,4,2,1,90,0,0
99072,-181.818181818182,4,2,1,5,0,0

[Colours]
Combo1 : 79,170,238
Combo2 : 250,69,65
Combo3 : 121,233,67
Combo4 : 252,97,182

[HitObjects]
294,288,8990,6,0,B|258:275|240:248|240:248|210:262|173:256|173:256|176:219|195:194|195:194|172:164|167:134|167:134|205:124|235:135|235:135|252:107|282:91|282:91|299:119|302:153|302:153|334:159|358:185|358:185|337:208|305:223|305:223|309:254|302:274,2,640,2|2|2,0:0|0:0|0:0,0:0:0:0:
256,192,14376,12,0,16614,0:0:0:0:
96,276,16945,6,0,L|144:268,1,48,2|0,0:0|0:0,0:0:0:0:
232,256,18106,5,0,3:0:0:0:
229,275,18188,1,0,3:0:0:0:
227,295,18271,1,4,1:2:0:0:
100,188,18437,1,8,0:0:0:0:
245,172,18603,1,8,0:0:0:0:
156,352,18769,1,0,1:0:0:0:
184,36,18934,5,8,0:0:0:0:
187,55,19016,1,0,0:0:0:0:
192,76,19100,1,8,0:0:0:0:
237,61,19182,1,0,0:0:0:0:
283,67,19265,1,0,1:0:0:0:
323,91,19348,1,0,0:0:0:0:
352,129,19431,6,0,L|516:112,1,160,12|8,0:0|0:0,0:0:0:0:
268,240,19929,2,0,L|184:232,1,80,0|0,1:0|0:0,0:0:0:0:
332,344,20260,1,8,0:0:0:0:
332,344,20426,1,8,0:0:0:0:
420,168,20592,1,0,1:0:0:0:
176,248,20757,6,0,B|156:204|156:204|176:92,1,160,8|8,0:0|0:0,0:0:0:0:
256,192,21255,1,0,1:0:0:0:
72,120,21420,1,0,0:0:0:0:
72,120,21503,1,0,0:0:0:0:
72,120,21586,1,8,0:0:0:0:
275,55,21752,1,8,0:0:0:0:
176,248,21918,1,0,1:0:0:0:
116,44,22083,6,0,L|280:56,1,160,12|8,0:0|0:0,0:0:0:0:
456,28,22581,2,0,P|472:68|472:108,1,80,0|0,1:0|0:0,0:0:0:0:
300,228,22912,2,0,P|301:188|316:151,1,80,8|8,0:0|0:0,0:0:0:0:
420,312,23244,1,0,1:0:0:0:
220,272,23409,6,0,B|144:248|140:300|64:272,1,160,8|8,0:0|0:0,0:0:0:0:
182,358,23907,1,0,1:0:0:0:
105,185,24072,2,0,P|97:145|109:105,1,80,0|8,0:0|0:0,0:0:0:0:
208,60,24404,1,8,0:0:0:0:
8,192,24570,1,0,1:0:0:0:
232,212,24735,6,0,B|192:204|192:204|152:212|152:212|112:204,1,120,12|0,0:0|0:0,0:0:0:0:
104,184,25067,1,8,0:0:0:0:
312,164,25233,2,0,P|324:204|316:248,1,80,0|0,1:0|0:0,0:0:0:0:
152,117,25564,1,8,0:0:0:0:
344,56,25730,1,8,0:0:0:0:
131,125,25896,1,0,1:0:0:0:
328,240,26061,6,0,P|333:200|321:162,1,80,8|0,0:0|0:0,0:0:0:0:
124,275,26393,2,0,P|155:299|194:307,1,80,8|0,0:0|1:0,0:0:0:0:
195,82,26724,2,0,P|158:97|131:126,1,80,0|8,0:0|0:0,0:0:0:0:
311,223,27056,6,0,P|312:203|307:184,1,40,8|0,0:0|0:0,0:0:0:0:
148,269,27222,2,0,P|164:279|183:285,1,40,0|0,1:0|0:0,0:0:0:0:
216,80,27387,6,0,L|52:92,1,160,12|8,0:0|0:0,0:0:0:0:
148,268,27885,2,0,P|140:228|148:191,1,80,0|0,1:0|0:0,0:0:0:0:
256,228,28216,5,8,0:0:0:0:
36,328,28382,1,8,0:0:0:0:
268,352,28548,5,2,1:2:0:0:
20,184,28713,1,10,0:0:0:0:
20,184,29045,6,0,B|6:156|12:124|12:124,2,60.0000022888184,2|2|0,0:0|0:0|0:0,0:0:0:0:
128,236,29542,1,0,0:0:0:0:
236,180,29708,1,10,0:0:0:0:
100,143,29873,1,0,1:0:0:0:
312,120,30039,6,0,B|332:172|332:172|312:276,1,160,12|8,0:0|0:0,0:0:0:0:
156,187,30536,2,0,L|236:179,1,80,0|0,1:0|0:0,0:0:0:0:
92,272,30868,1,8,0:0:0:0:
8,200,31034,2,0,P|0:160|8:120,1,80,8|0,0:0|1:0,0:0:0:0:
212,64,31365,6,0,L|196:224,1,160,8|8,0:0|0:0,0:0:0:0:
328,312,31862,2,0,L|320:232,1,80,0|0,1:0|0:0,0:0:0:0:
308,120,32194,1,0,0:0:0:0:
410,166,32360,1,8,0:0:0:0:
320,232,32525,1,0,1:0:0:0:
424,156,32691,6,0,P|432:116|424:76,1,80,0|8,0:0|0:0,0:0:0:0:
324,24,33023,1,0,0:0:0:0:
165,42,33188,2,0,L|324:23,1,160,0|8,1:0|0:0,0:0:0:0:
104,160,33686,2,0,L|24:152,1,80,8|0,0:0|1:0,0:0:0:0:
272,232,34017,6,0,B|292:176|292:176|268:76,1,160,8|8,0:0|0:0,0:0:0:0:
196,172,34514,1,0,1:0:0:0:
280,248,34680,2,0,L|360:240,1,80
472,224,35012,1,8,0:0:0:0:
432,328,35177,1,0,1:0:0:0:
316,144,35343,6,0,B|300:104|314:64|314:65,1,80,0|8,0:0|0:0,0:0:0:0:
420,101,35675,1,0,0:0:0:0:
360,248,35840,2,0,L|280:240,1,80,0|0,1:0|0:0,0:0:0:0:
168,228,36172,1,8,0:0:0:0:
214,330,36338,1,8,0:0:0:0:
280,240,36503,1,0,1:0:0:0:
160,108,36669,6,0,L|0:124,1,160,8|8,0:0|0:0,0:0:0:0:
152,264,37166,2,0,L|72:256,1,80,0|0,1:0|0:0,0:0:0:0:
244,196,37498,1,0,0:0:0:0:
256,308,37664,1,8,0:0:0:0:
140,152,37829,1,0,1:0:0:0:
336,132,37995,2,0,P|344:92|336:52,1,80,0|8,0:0|0:0,0:0:0:0:
232,92,38327,5,0,0:0:0:0:
424,148,38492,1,0,1:0:0:0:
244,196,38658,1,0,0:0:0:0:
336,56,38824,1,8,0:0:0:0:
332,36,38906,1,0,0:0:0:0:
328,16,38989,1,8,0:0:0:0:
368,220,39155,1,0,1:0:0:0:
328,16,39321,1,10,0:0:0:0:
328,16,39652,5,8,0:0:0:0:
332,36,39735,1,0,0:0:0:0:
336,56,39817,1,8,0:0:0:0:
368,220,39984,1,8,0:0:0:0:
512,80,40150,5,0,1:0:0:0:
208,176,40315,2,0,L|148:168,1,60,8|0,0:0|0:0,0:0:0:0:
288,141,40647,6,0,L|129:164,1,160,14|8,0:0|0:0,0:0:0:0:
184,36,41144,2,0,P|176:76|184:116,1,80,0|0,1:0|0:0,0:0:0:0:
392,180,41476,2,0,P|399:140|391:101,1,80,10|0,0:0|0:0,0:0:0:0:
288,141,41807,1,0,1:0:0:0:
448,276,41973,6,0,B|288:268,1,160,10|8,0:0|0:0,0:0:0:0:
94,225,42470,2,0,P|54:239|14:237,1,80,0|0,1:0|0:0,0:0:0:0:
172,124,42802,1,10,0:0:0:0:
280,188,42967,2,0,L|288:268,1,80,8|0,0:0|1:0,0:0:0:0:
44,160,43299,6,0,L|64:0,1,160,10|8,0:0|0:0,0:0:0:0:
172,124,43796,1,0,1:0:0:0:
43,176,43962,1,0,0:0:0:0:
224,228,44128,1,10,0:0:0:0:
84,92,44293,1,8,0:0:0:0:
140,284,44459,1,0,1:0:0:0:
264,80,44625,6,0,P|272:40|264:0,1,80,10|0,0:0|0:0,0:0:0:0:
176,172,44956,1,8,0:0:0:0:
284,244,45122,2,0,L|368:236,1,80,0|0,1:0|0:0,0:0:0:0:
476,224,45454,1,10,0:0:0:0:
411,133,45619,1,8,0:0:0:0:
364,236,45785,1,0,1:0:0:0:
208,52,45951,6,0,L|368:36,1,160,14|8,0:0|0:0,0:0:0:0:
136,180,46448,2,0,L|56:172,1,80,0|0,1:0|0:0,0:0:0:0:
116,96,46697,1,8,0:0:0:0:
96,97,46780,1,10,0:0:0:0:
192,272,46945,1,8,0:0:0:0:
284,92,47111,1,0,1:0:0:0:
20,192,47277,6,0,L|180:176,1,160,14|8,0:0|0:0,0:0:0:0:
364,272,47774,2,0,L|284:264,1,80,0|0,1:0|0:0,0:0:0:0:
344,184,48023,1,8,0:0:0:0:
324,186,48106,1,10,0:0:0:0:
428,360,48271,1,8,0:0:0:0:
508,176,48437,1,0,1:0:0:0:
220,286,48603,6,0,L|340:274,1,120,14|0,0:0|0:0,0:0:0:0:
364,272,48934,1,8,0:0:0:0:
136,196,49100,1,0,1:0:0:0:
376,132,49266,2,0,L|256:120,1,120,14|0,0:0|0:0,0:0:0:0:
232,116,49597,1,8,0:0:0:0:
460,44,49763,1,0,1:0:0:0:
220,286,49929,6,0,B|260:278|260:278|300:286|300:286|340:278,1,120,14|0,0:0|0:0,0:0:0:0:
360,270,50260,1,8,0:0:0:0:
260,378,50426,1,0,1:0:0:0:
232,116,50592,1,14,0:0:0:0:
232,116,50923,5,8,0:0:0:0:
296,188,51089,1,0,1:0:0:0:
332,100,51255,1,4,0:3:0:0:
268,28,51420,6,0,L|148:44,1,120.000004577637,12|2,3:1|0:3,0:0:0:0:
92,120,51918,1,0,3:0:0:0:
160,184,52083,2,0,P|168:212|168:244,1,60.0000022888184,2|0,1:3|0:0,0:0:0:0:
124,328,52415,1,2,0:3:0:0:
220,320,52581,6,0,L|280:316,1,60.0000022888184,0|8,3:0|0:1,0:0:0:0:
312,224,52912,2,0,L|252:228,1,60.0000022888184,0|2,3:0|0:3,0:0:0:0:
204,144,53244,2,0,L|264:140,1,60.0000022888184,0|2,3:0|1:3,0:0:0:0:
340,80,53575,1,0,0:0:0:0:
428,120,53741,2,0,P|440:148|444:180,1,60.0000022888184,2|0,0:3|3:0,0:0:0:0:
256,259,54072,6,0,L|264:135,1,120.000004577637,8|2,3:1|0:3,0:0:0:0:
192,76,54570,1,0,3:0:0:0:
32,156,54735,1,2,1:3:0:0:
28,136,55067,5,0,3:0:0:0:
256,216,55233,1,2,3:2:0:0:
252,235,55564,1,2,3:2:0:0:
248,255,55896,1,2,3:2:0:0:
256,216,56227,5,0,3:0:0:0:
252,235,56310,1,0,3:0:0:0:
248,255,56393,1,0,1:0:0:0:
104,156,56559,6,0,L|120:316,1,160,12|8,0:0|0:0,0:0:0:0:
256,216,57056,1,0,1:0:0:0:
103,137,57222,1,0,0:0:0:0:
104,156,57304,1,0,0:0:0:0:
106,176,57387,1,8,0:0:0:0:
352,88,57553,1,8,0:0:0:0:
96,36,57719,1,0,1:0:0:0:
268,232,57885,6,0,L|428:216,1,160,12|8,0:0|0:0,0:0:0:0:
352,88,58382,1,0,1:0:0:0:
340,268,58548,1,0,0:0:0:0:
338,287,58630,1,0,0:0:0:0:
336,307,58713,1,8,0:0:0:0:
106,176,58879,1,8,0:0:0:0:
352,88,59045,1,0,1:0:0:0:
192,316,59210,2,0,L|72:304,1,120,12|0,0:0|0:0,0:0:0:0:
48,300,59542,5,8,0:0:0:0:
320,228,59708,1,0,1:0:0:0:
20,180,59873,5,8,0:0:0:0:
344,232,60039,1,0,1:0:0:0:
88,80,60205,5,8,0:0:0:0:
368,236,60371,1,0,1:0:0:0:
68,188,60536,1,0,0:0:0:0:
44,184,60619,1,0,0:0:0:0:
20,180,60702,5,10,0:0:0:0:
37,298,60868,1,0,0:0:0:0:
157,321,61034,1,2,0:0:0:0:
211,213,61199,1,2,0:0:0:0:
211,213,61531,6,0,L|208:192,6,20,0|0|0|0|2|0|2,0:0|0:0|0:0|0:0|0:0|0:0|0:0,0:0:0:0:
252,128,61862,6,0,L|240:304,1,176.000005371094,12|8,0:0|0:0,0:0:0:0:
460,300,62360,2,0,P|472:256|464:212,1,88.000002685547,0|0,1:0|0:0,0:0:0:0:
339,120,62691,2,0,L|251:128,1,88.000002685547,8|8,0:0|0:0,0:0:0:0:
111,141,63023,1,0,1:0:0:0:
355,197,63188,6,0,B|375:141|375:141|347:25,1,176.000005371094,8|8,0:0|0:0,0:0:0:0:
204,144,63686,2,0,L|292:136,1,88.000002685547,0|0,1:0|0:0,0:0:0:0:
116,68,64017,1,8,0:0:0:0:
224,244,64183,1,8,0:0:0:0:
264,20,64349,1,0,1:0:0:0:
138,252,64514,6,0,L|317:235,1,176.000005371094,12|8,0:0|0:0,0:0:0:0:
87,120,65012,2,0,L|-1:112,1,88.000002685547,0|0,1:0|0:0,0:0:0:0:
176,32,65343,1,8,0:0:0:0:
244,200,65509,1,8,0:0:0:0:
87,120,65675,1,0,1:0:0:0:
332,64,65840,2,0,P|348:104|344:148,1,88.000002685547,8|0,0:0|0:0,0:0:0:0:
87,120,66172,5,8,0:0:0:0:
332,64,66338,1,0,1:0:0:0:
167,253,66503,1,0,0:0:0:0:
190,3,66669,1,8,0:0:0:0:
320,219,66835,1,8,0:0:0:0:
87,120,67001,1,0,1:0:0:0:
408,44,67166,6,0,B|432:96|432:96|416:216,1,176.000005371094,12|8,0:0|0:0,0:0:0:0:
392,352,67664,1,0,1:0:0:0:
260,300,67829,1,0,0:0:0:0:
488,244,67995,1,8,0:0:0:0:
308,176,68161,1,8,0:0:0:0:
400,368,68327,1,0,1:0:0:0:
480,96,68492,6,0,B|421:85|421:85|362:96|362:96|304:85,1,176.000005371094,8|8,0:0|0:0,0:0:0:0:
96,192,68989,2,0,L|184:180,1,88.000002685547,0|0,1:0|0:0,0:0:0:0:
34,72,69321,1,8,0:0:0:0:
183,180,69487,1,8,0:0:0:0:
256,8,69652,1,0,1:0:0:0:
403,199,69818,6,0,L|271:187,1,132.00000402832,12|0,0:0|0:0,0:0:0:0:
183,180,70150,1,8,0:0:0:0:
256,8,70315,1,0,1:0:0:0:
108,286,70481,6,0,L|240:274,1,132.00000402832,12|0,0:0|0:0,0:0:0:0:
328,267,70813,1,8,0:0:0:0:
256,8,70978,1,0,1:0:0:0:
404,374,71144,6,0,L|272:362,1,132.00000402832,12|0,0:0|0:0,0:0:0:0:
184,355,71476,1,8,0:0:0:0:
104,44,71641,5,0,1:0:0:0:
180,344,71807,1,8,0:0:0:0:
256,8,71973,5,0,1:0:0:0:
256,296,72139,1,8,0:0:0:0:
408,44,72304,5,0,1:0:0:0:
332,344,72470,2,0,L|156:332,1,176.000005371094,12|8,0:0|0:0,0:0:0:0:
36,240,72967,2,0,P|28:196|44:148,1,88.000002685547,0|0,1:0|0:0,0:0:0:0:
220,104,73299,1,8,0:0:0:0:
116,201,73465,1,8,0:0:0:0:
56,40,73630,1,0,1:0:0:0:
244,228,73796,6,0,B|303:217|303:217|362:228|362:228|420:217,1,176.000005371094,8|8,0:0|0:0,0:0:0:0:
165,182,74293,2,0,P|153:226|161:266,1,88.000002685547,0|0,1:0|0:0,0:0:0:0:
352,352,74625,2,0,P|360:309|348:267,1,88.000002685547,8|8,0:0|0:0,0:0:0:0:
200,344,74956,1,0,1:0:0:0:
56,124,75122,6,0,L|232:140,1,176.000005371094,12|8,0:0|0:0,0:0:0:0:
364,92,75619,2,0,P|376:48|368:4,1,88.000002685547,0|0,1:0|0:0,0:0:0:0:
220,160,75951,2,0,P|213:203|225:245,1,88.000002685547,8|8,0:0|0:0,0:0:0:0:
320,196,76282,1,0,1:0:0:0:
512,176,76448,6,0,L|337:194,1,176.000005371094,8|8,0:0|0:0,0:0:0:0:
136,108,76945,2,0,P|176:94|224:98,1,88.000002685547,0|0,1:0|0:0,0:0:0:0:
252,316,77277,2,0,P|212:330|164:326,1,88.000002685547,8|8,0:0|0:0,0:0:0:0:
192,212,77608,1,0,1:0:0:0:
352,325,77774,6,0,L|336:193,1,132.00000402832,12|0,0:0|0:0,0:0:0:0:
321,106,78106,1,8,0:0:0:0:
176,216,78271,1,0,1:0:0:0:
428,60,78437,6,0,L|412:192,1,132.00000402832,12|0,0:0|0:0,0:0:0:0:
397,279,78769,1,8,0:0:0:0:
160,220,78934,1,0,1:0:0:0:
508,324,79100,6,0,L|492:192,1,132.00000402832,12|0,0:0|0:0,0:0:0:0:
477,105,79432,1,8,0:0:0:0:
144,224,79597,5,0,1:0:0:0:
406,283,79763,1,8,0:0:0:0:
216,71,79929,1,8,1:0:0:0:
246,356,80094,1,8,0:0:0:0:
388,109,80260,1,0,1:0:0:0:
128,228,80426,6,0,L|40:216,1,88.000002685547,12|0,0:0|0:0,0:0:0:0:
220,56,80757,1,8,0:0:0:0:
336,264,80923,1,0,1:0:0:0:
116,232,81089,6,0,L|28:220,1,88.000002685547,12|0,0:0|0:0,0:0:0:0:
224,41,81420,1,8,0:0:0:0:
324,268,81586,1,0,1:0:0:0:
100,236,81752,6,0,L|12:224,1,88.000002685547,12|0,0:0|0:0,0:0:0:0:
228,28,82083,1,8,0:0:0:0:
408,293,82249,1,0,1:0:0:0:
111,197,82415,1,8,0:0:0:0:
409,100,82581,1,8,1:0:0:0:
225,354,82746,1,8,0:0:0:0:
232,16,82912,1,0,1:0:0:0:
424,312,83078,6,0,L|292:300,1,132.00000402832,12|0,0:0|0:0,0:0:0:0:
228,248,83409,2,0,P|224:204|240:160,1,88.000002685547,8|0,0:0|1:0,0:0:0:0:
460,32,83741,6,0,L|448:164,1,132.00000402832,12|0,0:0|0:0,0:0:0:0:
396,228,84072,2,0,P|352:232|308:216,1,88.000002685547,8|0,0:0|1:0,0:0:0:0:
176,0,84404,6,0,L|308:12,1,132.00000402832,12|0,0:0|0:0,0:0:0:0:
372,64,84735,2,0,P|376:108|360:152,1,88.000002685547,8|0,0:0|1:0,0:0:0:0:
228,248,85067,5,0,0:0:0:0:
468,192,85233,1,8,0:0:0:0:
192,116,85398,1,8,0:0:0:0:
292,361,85564,1,0,1:0:0:0:
384,44,85730,6,0,B|340:36|340:36|296:44|296:44|248:36,1,132.00000402832,12|0,0:0|0:0,0:0:0:0:
168,12,86061,1,8,0:0:0:0:
80,356,86227,5,0,1:0:0:0:
40,28,86393,1,8,0:0:0:0:
176,340,86559,5,0,1:0:0:0:
168,12,86724,1,8,0:0:0:0:
272,360,86890,5,0,1:0:0:0:
288,30,87056,1,8,0:0:0:0:
0,272,87222,5,0,1:0:0:0:
352,152,87387,1,8,0:0:0:0:
4,96,87553,5,0,1:0:0:0:
332,280,87719,1,8,0:0:0:0:
0,272,87885,6,0,L|43:252,1,44.0000013427735,8|8,0:0|0:0,0:0:0:0:
428,76,88050,1,8,0:0:0:0:
453,121,88132,1,0,1:0:0:0:
455,171,88215,1,0,1:0:0:0:
436,220,88298,1,8,0:0:0:0:
352,152,88382,6,0,B|298:142|298:142|245:152|245:152|193:142,1,160,12|8,0:0|0:0,0:0:0:0:
88,184,88879,2,0,P|72:220|72:264,1,80,0|0,1:0|0:0,0:0:0:0:
208,248,89210,1,8,0:0:0:0:
208,248,89376,1,8,0:0:0:0:
112,88,89542,1,0,1:0:0:0:
144,296,89708,6,0,L|304:284,1,160,8|8,0:0|0:0,0:0:0:0:
440,276,90205,1,0,1:0:0:0:
248,212,90371,1,0,0:0:0:0:
248,212,90454,1,0,0:0:0:0:
248,212,90536,1,8,0:0:0:0:
436,148,90702,1,8,0:0:0:0:
376,352,90868,1,0,1:0:0:0:
276,132,91034,6,0,L|436:148,1,160,12|8,0:0|0:0,0:0:0:0:
208,20,91531,2,0,L|128:32,1,80,0|0,1:0|0:0,0:0:0:0:
16,120,91862,2,0,P|10:159|20:200,1,80,10|8,0:0|0:0,0:0:0:0:
156,152,92194,1,0,1:0:0:0:
316,168,92360,6,0,L|156:152,1,160,8|8,0:0|0:0,0:0:0:0:
400,92,92857,1,0,1:0:0:0:
504,164,93023,2,0,P|516:204|512:244,1,80,0|10,0:0|0:0,0:0:0:0:
420,304,93354,1,8,0:0:0:0:
316,168,93520,1,0,1:0:0:0:
168,320,93686,6,0,L|328:308,1,160,14|8,0:0|0:0,0:0:0:0:
96,188,94183,2,0,P|88:228|96:268,1,80,0|0,1:0|0:0,0:0:0:0:
252,224,94514,1,8,0:0:0:0:
108,176,94680,1,8,0:0:0:0:
168,320,94846,1,0,1:0:0:0:
314,155,95012,6,0,P|322:115|314:75,1,80,8|0,0:0|0:0,0:0:0:0:
126,199,95343,2,0,P|156:225|195:239,1,80,8|0,0:0|1:0,0:0:0:0:
182,15,95675,2,0,P|143:28|112:54,1,80,0|8,0:0|0:0,0:0:0:0:
302,139,96006,6,0,P|304:119|302:99,1,40,8|0,0:0|0:0,0:0:0:0:
150,195,96172,2,0,P|166:206|184:215,1,40,0|0,1:0|0:0,0:0:0:0:
206,15,96338,6,0,L|46:27,1,160,12|8,0:0|0:0,0:0:0:0:
302,139,96835,2,0,L|382:147,1,80,0|0,1:0|0:0,0:0:0:0:
494,163,97166,1,8,0:0:0:0:
333,226,97332,1,8,0:0:0:0:
448,64,97498,1,0,1:0:0:0:
482,256,97664,6,0,L|362:248,1,120,10|0,0:0|0:0,0:0:0:0:
333,226,97995,2,0,P|344:265|342:305,1,80,10|0,0:0|1:0,0:0:0:0:
30,256,98327,6,0,L|150:248,1,120,10|0,0:0|0:0,0:0:0:0:
179,226,98658,2,0,P|168:265|170:305,1,80,10|0,0:0|1:0,0:0:0:0:
340,313,98989,6,0,B|292:308|256:280|256:280|220:308|169:314|169:314|162:264|178:225|178:225|132:196|118:154|118:154|164:128|208:132|208:132|220:88|256:56|256:56|292:88|302:132|302:132|348:128|388:154|388:154|368:196|332:224|332:224|352:264|346:292,1,880.00002685547,12|0,0:0|0:0,0:0:0:0:
