osu file format v14

[General]
AudioFilename: audio.mp3
AudioLeadIn: 0
PreviewTime: 61531
Countdown: 0
SampleSet: Soft
StackLeniency: 0.4
Mode: 0
LetterboxInBreaks: 0
WidescreenStoryboard: 1

[Editor]
DistanceSpacing: 0.8
BeatDivisor: 2
GridSize: 4
TimelineZoom: 1.100001

[Metadata]
Title:Endless Starlight ~Inochi no Kirameki~ (OP ver.)
TitleUnicode:Endless Starlight 〜命のキラメキ〜 (OP ver.)
Artist:Kanae Asaba
ArtistUnicode:浅場佳苗
Creator:Bearizm
Version:Silver
Source:リーグ・オブ・レジェンド
Tags:LoL League of Legends Star Guardian Lux Janna Jinx Poppy Lulu Riot Games Tencent Mahou Shoujo Magical Girls handsome pishifat Lama Poluna
BeatmapID:1110563
BeatmapSetID:517894

[Difficulty]
HPDrainRate:4
CircleSize:3.5
OverallDifficulty:4
ApproachRate:5.5
SliderMultiplier:1.2
SliderTickRate:1

[Events]
//Background and Video events
0,0,"Background.jpg",0,0
Video,0,"video.flv"
//Break Periods
//Storyboard Layer 0 (Background)
//Storyboard Layer 1 (Fail)
//Storyboard Layer 2 (Pass)
//Storyboard Layer 3 (Foreground)
//Storyboard Sound Samples

[TimingPoints]
8990,331.491712707182,4,2,1,50,1,0
8990,-133.333333333333,4,2,1,50,0,0
18106,-100,4,2,1,70,0,0
19431,-100,4,2,1,90,0,1
28713,-100,4,2,1,90,0,0
29045,-100,4,2,1,70,0,0
40647,-100,4,2,1,80,0,0
51420,-100,4,2,1,70,0,0
56559,-100,4,2,1,80,0,0
60702,-100,4,2,1,60,0,0
61862,-100,4,2,1,90,0,1
72387,-100,4,2,1,90,0,0
72470,-100,4,2,1,90,0,1
77691,-100,4,2,1,90,0,0
77774,-100,4,2,1,90,0,1
80343,-100,4,2,1,90,0,0
80426,-100,4,2,1,90,0,1
82995,-100,4,2,1,90,0,0
83078,-100,4,2,1,90,0,1
85647,-100,4,2,1,90,0,0
85730,-100,4,2,1,90,0,1
88299,-100,4,2,1,90,0,0
88382,-100,4,2,1,90,0,1
88465,-100,4,2,1,90,0,0
99155,-100,4,2,1,5,0,0

[Colours]
Combo1 : 79,170,238
Combo2 : 250,69,65
Combo3 : 121,233,67
Combo4 : 252,97,182

[HitObjects]
202,294,8990,6,0,B|241:283|264:257|264:257|296:277|339:276|339:276|340:234|323:204|323:204|354:174|363:141|363:141|322:126|289:132|289:132|273:98|243:76|243:76|219:105|212:141|212:141|174:143|145:168|145:168|165:198|196:220|196:220|189:253|192:277,2,720.000027465821,2|2|2,0:0|0:0|0:0,0:0:0:0:
256,192,14459,12,2,16945,0:0:0:0:
60,152,18271,6,0,L|180:140,1,120,4|8,1:2|0:0,0:0:0:0:
227,137,18769,2,0,B|241:185|241:185|226:254,1,120,0|8,1:0|0:0,0:0:0:0:
188,284,19266,1,0,1:0:0:0:
188,284,19431,6,0,L|308:296,1,120,12|8,0:0|0:0,0:0:0:0:
356,300,19929,1,0,1:0:0:0:
412,220,20260,2,0,L|472:216,2,60,8|8|0,0:0|0:0|1:0,0:0:0:0:
372,192,20757,2,0,B|386:150|386:150|371:76,1,120,8|8,0:0|0:0,0:0:0:0:
359,28,21255,1,0,1:0:0:0:
272,68,21586,2,0,L|208:60,1,60,8|8,0:0|0:0,0:0:0:0:
172,36,21918,1,0,1:0:0:0:
172,36,22083,6,0,L|184:156,1,120,12|8,0:0|0:0,0:0:0:0:
189,203,22581,1,0,1:0:0:0:
252,276,22912,2,0,L|244:336,2,60,8|8|0,0:0|0:0|1:0,0:0:0:0:
292,248,23409,2,0,P|328:244|396:288,1,120,8|8,0:0|0:0,0:0:0:0:
444,300,23907,1,0,1:0:0:0:
444,300,24072,2,0,B|464:260|464:260|448:184,1,120,0|8,0:0|0:0,0:0:0:0:
432,140,24570,1,0,1:0:0:0:
432,140,24735,6,0,L|312:132,1,120,12|8,0:0|0:0,0:0:0:0:
264,128,25233,1,0,1:0:0:0:
192,192,25564,2,0,P|200:220|200:252,2,60,8|8|0,0:0|0:0|1:0,0:0:0:0:
148,176,26061,2,0,L|28:184,2,120,10|10|2,0:0|0:0|0:0,0:0:0:0:
224,116,27056,2,0,L|284:124,1,60,8|0,0:0|1:0,0:0:0:0:
332,136,27387,6,0,B|352:184|352:184|336:252|336:256,1,120,12|8,0:0|0:0,0:0:0:0:
324,296,27885,1,0,1:0:0:0:
232,272,28216,2,0,L|172:280,1,60,8|8,0:0|0:0,0:0:0:0:
125,288,28548,1,2,1:2:0:0:
125,288,28713,1,10,0:0:0:0:
125,288,30039,6,0,L|116:168,1,120,12|8,0:0|0:0,0:0:0:0:
148,132,30536,2,0,P|204:112|264:128,1,120,0|8,1:0|0:0,0:0:0:0:
296,160,31034,2,0,L|292:220,1,60,8|0,0:0|1:0,0:0:0:0:
260,256,31365,2,0,L|384:248,1,120,8|8,0:0|0:0,0:0:0:0:
428,244,31862,1,0,1:0:0:0:
472,160,32194,2,0,P|480:132|480:96,2,60,0|8|0,0:0|0:0|1:0,0:0:0:0:
424,156,32691,6,0,L|304:148,1,120,0|0,0:0|0:0,0:0:0:0:
256,144,33188,1,0,1:0:0:0:
184,208,33520,2,0,L|124:216,2,60,8|8|0,0:0|0:0|1:0,0:0:0:0:
224,236,34017,2,0,L|212:360,1,120,8|8,0:0|0:0,0:0:0:0:
304,384,34680,2,0,L|315:264,1,120,0|8,0:0|0:0,0:0:0:0:
352,232,35177,1,0,1:0:0:0:
352,232,35343,6,0,P|408:248|465:230,1,120,0|0,0:0|0:0,0:0:0:0:
504,204,35840,1,0,1:0:0:0:
468,116,36172,2,0,L|348:100,1,120,8|0,0:0|1:0,0:0:0:0:
316,136,36669,2,0,L|196:144,1,120,8|8,0:0|0:0,0:0:0:0:
148,148,37166,1,0,1:0:0:0:
104,236,37498,2,0,P|100:268|104:296,1,60,0|8,0:0|0:0,0:0:0:0:
140,328,37829,1,0,1:0:0:0:
140,328,37995,6,0,L|260:320,1,120,0|0,0:0|0:0,0:0:0:0:
300,348,38492,1,0,1:0:0:0:
300,348,38658,2,0,P|292:264|292:224,1,120,0|8,0:0|0:0,0:0:0:0:
324,192,39155,1,0,1:0:0:0:
324,192,39321,2,0,P|264:204|212:180,1,120,10|8,0:0|0:0,0:0:0:0:
184,140,39818,2,0,P|189:111|194:78,1,60,8|8,0:0|0:0,0:0:0:0:
176,36,40150,1,0,1:0:0:0:
176,36,40315,1,8,0:0:0:0:
80,48,40647,6,0,L|88:168,1,120,14|8,0:0|0:0,0:0:0:0:
92,216,41144,1,0,1:0:0:0:
180,176,41476,2,0,P|240:168|296:200,1,120,10|0,0:0|1:0,0:0:0:0:
324,232,41973,2,0,L|340:112,1,120,10|8,0:0|0:0,0:0:0:0:
348,64,42470,1,0,1:0:0:0:
444,60,42802,2,0,P|460:88|472:120,1,60,10|8,0:0|0:0,0:0:0:0:
448,156,43133,1,0,1:0:0:0:
448,156,43299,6,0,P|437:246|436:280,1,120,10|8,0:0|0:0,0:0:0:0:
466,312,43796,1,0,1:0:0:0:
466,312,43962,2,0,P|413:295|345:289,1,120,0|8,0:0|0:0,0:0:0:0:
312,320,44459,1,0,1:0:0:0:
312,320,44625,2,0,P|260:348|200:336,1,120,10|8,0:0|0:0,0:0:0:0:
156,252,45288,2,0,L|176:132,1,120,2|8,0:0|0:0,0:0:0:0:
156,88,45785,1,0,1:0:0:0:
156,88,45951,6,0,P|212:100|268:72,1,120,14|8,0:0|0:0,0:0:0:0:
296,36,46448,1,0,1:0:0:0:
388,64,46780,2,0,P|392:128|400:184,1,120,10|0,0:0|1:0,0:0:0:0:
420,228,47277,2,0,P|336:220|300:240,1,120,14|8,0:0|0:0,0:0:0:0:
276,272,47774,1,0,1:0:0:0:
180,256,48106,2,0,L|56:244,1,120,10|0,0:0|1:0,0:0:0:0:
28,212,48603,6,0,P|17:150|41:100,1,120,14|8,0:0|0:0,0:0:0:0:
84,120,49100,1,0,1:0:0:0:
84,120,49266,2,0,B|132:132|132:132|208:120,1,120,14|8,0:0|0:0,0:0:0:0:
232,84,49763,1,0,1:0:0:0:
232,84,49929,2,0,P|231:139|224:204,1,120,14|8,0:0|0:0,0:0:0:0:
192,240,50426,1,0,1:0:0:0:
192,240,50592,2,0,P|264:228|328:304,1,180,14|0,0:0|1:0,0:0:0:0:
272,380,51420,6,0,L|92:368,1,180,12|0,3:1|3:0,0:0:0:0:
52,340,52083,2,0,P|40:280|60:224,1,120,2|2,1:3|0:3,0:0:0:0:
108,220,52581,2,0,B|120:180|120:180|108:100,2,120,0|0|0,3:0|3:0|3:0,0:0:0:0:
156,216,53409,2,0,L|276:204,1,120,2|2,1:3|0:3,0:0:0:0:
360,160,54072,6,0,B|372:200|372:200|360:280,1,120,8|2,3:1|0:3,0:0:0:0:
275,321,54735,2,0,B|263:281|263:281|275:201,1,120,2|0,1:3|3:0,0:0:0:0:
226,207,55233,2,0,L|106:219,1,120,2|2,3:2|3:2,0:0:0:0:
56,136,55896,2,0,L|176:124,1,120,2|0,3:2|3:0,0:0:0:0:
213,92,56393,1,0,1:0:0:0:
213,92,56559,6,0,B|233:132|233:132|225:208,1,120,12|8,0:0|0:0,0:0:0:0:
220,256,57056,1,0,1:0:0:0:
304,304,57387,2,0,P|312:332|316:364,2,60,8|8|0,0:0|0:0|1:0,0:0:0:0:
340,272,57885,2,0,P|384:260|448:292,1,120,12|8,0:0|0:0,0:0:0:0:
476,252,58382,2,0,P|484:220|484:192,1,60,0|0,1:0|0:0,0:0:0:0:
452,156,58713,2,0,L|456:96,2,60,8|8|0,0:0|0:0|1:0,0:0:0:0:
404,168,59210,6,0,P|344:168|276:160,1,120,12|8,0:0|0:0,0:0:0:0:
240,176,59708,2,0,P|228:204|224:240,1,60,0|8,1:0|0:0,0:0:0:0:
248,272,60039,2,0,P|260:300|264:336,1,60,0|8,1:0|0:0,0:0:0:0:
256,376,60371,2,0,L|376:364,1,120,0|10,1:0|0:0,0:0:0:0:
375,364,61531,2,0,L|384:304,1,60,0|2,0:0|0:0,0:0:0:0:
420,272,61862,6,0,L|408:152,1,120,12|8,0:0|0:0,0:0:0:0:
400,104,62360,1,0,1:0:0:0:
312,144,62691,2,0,P|280:152|244:156,1,60,8|8,0:0|0:0,0:0:0:0:
212,128,63023,1,0,1:0:0:0:
212,128,63188,2,0,P|164:124|112:180,1,120,8|8,0:0|0:0,0:0:0:0:
100,216,63686,1,0,1:0:0:0:
164,284,64017,2,0,P|224:272|284:268,1,120,8|0,0:0|1:0,0:0:0:0:
324,296,64514,6,0,B|352:232|352:232|328:120,1,180,12|0,0:0|1:0,0:0:0:0:
412,76,65343,2,0,P|440:92|464:116,1,60,8|8,0:0|0:0,0:0:0:0:
464,160,65675,1,0,1:0:0:0:
464,160,65840,2,0,L|448:284,1,120,8|8,0:0|0:0,0:0:0:0:
444,328,66338,1,0,1:0:0:0:
348,316,66669,2,0,L|288:308,1,60,8|8,0:0|0:0,0:0:0:0:
244,328,67001,1,0,1:0:0:0:
244,328,67166,6,0,B|228:280|228:280|240:208,1,120,12|8,0:0|0:0,0:0:0:0:
252,164,67664,1,0,1:0:0:0:
180,100,67995,2,0,P|180:72|176:40,2,60,8|8|0,0:0|0:0|1:0,0:0:0:0:
140,128,68492,2,0,P|132:184|128:248,1,120,8|8,0:0|0:0,0:0:0:0:
128,296,68989,1,0,1:0:0:0:
212,340,69321,2,0,P|248:332|276:332,1,60,8|8,0:0|0:0,0:0:0:0:
316,344,69652,1,0,1:0:0:0:
316,344,69818,6,0,P|312:284|312:224,1,120,12|8,0:0|0:0,0:0:0:0:
316,176,70315,1,0,1:0:0:0:
316,176,70481,2,0,P|256:180|196:180,1,120,12|8,0:0|0:0,0:0:0:0:
160,212,70978,1,0,1:0:0:0:
160,212,71144,2,0,P|164:272|164:332,1,120,12|8,0:0|0:0,0:0:0:0:
124,360,71641,2,0,L|64:356,1,60,0|8,1:0|0:0,0:0:0:0:
36,316,71973,2,0,P|46:281|49:256,1,60,0|8,1:0|0:0,0:0:0:0:
32,212,72304,1,0,1:0:0:0:
32,212,72470,6,0,L|28:88,1,120,12|8,0:0|0:0,0:0:0:0:
24,44,72967,1,0,1:0:0:0:
112,84,73299,2,0,P|167:103|225:90,1,120,8|0,0:0|1:0,0:0:0:0:
260,56,73796,2,0,L|252:180,1,120,8|8,0:0|0:0,0:0:0:0:
248,224,74293,1,0,1:0:0:0:
320,288,74625,2,0,B|358:292|358:292|396:287|396:287|438:292,1,120,8|0,0:0|1:0,0:0:0:0:
468,332,75122,6,0,L|452:148,1,180,12|0,0:0|1:0,0:0:0:0:
368,104,75951,2,0,P|332:112|308:116,1,60,8|8,0:0|0:0,0:0:0:0:
268,92,76282,1,0,1:0:0:0:
268,92,76448,2,0,P|228:88|168:140,1,120,8|8,0:0|0:0,0:0:0:0:
160,184,76945,2,0,L|180:308,1,120,0|8,1:0|0:0,0:0:0:0:
224,320,77443,2,0,P|256:312|288:312,1,60,8|0,0:0|1:0,0:0:0:0:
324,336,77774,6,0,L|444:348,1,120,12|8,0:0|0:0,0:0:0:0:
437,300,78271,1,0,1:0:0:0:
437,300,78437,2,0,L|421:176,1,120,12|8,0:0|0:0,0:0:0:0:
444,140,78934,1,0,1:0:0:0:
444,140,79100,2,0,P|388:152|336:116,1,120,12|8,0:0|0:0,0:0:0:0:
320,76,79597,1,0,1:0:0:0:
228,104,79929,2,0,P|192:116|164:120,1,60,8|8,1:0|0:0,0:0:0:0:
124,104,80260,1,0,1:0:0:0:
124,104,80426,6,0,P|120:168|112:228,1,120,12|8,0:0|0:0,0:0:0:0:
85,263,80923,1,0,1:0:0:0:
85,263,81089,2,0,P|145:263|197:323,1,120,12|8,0:0|0:0,0:0:0:0:
236,297,81586,1,0,1:0:0:0:
236,297,81752,2,0,L|356:285,1,120,12|8,0:0|0:0,0:0:0:0:
402,278,82249,1,0,1:0:0:0:
452,196,82581,2,0,P|452:164|444:136,1,60,8|8,1:0|0:0,0:0:0:0:
412,100,82912,1,0,1:0:0:0:
412,100,83078,6,0,L|291:111,1,120,12|8,0:0|0:0,0:0:0:0:
250,87,83575,1,0,1:0:0:0:
250,87,83741,2,0,B|264:133|264:133|252:212,1,120,12|8,0:0|0:0,0:0:0:0:
208,188,84238,1,0,1:0:0:0:
208,188,84404,2,0,P|148:184|92:284,1,180,12|0,0:0|1:0,0:0:0:0:
116,316,85067,1,0,0:0:0:0:
116,316,85233,2,0,P|192:312|244:312,1,120,8|0,0:0|1:0,0:0:0:0:
284,312,85730,1,12,0:0:0:0:
376,288,86061,6,0,P|380:320|376:348,2,60,8|0|8,0:0|1:0|0:0,0:0:0:0:
364,240,86559,2,0,P|360:208|364:180,1,60,0|8,1:0|0:0,0:0:0:0:
372,132,86890,1,0,1:0:0:0:
372,132,87056,2,0,L|252:124,1,120,8|8,0:0|0:0,0:0:0:0:
216,92,87553,1,0,1:0:0:0:
216,92,87719,2,0,P|224:60|228:28,2,60,8|0|8,0:0|1:0|0:0,0:0:0:0:
168,84,88216,1,0,1:0:0:0:
168,84,88382,6,0,P|109:81|62:119,1,120,12|8,0:0|0:0,0:0:0:0:
44,160,88879,1,0,1:0:0:0:
88,248,89210,2,0,L|152:240,1,60,8|8,0:0|0:0,0:0:0:0:
180,204,89542,1,0,1:0:0:0:
180,204,89708,2,0,L|308:216,1,120,8|8,0:0|0:0,0:0:0:0:
348,220,90205,1,0,1:0:0:0:
444,228,90536,2,0,P|448:192|448:164,1,60,8|8,0:0|0:0,0:0:0:0:
440,120,90868,1,0,1:0:0:0:
440,120,91034,6,0,L|316:108,1,120,12|8,0:0|0:0,0:0:0:0:
272,104,91531,1,0,1:0:0:0:
188,148,91862,2,0,P|168:204|180:268,1,120,10|0,0:0|1:0,0:0:0:0:
216,292,92360,2,0,L|340:284,1,120,8|8,0:0|0:0,0:0:0:0:
380,304,92857,1,0,1:0:0:0:
380,304,93023,2,0,P|364:240|356:172,1,120,0|8,0:0|0:0,0:0:0:0:
388,148,93520,1,0,1:0:0:0:
388,148,93686,6,0,P|324:156|276:120,1,120,14|8,0:0|0:0,0:0:0:0:
256,84,94183,1,0,1:0:0:0:
160,88,94514,2,0,L|100:92,1,60,8|8,0:0|0:0,0:0:0:0:
60,64,94846,1,0,1:0:0:0:
60,64,95012,2,0,B|48:108|48:108|60:188,1,120,10|10,0:0|0:0,0:0:0:0:
144,228,95675,2,0,P|208:220|264:216,1,120,2|8,0:0|0:0,0:0:0:0:
304,240,96172,1,0,1:0:0:0:
304,240,96338,6,0,B|285:195|285:195|296:123,1,120,12|8,0:0|0:0,0:0:0:0:
308,80,96835,1,0,1:0:0:0:
404,72,97166,2,0,P|412:40|416:8,2,60,8|8|0,0:0|0:0|1:0,0:0:0:0:
440,104,97664,2,0,P|444:180|452:228,1,120,10|10,0:0|0:0,0:0:0:0:
424,264,98161,1,0,1:0:0:0:
424,264,98327,2,0,P|368:284|308:268,1,120,10|10,0:0|0:0,0:0:0:0:
272,240,98824,1,0,0:0:0:0:
272,240,98989,5,12,0:0:0:0:
256,192,99155,12,0,102304,0:0:0:0:
