osu file format v14

[General]
AudioFilename: audio.mp3
AudioLeadIn: 0
PreviewTime: 61531
Countdown: 0
SampleSet: Soft
StackLeniency: 0.4
Mode: 0
LetterboxInBreaks: 0
WidescreenStoryboard: 1

[Editor]
DistanceSpacing: 1.2
BeatDivisor: 4
GridSize: 4
TimelineZoom: 2.100001

[Metadata]
Title:Endless Starlight ~Inochi no Kirameki~ (OP ver.)
TitleUnicode:Endless Starlight 〜命のキラメキ〜 (OP ver.)
Artist:Kanae Asaba
ArtistUnicode:浅場佳苗
Creator:Bearizm
Version:Gold
Source:リーグ・オブ・レジェンド
Tags:LoL League of Legends Star Guardian Lux Janna Jinx Poppy Lulu Riot Games Tencent Mahou Shoujo Magical Girls handsome pishifat Lama Poluna
BeatmapID:1103252
BeatmapSetID:517894

[Difficulty]
HPDrainRate:5
CircleSize:4
OverallDifficulty:6
ApproachRate:8
SliderMultiplier:1.3
SliderTickRate:1

[Events]
//Background and Video events
0,0,"Background.jpg",0,0
Video,0,"video.flv"
//Break Periods
//Storyboard Layer 0 (Background)
//Storyboard Layer 1 (Fail)
//Storyboard Layer 2 (Pass)
//Storyboard Layer 3 (Foreground)
//Storyboard Sound Samples

[TimingPoints]
8990,331.491712707182,4,2,1,50,1,0
8990,-166.666666666667,4,2,1,50,0,0
9072,-166.666666666667,4,2,1,5,0,0
11641,-166.666666666667,4,2,1,50,0,0
11724,-166.666666666667,4,2,1,5,0,0
14293,-166.666666666667,4,2,1,50,0,0
14376,-166.666666666667,4,2,1,5,0,0
16614,-166.666666666667,4,2,1,50,0,0
16945,-200,4,2,1,50,0,0
17028,-200,4,2,1,5,0,0
17940,-100,4,2,1,50,0,0
18106,-100,4,2,1,70,0,0
19431,-100,4,2,1,90,0,1
28713,-100,4,2,1,90,0,0
29045,-100,4,2,1,70,0,0
40647,-100,4,2,1,80,0,0
51420,-100,4,2,1,70,0,0
56559,-100,4,2,1,80,0,0
60702,-100,4,2,1,60,0,0
61862,-100,4,2,1,90,0,1
72387,-100,4,2,1,90,0,0
72470,-100,4,2,1,90,0,1
77691,-100,4,2,1,90,0,0
77774,-100,4,2,1,90,0,1
80343,-100,4,2,1,90,0,0
80426,-100,4,2,1,90,0,1
82995,-100,4,2,1,90,0,0
83078,-100,4,2,1,90,0,1
85647,-100,4,2,1,90,0,0
85730,-100,4,2,1,90,0,1
88299,-100,4,2,1,90,0,0
88382,-100,4,2,1,90,0,1
88465,-100,4,2,1,90,0,0
99155,-100,4,2,1,5,0,0

[Colours]
Combo1 : 79,170,238
Combo2 : 250,69,65
Combo3 : 121,233,67
Combo4 : 252,97,182

[HitObjects]
208,280,8990,6,0,B|243:271|263:248|263:248|290:265|327:264|327:264|328:228|314:202|314:202|340:176|348:148|348:148|313:134|284:140|284:140|270:111|245:92|245:92|224:116|217:148|217:148|185:150|159:171|159:171|176:197|204:216|204:216|197:244|200:265,2,623.999980957032,2|2|2,0:0|0:0|0:0,0:0:0:0:
256,192,14376,12,0,16614,0:0:0:0:
92,288,16945,6,0,L|288:264,1,195,2|0,0:0|0:0,0:0:0:0:
348,220,18106,6,0,L|380:224,2,32.5,0|0|4,3:0|3:0|1:2,0:0:0:0:
284,172,18437,1,8,0:0:0:0:
284,172,18603,1,8,0:0:0:0:
348,124,18769,2,0,P|356:92|352:56,1,65,0|8,1:0|0:0,0:0:0:0:
288,16,19100,1,8,0:0:0:0:
216,48,19266,1,0,1:0:0:0:
216,48,19431,6,0,L|84:40,1,130,12|8,0:0|0:0,0:0:0:0:
20,80,19929,2,0,P|12:112|12:144,1,65,0|0,1:0|0:0,0:0:0:0:
76,188,20260,2,0,P|88:220|92:252,2,65,8|8|0,0:0|0:0|1:0,0:0:0:0:
136,140,20757,6,0,P|200:152|256:124,1,130,8|8,0:0|0:0,0:0:0:0:
312,68,21255,2,0,P|303:132|300:197,1,130,0|8,1:0|0:0,0:0:0:0:
344,260,21752,1,8,0:0:0:0:
412,224,21918,1,0,1:0:0:0:
409,301,22083,6,0,P|357:336|296:320,1,130,12|8,0:0|0:0,0:0:0:0:
248,256,22581,2,0,B|205:250|205:250|162:261|162:261|119:256,1,130,0|8,1:0|0:0,0:0:0:0:
44,248,23078,1,8,0:0:0:0:
92,184,23244,1,0,1:0:0:0:
41,124,23409,6,0,P|104:107|158:140,1,130,8|8,0:0|0:0,0:0:0:0:
220,92,23907,1,0,1:0:0:0:
288,129,24072,2,0,P|351:146|405:113,1,130,0|8,0:0|0:0,0:0:0:0:
444,48,24570,1,0,1:0:0:0:
480,116,24735,6,0,P|470:176|465:247,1,130,12|8,0:0|0:0,0:0:0:0:
388,264,25233,2,0,P|356:274|324:274,1,65,0|0,1:0|0:0,0:0:0:0:
252,244,25564,1,8,0:0:0:0:
185,285,25730,2,0,P|185:317|195:348,1,65,8|0,0:0|1:0,0:0:0:0:
259,233,26061,6,0,P|268:202|269:169,1,65,8|0,0:0|0:0,0:0:0:0:
140,146,26393,2,0,P|161:169|189:186,1,65,8|0,0:0|1:0,0:0:0:0:
274,87,26724,2,0,P|242:93|214:109,1,65,0|8,0:0|0:0,0:0:0:0:
269,169,27056,1,8,0:0:0:0:
339,134,27222,1,0,1:0:0:0:
404,175,27387,6,0,L|422:304,1,130,12|8,0:0|0:0,0:0:0:0:
350,337,27885,2,0,L|332:208,1,130,0|8,1:0|0:0,0:0:0:0:
319,131,28382,1,8,0:0:0:0:
259,181,28548,1,2,1:2:0:0:
181,171,28713,1,10,0:0:0:0:
256,192,28879,12,12,30039,0:0:0:0:
123,121,30371,5,8,0:0:0:0:
200,111,30536,2,0,L|329:95,1,130,0|8,1:0|0:0,0:0:0:0:
401,124,31034,2,0,P|412:153|416:186,1,65,8|0,0:0|1:0,0:0:0:0:
355,236,31365,6,0,P|410:227|460:276,1,130,8|8,0:0|0:0,0:0:0:0:
429,347,31862,2,0,L|299:341,1,130,0|0,1:0|0:0,0:0:0:0:
226,372,32360,1,8,0:0:0:0:
226,372,32525,1,0,1:0:0:0:
161,327,32691,6,0,B|150:286|150:286|168:199,1,130,0|0,0:0|0:0,0:0:0:0:
228,151,33188,2,0,P|168:156|122:107,1,130,0|8,1:0|0:0,0:0:0:0:
138,31,33686,1,8,0:0:0:0:
196,82,33851,1,0,1:0:0:0:
263,42,34017,6,0,L|392:32,1,130,8|8,0:0|0:0,0:0:0:0:
464,63,34514,1,0,1:0:0:0:
400,108,34680,2,0,P|392:140|395:172,1,65,0|0,0:0|0:0,0:0:0:0:
448,229,35012,2,0,P|456:261|453:293,1,65,8|0,0:0|1:0,0:0:0:0:
394,344,35343,1,0,0:0:0:0:
315,340,35509,6,0,L|185:333,1,130,8|0,0:0|1:0,0:0:0:0:
185,333,36172,2,0,P|194:300|195:269,1,65,8|8,0:0|0:0,0:0:0:0:
147,207,36503,1,0,1:0:0:0:
147,207,36669,6,0,P|211:219|260:182,1,130,8|8,0:0|0:0,0:0:0:0:
305,118,37166,2,0,P|301:182|304:251,1,130,0|0,1:0|0:0,0:0:0:0:
361,301,37664,1,8,0:0:0:0:
428,262,37829,1,0,1:0:0:0:
428,340,37995,6,0,L|299:350,1,130,0|0,0:0|0:0,0:0:0:0:
237,301,38492,1,0,1:0:0:0:
237,301,38658,2,0,P|191:297|134:352,1,130,0|8,0:0|0:0,0:0:0:0:
48,320,39155,1,0,1:0:0:0:
91,238,39321,6,0,B|75:196|75:196|91:110,1,130,10|8,0:0|0:0,0:0:0:0:
114,38,39818,1,8,0:0:0:0:
114,38,39984,1,8,0:0:0:0:
38,57,40150,1,0,1:0:0:0:
167,100,40315,1,8,0:0:0:0:
167,100,40647,6,0,L|296:84,1,130,14|8,0:0|0:0,0:0:0:0:
356,32,41144,2,0,P|412:24|468:68,1,130,0|10,1:0|0:0,0:0:0:0:
396,100,41641,1,0,0:0:0:0:
460,144,41807,1,0,1:0:0:0:
460,144,41973,6,0,L|448:276,1,130,10|0,0:0|0:0,0:0:0:0:
372,288,42470,2,0,L|383:158,1,130,0|10,1:0|0:0,0:0:0:0:
332,100,42967,1,8,0:0:0:0:
332,100,43133,1,0,1:0:0:0:
268,144,43299,6,0,P|208:160|148:128,1,130,10|8,0:0|0:0,0:0:0:0:
104,68,43796,1,0,1:0:0:0:
72,140,43962,2,0,B|56:184|56:184|72:268,1,130,0|8,0:0|0:0,0:0:0:0:
144,292,44459,1,0,1:0:0:0:
208,248,44625,6,0,L|340:260,1,130,10|8,0:0|0:0,0:0:0:0:
392,204,45122,1,0,1:0:0:0:
368,132,45288,2,0,P|336:124|304:124,1,65,0|10,0:0|0:0,0:0:0:0:
236,160,45619,2,0,P|204:168|172:168,1,65,8|0,0:0|1:0,0:0:0:0:
107,123,45951,6,0,P|48:144|27:203,1,130,14|8,0:0|0:0,0:0:0:0:
96,240,46448,2,0,P|108:272|108:304,1,65,0|0,1:0|0:0,0:0:0:0:
106,322,46697,1,8,0:0:0:0:
106,322,46780,1,10,0:0:0:0:
183,315,46945,2,0,L|247:308,1,65,8|0,0:0|1:0,0:0:0:0:
322,330,47277,6,0,B|339:281|339:281|318:204,1,130,14|8,0:0|0:0,0:0:0:0:
251,165,47774,2,0,P|222:180|189:187,1,65,0|0,1:0|0:0,0:0:0:0:
171,185,48023,1,8,0:0:0:0:
171,185,48106,1,10,0:0:0:0:
106,142,48271,2,0,P|77:127|44:120,1,65,8|0,0:0|1:0,0:0:0:0:
4,188,48603,6,0,L|12:320,1,130,14|8,0:0|0:0,0:0:0:0:
80,360,49100,1,0,1:0:0:0:
140,308,49266,2,0,B|181:302|181:302|223:313|223:313|269:308,1,130,14|8,0:0|0:0,0:0:0:0:
344,300,49763,1,0,1:0:0:0:
296,236,49929,6,0,P|292:204|300:172,1,65,14|0,0:0|0:0,0:0:0:0:
340,104,50260,2,0,P|344:72|336:40,1,65,8|0,0:0|1:0,0:0:0:0:
268,4,50592,2,0,L|136:16,1,130,14|8,0:0|0:0,0:0:0:0:
60,24,51089,1,0,1:0:0:0:
0,168,51420,6,0,L|129:156,1,130,12|2,3:1|0:3,0:0:0:0:
200,192,51918,1,0,3:0:0:0:
200,192,52083,2,0,P|192:224|192:256,1,65,2|0,1:3|0:0,0:0:0:0:
212,332,52415,1,2,0:3:0:0:
268,276,52581,6,0,P|332:260|388:296,2,130,0|0|0,3:0|3:0|3:0,0:0:0:0:
212,332,53409,2,0,P|180:340|148:340,1,65,2|0,1:3|0:0,0:0:0:0:
76,308,53741,1,2,0:3:0:0:
92,232,53907,1,0,3:0:0:0:
92,232,54072,6,0,P|92:168|88:100,1,130,8|2,3:1|0:3,0:0:0:0:
144,48,54570,1,0,3:0:0:0:
144,48,54735,2,0,P|208:64|264:32,1,130,2|0,1:3|3:0,0:0:0:0:
332,68,55233,6,0,P|372:64|448:108,1,130,2|2,3:2|3:2,0:0:0:0:
396,256,55896,2,0,P|356:260|280:216,1,130,2|0,3:2|3:0,0:0:0:0:
432,188,56559,6,0,L|440:320,1,130,12|8,0:0|0:0,0:0:0:0:
364,336,57056,2,0,L|356:206,1,130,0|8,1:0|0:0,0:0:0:0:
292,160,57553,1,8,0:0:0:0:
292,160,57719,1,0,1:0:0:0:
228,204,57885,6,0,P|165:199|124:147,1,130,12|8,0:0|0:0,0:0:0:0:
48,144,58382,2,0,P|36:176|32:208,1,65,0|0,1:0|0:0,0:0:0:0:
48,284,58713,1,8,0:0:0:0:
96,344,58879,1,8,0:0:0:0:
172,352,59045,1,0,1:0:0:0:
244,320,59210,6,0,P|300:312|360:352,1,130,12|8,0:0|0:0,0:0:0:0:
328,280,59708,2,0,P|320:248|324:212,1,65,0|8,1:0|0:0,0:0:0:0:
376,160,60039,2,0,L|440:152,1,65,0|8,1:0|0:0,0:0:0:0:
408,80,60371,2,0,L|344:88,1,65,0|0,1:0|0:0,0:0:0:0:
324,90,60619,1,0,0:0:0:0:
324,90,60702,5,10,0:0:0:0:
324,90,61531,1,2,0:0:0:0:
324,90,61697,1,2,0:0:0:0:
324,90,61862,6,0,L|192:104,1,130,12|8,0:0|0:0,0:0:0:0:
120,84,62360,2,0,P|108:116|104:152,1,65,0|0,1:0|0:0,0:0:0:0:
152,208,62691,2,0,P|163:238|167:270,1,65,8|8,0:0|0:0,0:0:0:0:
112,328,63023,1,0,1:0:0:0:
188,348,63188,6,0,L|320:336,1,130,8|8,0:0|0:0,0:0:0:0:
396,352,63686,2,0,P|404:320|404:288,1,65,0|0,1:0|0:0,0:0:0:0:
360,224,64017,2,0,L|296:216,1,65,8|8,0:0|0:0,0:0:0:0:
248,152,64349,1,0,1:0:0:0:
296,92,64514,6,0,P|352:88|412:136,1,130,12|8,0:0|0:0,0:0:0:0:
380,204,65012,2,0,P|372:236|372:272,1,65,0|0,1:0|0:0,0:0:0:0:
428,324,65343,2,0,L|296:312,1,130,8|0,0:0|1:0,0:0:0:0:
236,264,65840,2,0,L|172:272,1,65,8|0,0:0|0:0,0:0:0:0:
96,252,66172,6,0,P|84:284|80:320,2,65,8|0|0,0:0|1:0|0:0,0:0:0:0:
148,192,66669,2,0,P|143:159|132:129,1,65,8|8,0:0|0:0,0:0:0:0:
88,64,67001,1,0,1:0:0:0:
164,60,67166,6,0,L|296:56,1,130,12|8,0:0|0:0,0:0:0:0:
364,92,67664,2,0,P|376:128|376:160,1,65,0|0,1:0|0:0,0:0:0:0:
340,224,67995,1,8,0:0:0:0:
396,280,68161,2,0,L|460:272,1,65,8|0,0:0|1:0,0:0:0:0:
336,336,68492,6,0,L|204:324,1,130,8|8,0:0|0:0,0:0:0:0:
144,280,68989,2,0,P|136:248|140:216,1,65,0|0,1:0|0:0,0:0:0:0:
200,164,69321,2,0,P|207:132|204:100,2,65,8|8|0,0:0|0:0|1:0,0:0:0:0:
220,240,69818,6,0,L|352:228,1,130,12|8,0:0|0:0,0:0:0:0:
428,224,70315,1,0,1:0:0:0:
384,152,70481,6,0,L|252:140,1,130,12|8,0:0|0:0,0:0:0:0:
176,136,70978,1,0,1:0:0:0:
220,64,71144,6,0,L|352:52,1,130,12|8,0:0|0:0,0:0:0:0:
428,48,71641,1,0,1:0:0:0:
428,48,71807,1,8,0:0:0:0:
392,116,71973,1,0,1:0:0:0:
392,116,72139,1,8,0:0:0:0:
470,118,72304,1,0,1:0:0:0:
432,185,72470,6,0,L|448:316,1,130,12|8,0:0|0:0,0:0:0:0:
372,292,72967,2,0,P|336:284|304:284,1,65,0|0,1:0|0:0,0:0:0:0:
240,320,73299,2,0,L|176:324,1,65,8|8,0:0|0:0,0:0:0:0:
112,276,73630,1,0,1:0:0:0:
176,228,73796,6,0,B|196:176|196:176|180:104,1,130,8|8,0:0|0:0,0:0:0:0:
112,64,74293,2,0,L|244:52,1,130,0|8,1:0|0:0,0:0:0:0:
320,40,74791,1,8,0:0:0:0:
392,72,74956,1,0,1:0:0:0:
420,144,75122,6,0,L|408:276,1,130,12|8,0:0|0:0,0:0:0:0:
344,316,75619,2,0,P|312:320|280:312,1,65,0|0,1:0|0:0,0:0:0:0:
204,288,75951,2,0,P|172:284|140:292,2,65,8|8|0,0:0|0:0|1:0,0:0:0:0:
260,236,76448,6,0,L|248:104,1,130,8|8,0:0|0:0,0:0:0:0:
324,80,76945,2,0,L|336:212,1,130,0|8,1:0|0:0,0:0:0:0:
344,288,77443,1,8,0:0:0:0:
344,288,77608,1,0,1:0:0:0:
272,260,77774,6,0,B|227:255|227:255|185:266|185:266|144:260,1,130,12|8,0:0|0:0,0:0:0:0:
92,204,78271,1,0,1:0:0:0:
20,236,78437,2,0,P|12:268|16:304,1,65,12|0,0:0|0:0,0:0:0:0:
100,188,78769,2,0,P|102:155|94:124,1,65,8|0,0:0|1:0,0:0:0:0:
40,68,79100,6,0,P|101:86|159:60,1,130,12|8,0:0|0:0,0:0:0:0:
236,40,79597,2,0,P|229:71|224:108,1,65,0|8,1:0|0:0,0:0:0:0:
296,216,79929,2,0,P|291:183|284:152,1,65,8|8,1:0|0:0,0:0:0:0:
328,88,80260,1,0,1:0:0:0:
396,128,80426,6,0,L|384:260,1,130,12|8,0:0|0:0,0:0:0:0:
316,296,80923,1,0,1:0:0:0:
252,248,81089,2,0,P|244:216|248:184,1,65,12|0,0:0|0:0,0:0:0:0:
324,312,81420,2,0,P|332:344|328:376,1,65,8|0,0:0|1:0,0:0:0:0:
252,348,81752,6,0,L|120:360,1,130,12|8,0:0|0:0,0:0:0:0:
52,324,82249,2,0,P|36:292|32:260,1,65,0|8,1:0|0:0,0:0:0:0:
140,208,82581,2,0,P|134:239|119:268,1,65,8|8,1:0|0:0,0:0:0:0:
52,176,82912,1,0,1:0:0:0:
124,120,83078,6,0,L|192:116,1,65,12|0,0:0|0:0,0:0:0:0:
284,196,83409,2,0,L|216:192,1,65,8|0,0:0|1:0,0:0:0:0:
116,112,83741,2,0,L|184:108,1,65,12|0,0:0|0:0,0:0:0:0:
292,204,84072,2,0,L|224:200,1,65,8|0,0:0|1:0,0:0:0:0:
364,152,84404,6,0,B|380:200|380:200|364:284,1,130,12|8,0:0|0:0,0:0:0:0:
340,352,84901,1,0,1:0:0:0:
292,292,85067,1,0,0:0:0:0:
420,336,85233,2,0,L|484:328,1,65,8|8,0:0|0:0,0:0:0:0:
365,278,85564,1,0,1:0:0:0:
468,124,85730,6,0,L|452:256,1,130,12|8,0:0|0:0,0:0:0:0:
365,278,86227,1,0,1:0:0:0:
280,240,86393,1,8,0:0:0:0:
356,188,86559,1,0,1:0:0:0:
271,150,86725,1,8,0:0:0:0:
346,99,86890,1,0,1:0:0:0:
252,160,87056,6,0,P|218:168|184:168,1,65,8|0,0:0|1:0,0:0:0:0:
56,112,87387,2,0,P|88:112|119:120,1,65,8|0,0:0|1:0,0:0:0:0:
108,260,87719,2,0,P|108:227|116:196,1,65,8|8,0:0|0:0,0:0:0:0:
188,28,88050,2,0,P|195:59|196:91,1,65,8|0,0:0|1:0,0:0:0:0:
116,196,88382,6,0,L|248:184,1,130,12|8,0:0|0:0,0:0:0:0:
308,232,88879,2,0,P|341:230|376:236,1,65,0|0,1:0|0:0,0:0:0:0:
428,180,89210,2,0,P|460:181|492:176,2,65,8|8|0,0:0|0:0|1:0,0:0:0:0:
372,124,89708,6,0,L|242:135,1,130,8|8,0:0|0:0,0:0:0:0:
184,188,90205,2,0,P|180:220|184:252,1,65,0|0,1:0|0:0,0:0:0:0:
244,304,90536,2,0,P|252:336|252:368,2,65,8|8|0,0:0|0:0|1:0,0:0:0:0:
292,244,91034,6,0,P|340:236|408:284,1,130,12|8,0:0|0:0,0:0:0:0:
396,356,91531,2,0,P|364:360|328:356,1,65,0|0,1:0|0:0,0:0:0:0:
264,316,91862,2,0,L|200:328,1,65,10|8,0:0|0:0,0:0:0:0:
124,348,92194,1,0,1:0:0:0:
144,272,92360,6,0,L|172:144,1,130,8|8,0:0|0:0,0:0:0:0:
88,80,92857,2,0,L|92:144,1,65,0|0,1:0|0:0,0:0:0:0:
48,208,93188,1,10,0:0:0:0:
48,208,93354,1,8,0:0:0:0:
112,252,93520,1,0,1:0:0:0:
164,192,93686,6,0,B|205:186|205:186|247:197|247:197|292:192,1,130,14|8,0:0|0:0,0:0:0:0:
340,132,94183,2,0,L|328:264,1,130,0|8,1:0|0:0,0:0:0:0:
384,316,94680,1,8,0:0:0:0:
432,252,94846,1,0,1:0:0:0:
432,252,95012,6,0,P|431:214|424:188,1,65,8|0,0:0|0:0,0:0:0:0:
292,208,95343,2,0,P|324:226|351:233,1,65,8|0,0:0|1:0,0:0:0:0:
400,112,95675,2,0,P|368:130|348:150,1,65,0|8,0:0|0:0,0:0:0:0:
276,128,96006,1,8,0:0:0:0:
216,176,96172,1,0,1:0:0:0:
148,136,96338,6,0,L|160:4,1,130,12|8,0:0|0:0,0:0:0:0:
231,37,96835,2,0,B|266:38|295:29,1,65,0|0,1:0|0:0,0:0:0:0:
343,90,97166,2,0,B|378:90|407:98,1,65,8|8,0:0|0:0,0:0:0:0:
456,159,97498,1,0,1:0:0:0:
408,220,97664,6,0,L|272:224,1,130,10|10,0:0|0:0,0:0:0:0:
220,276,98161,1,0,1:0:0:0:
276,328,98327,6,0,L|412:332,1,130,10|10,0:0|0:0,0:0:0:0:
461,277,98824,1,0,0:0:0:0:
408,220,98989,5,12,0:0:0:0:
256,192,99155,12,0,102304,0:0:0:0:
