osu file format v14

[General]
AudioFilename: audio.mp3
AudioLeadIn: 0
PreviewTime: 55119
Countdown: 0
SampleSet: Soft
StackLeniency: 0.7
Mode: 3
LetterboxInBreaks: 0
SpecialStyle: 0
WidescreenStoryboard: 1

[Editor]
DistanceSpacing: 1.4
BeatDivisor: 4
GridSize: 8
TimelineZoom: 2.6

[Metadata]
Title:Endless Starlight ~Inochi no Kirameki~ (OP ver.)
TitleUnicode:Endless Starlight 〜命のキラメキ〜(OP ver.)
Artist:Kanae Asaba
ArtistUnicode:浅場佳苗
Creator:[ S a k u r a ]
Version:Normal
Source:リーグ・オブ・レジェンド
Tags:league of legends opening star guardian
BeatmapID:1101652
BeatmapSetID:517979

[Difficulty]
HPDrainRate:7
CircleSize:4
OverallDifficulty:7
ApproachRate:5
SliderMultiplier:1.4
SliderTickRate:1

[Events]
//Background and Video events
0,0,"maxresdefault.jpg",0,0
//Break Periods
//Storyboard Layer 0 (Background)
//Storyboard Layer 1 (Fail)
//Storyboard Layer 2 (Pass)
//Storyboard Layer 3 (Foreground)
//Storyboard Sound Samples

[TimingPoints]
2661,331.491712707182,4,2,1,45,1,0
55533,-100,4,2,1,45,0,1
70451,-100,4,2,1,45,0,0

[HitObjects]
192,192,2661,5,0,0:0:0:0:
448,192,2661,1,0,0:0:0:0:
192,192,5312,1,0,0:0:0:0:
320,192,5312,1,0,0:0:0:0:
64,192,6638,1,0,0:0:0:0:
320,192,6638,1,0,0:0:0:0:
448,192,7964,1,0,0:0:0:0:
64,192,7964,1,0,0:0:0:0:
320,192,10616,1,0,0:0:0:0:
448,192,10616,1,0,0:0:0:0:
192,192,11777,1,0,0:0:0:0:
320,192,11859,1,0,0:0:0:0:
448,192,11942,1,4,0:0:0:0:
64,192,12108,1,0,0:0:0:0:
320,192,12274,1,0,0:0:0:0:
192,192,12440,1,0,0:0:0:0:
448,192,12605,128,0,13102:0:0:0:0:
64,192,13102,1,0,0:0:0:0:
192,192,13434,1,0,0:0:0:0:
448,192,13600,1,8,0:0:0:0:
64,192,13931,1,0,0:0:0:0:
320,192,14097,1,0,0:0:0:0:
192,192,14263,1,8,0:0:0:0:
448,192,14428,1,0,0:0:0:0:
448,192,14760,1,0,0:0:0:0:
64,192,14926,1,8,0:0:0:0:
320,192,15257,1,0,0:0:0:0:
64,192,15423,1,0,0:0:0:0:
448,192,15589,1,8,0:0:0:0:
192,192,15754,1,0,0:0:0:0:
192,192,16086,1,0,0:0:0:0:
448,192,16252,1,8,0:0:0:0:
64,192,16583,1,0,0:0:0:0:
448,192,16749,1,0,0:0:0:0:
192,192,16915,1,8,0:0:0:0:
320,192,17080,1,0,0:0:0:0:
320,192,17412,1,0,0:0:0:0:
64,192,17578,1,8,0:0:0:0:
64,192,17909,1,0,0:0:0:0:
448,192,18075,1,0,0:0:0:0:
192,192,18241,1,8,0:0:0:0:
448,192,18406,1,0,0:0:0:0:
320,192,18406,1,4,0:0:0:0:
320,192,18738,1,0,0:0:0:0:
64,192,18904,1,8,0:0:0:0:
64,192,19235,1,0,0:0:0:0:
448,192,19401,1,0,0:0:0:0:
192,192,19567,1,8,0:0:0:0:
320,192,19732,1,0,0:0:0:0:
320,192,20064,1,0,0:0:0:0:
64,192,20230,1,8,0:0:0:0:
64,192,20561,1,0,0:0:0:0:
320,192,20727,1,0,0:0:0:0:
192,192,20893,1,8,0:0:0:0:
448,192,21058,1,4,0:0:0:0:
64,192,21058,1,0,0:0:0:0:
192,192,21390,1,0,0:0:0:0:
448,192,21556,1,8,0:0:0:0:
448,192,21887,1,0,0:0:0:0:
64,192,22053,1,0,0:0:0:0:
320,192,22219,1,8,0:0:0:0:
192,192,22384,1,0,0:0:0:0:
64,192,22384,1,0,0:0:0:0:
448,192,22716,128,0,22881:0:0:0:0:
64,192,22881,128,0,23047:0:0:0:0:
320,192,23047,128,0,23213:0:0:0:0:
192,192,23213,128,0,23379:0:0:0:0:
448,192,23379,1,8,0:0:0:0:
64,192,23544,1,8,0:0:0:0:
192,192,23710,1,4,0:0:0:0:
448,192,23710,1,0,0:0:0:0:
320,192,24042,1,0,0:0:0:0:
64,192,24207,1,0,0:0:0:0:
448,192,24373,1,0,0:0:0:0:
192,192,24539,1,0,0:0:0:0:
320,192,24705,1,0,0:0:0:0:
64,192,24870,1,8,0:0:0:0:
192,192,25036,1,0,0:0:0:0:
448,192,25036,1,0,0:0:0:0:
64,192,25368,1,0,0:0:0:0:
192,192,25533,1,0,0:0:0:0:
320,192,25699,1,0,0:0:0:0:
64,192,25865,1,0,0:0:0:0:
448,192,26031,1,0,0:0:0:0:
320,192,26196,1,0,0:0:0:0:
64,192,26362,1,0,0:0:0:0:
320,192,26528,1,0,0:0:0:0:
192,192,26694,1,0,0:0:0:0:
320,192,26859,1,8,0:0:0:0:
64,192,26859,1,0,0:0:0:0:
448,192,27025,1,0,0:0:0:0:
64,192,27191,1,0,0:0:0:0:
320,192,27357,1,0,0:0:0:0:
192,192,27522,1,0,0:0:0:0:
448,192,27688,1,0,0:0:0:0:
320,192,28020,1,0,0:0:0:0:
64,192,28185,1,0,0:0:0:0:
192,192,28185,1,8,0:0:0:0:
448,192,28351,1,0,0:0:0:0:
64,192,28517,1,0,0:0:0:0:
192,192,28683,1,8,0:0:0:0:
448,192,28848,1,0,0:0:0:0:
320,192,28848,1,0,0:0:0:0:
64,192,29014,1,0,0:0:0:0:
192,192,29180,1,0,0:0:0:0:
448,192,29346,1,0,0:0:0:0:
64,192,29511,1,0,0:0:0:0:
320,192,29511,1,8,0:0:0:0:
192,192,29677,1,0,0:0:0:0:
448,192,29843,1,0,0:0:0:0:
64,192,30009,1,0,0:0:0:0:
192,192,30174,1,0,0:0:0:0:
320,192,30174,1,8,0:0:0:0:
448,192,30340,1,0,0:0:0:0:
448,192,30672,1,0,0:0:0:0:
320,192,30837,1,8,0:0:0:0:
64,192,30837,1,0,0:0:0:0:
192,192,31003,1,0,0:0:0:0:
320,192,31169,1,0,0:0:0:0:
64,192,31335,1,0,0:0:0:0:
192,192,31500,1,8,0:0:0:0:
448,192,31500,1,0,0:0:0:0:
320,192,31666,1,0,0:0:0:0:
448,192,31998,1,0,0:0:0:0:
64,192,32163,1,0,0:0:0:0:
320,192,32163,1,8,0:0:0:0:
192,192,32329,1,0,0:0:0:0:
320,192,32495,1,0,0:0:0:0:
64,192,32660,1,0,0:0:0:0:
320,192,32826,1,0,0:0:0:0:
192,192,32992,1,0,0:0:0:0:
448,192,33323,1,0,0:0:0:0:
64,192,33489,1,0,0:0:0:0:
448,192,33655,1,0,0:0:0:0:
64,192,33821,1,0,0:0:0:0:
448,192,33986,1,0,0:0:0:0:
64,192,34318,1,0,0:0:0:0:
320,192,34318,1,4,0:0:0:0:
192,192,34649,1,0,0:0:0:0:
448,192,34815,1,8,0:0:0:0:
448,192,35147,1,0,0:0:0:0:
448,192,35478,1,8,0:0:0:0:
64,192,35644,1,0,0:0:0:0:
64,192,35975,1,0,0:0:0:0:
320,192,36141,1,8,0:0:0:0:
192,192,36473,1,0,0:0:0:0:
448,192,36638,1,0,0:0:0:0:
64,192,36804,1,8,0:0:0:0:
320,192,36970,1,0,0:0:0:0:
320,192,37301,1,0,0:0:0:0:
64,192,37467,1,8,0:0:0:0:
192,192,37799,1,0,0:0:0:0:
448,192,38130,1,8,0:0:0:0:
64,192,38296,1,0,0:0:0:0:
64,192,38627,1,0,0:0:0:0:
320,192,38793,1,8,0:0:0:0:
192,192,38959,1,0,0:0:0:0:
320,192,39125,1,0,0:0:0:0:
64,192,39290,1,0,0:0:0:0:
192,192,39456,1,8,0:0:0:0:
448,192,39622,1,0,0:0:0:0:
320,192,39622,1,4,0:0:0:0:
192,192,39953,1,0,0:0:0:0:
448,192,40119,1,8,0:0:0:0:
448,192,40451,1,0,0:0:0:0:
64,192,40616,1,0,0:0:0:0:
320,192,40782,1,8,0:0:0:0:
192,192,40948,1,4,0:0:0:0:
64,192,40948,1,0,0:0:0:0:
64,192,41279,1,0,0:0:0:0:
448,192,41445,1,8,0:0:0:0:
192,192,41777,1,0,0:0:0:0:
320,192,41942,1,0,0:0:0:0:
64,192,42108,1,8,0:0:0:0:
320,192,42274,1,4,0:0:0:0:
448,192,42274,1,0,0:0:0:0:
192,192,42605,1,0,0:0:0:0:
448,192,42771,1,0,0:0:0:0:
320,192,42937,1,4,0:0:0:0:
64,192,42937,1,0,0:0:0:0:
192,192,43268,1,8,0:0:0:0:
320,192,43434,1,0,0:0:0:0:
192,192,43600,1,4,0:0:0:0:
64,192,43600,1,0,0:0:0:0:
448,192,43931,1,0,0:0:0:0:
64,192,44097,1,0,0:0:0:0:
192,192,44263,1,0,0:0:0:0:
448,192,44263,1,0,0:0:0:0:
320,192,44594,1,8,0:0:0:0:
64,192,44760,1,0,0:0:0:0:
192,192,44926,1,0,0:0:0:0:
448,192,45091,1,0,0:0:0:0:
320,192,45091,1,4,0:0:0:0:
192,192,45589,1,0,0:0:0:0:
448,192,45754,1,0,0:0:0:0:
448,192,46252,1,0,0:0:0:0:
320,192,46583,1,0,0:0:0:0:
192,192,46915,1,0,0:0:0:0:
64,192,47080,1,8,0:0:0:0:
64,192,47578,1,0,0:0:0:0:
448,192,47743,1,0,0:0:0:0:
192,192,48241,1,0,0:0:0:0:
448,192,48406,1,8,0:0:0:0:
448,192,48738,1,0,0:0:0:0:
64,192,48904,1,0,0:0:0:0:
64,192,49235,1,0,0:0:0:0:
320,192,49567,1,0,0:0:0:0:
192,192,49898,1,0,0:0:0:0:
320,192,50064,1,0,0:0:0:0:
64,192,50230,1,0,0:0:0:0:
448,192,50230,1,4,0:0:0:0:
320,192,50561,1,0,0:0:0:0:
64,192,50727,1,8,0:0:0:0:
192,192,51058,1,0,0:0:0:0:
448,192,51224,1,0,0:0:0:0:
64,192,51390,1,0,0:0:0:0:
320,192,51556,1,4,0:0:0:0:
448,192,51556,1,0,0:0:0:0:
192,192,51887,1,0,0:0:0:0:
448,192,52053,1,8,0:0:0:0:
64,192,52384,1,0,0:0:0:0:
320,192,52550,1,0,0:0:0:0:
192,192,52716,1,0,0:0:0:0:
448,192,52881,1,4,0:0:0:0:
448,192,53213,1,0,0:0:0:0:
64,192,53379,1,0,0:0:0:0:
448,192,53544,1,0,0:0:0:0:
192,192,53710,1,0,0:0:0:0:
320,192,53876,1,0,0:0:0:0:
448,192,54042,1,0,0:0:0:0:
192,192,54207,1,0,0:0:0:0:
64,192,54373,1,0,0:0:0:0:
192,192,55202,128,0,55533:0:0:0:0:
448,192,55533,1,4,0:0:0:0:
64,192,55533,1,0,0:0:0:0:
320,192,55865,1,0,0:0:0:0:
64,192,56031,1,8,0:0:0:0:
320,192,56362,1,0,0:0:0:0:
64,192,56528,1,0,0:0:0:0:
448,192,56694,1,8,0:0:0:0:
192,192,56859,1,0,0:0:0:0:
192,192,57191,1,0,0:0:0:0:
448,192,57357,1,8,0:0:0:0:
448,192,57688,1,0,0:0:0:0:
64,192,57854,1,0,0:0:0:0:
320,192,58020,1,0,0:0:0:0:
192,192,58185,1,4,0:0:0:0:
64,192,58185,1,0,0:0:0:0:
448,192,58517,1,0,0:0:0:0:
64,192,58683,1,8,0:0:0:0:
192,192,59014,1,0,0:0:0:0:
448,192,59180,1,0,0:0:0:0:
64,192,59346,1,8,0:0:0:0:
320,192,59511,1,0,0:0:0:0:
64,192,59843,128,0,60009:0:0:0:0:
192,192,60009,128,0,60174:0:0:0:0:
448,192,60174,128,0,60340:0:0:0:0:
320,192,60340,128,0,60506:0:0:0:0:
64,192,60506,128,0,60672:0:0:0:0:
192,192,60672,128,0,60837:0:0:0:0:
320,192,60837,1,4,0:0:0:0:
448,192,60837,1,0,0:0:0:0:
448,192,61169,1,0,0:0:0:0:
64,192,61335,1,0,0:0:0:0:
320,192,61666,1,0,0:0:0:0:
64,192,61832,1,0,0:0:0:0:
192,192,61998,1,8,0:0:0:0:
320,192,62163,1,0,0:0:0:0:
448,192,62163,1,0,0:0:0:0:
192,192,62495,1,0,0:0:0:0:
448,192,62660,1,0,0:0:0:0:
64,192,62992,1,0,0:0:0:0:
320,192,63158,1,0,0:0:0:0:
192,192,63323,1,0,0:0:0:0:
64,192,63489,1,0,0:0:0:0:
448,192,63489,1,4,0:0:0:0:
192,192,63821,1,4,0:0:0:0:
448,192,63821,1,0,0:0:0:0:
320,192,63986,1,0,0:0:0:0:
64,192,64152,1,0,0:0:0:0:
448,192,64152,1,4,0:0:0:0:
320,192,64484,1,4,0:0:0:0:
64,192,64484,1,0,0:0:0:0:
192,192,64649,1,0,0:0:0:0:
64,192,64815,1,0,0:0:0:0:
448,192,64815,1,4,0:0:0:0:
320,192,65147,128,0,65312:0:0:0:0:
192,192,65312,128,0,65478:0:0:0:0:
448,192,65478,128,0,65644:0:0:0:0:
64,192,65644,128,0,65810:0:0:0:0:
192,192,65810,128,0,65975:0:0:0:0:
320,192,65975,128,0,66141:0:0:0:0:
448,192,66141,1,0,0:0:0:0:
64,192,66141,1,4,0:0:0:0:
192,192,66473,1,0,0:0:0:0:
448,192,66638,1,8,0:0:0:0:
64,192,66970,1,0,0:0:0:0:
320,192,67136,1,0,0:0:0:0:
192,192,67301,1,0,0:0:0:0:
448,192,67467,1,0,0:0:0:0:
64,192,67799,1,0,0:0:0:0:
448,192,67964,1,8,0:0:0:0:
192,192,68296,1,0,0:0:0:0:
320,192,68462,1,0,0:0:0:0:
64,192,68627,1,0,0:0:0:0:
192,192,68793,1,4,0:0:0:0:
448,192,68793,1,0,0:0:0:0:
320,192,69125,1,0,0:0:0:0:
192,192,69290,1,0,0:0:0:0:
64,192,69622,1,0,0:0:0:0:
448,192,69788,1,0,0:0:0:0:
192,192,69953,1,0,0:0:0:0:
320,192,70119,1,8,0:0:0:0:
448,192,70119,1,0,0:0:0:0:
448,192,70451,128,0,70616:0:0:0:0:
320,192,70616,128,0,70782:0:0:0:0:
192,192,70782,128,0,70948:0:0:0:0:
64,192,70948,128,0,71114:0:0:0:0:
448,192,71114,128,0,71279:0:0:0:0:
192,192,71279,128,0,71445:0:0:0:0:
448,192,71445,1,4,0:0:0:0:
64,192,71445,128,0,71777:0:0:0:0:
192,192,71777,1,0,0:0:0:0:
448,192,71777,1,4,0:0:0:0:
448,192,72108,1,8,0:0:0:0:
320,192,72108,128,0,72440:0:0:0:0:
192,192,72440,1,0,0:0:0:0:
64,192,72440,1,8,0:0:0:0:
64,192,72771,1,4,0:0:0:0:
448,192,72771,128,0,73102:0:0:0:0:
192,192,73102,1,0,0:0:0:0:
320,192,73102,1,0,0:0:0:0:
64,192,73268,1,0,0:0:0:0:
192,192,73434,1,0,0:0:0:0:
320,192,73600,1,0,0:0:0:0:
448,192,73765,1,0,0:0:0:0:
320,192,73931,1,0,0:0:0:0:
448,192,74097,1,0,0:0:0:0:
192,192,74097,128,0,74428:0:0:0:0:
64,192,74428,1,0,0:0:0:0:
320,192,74428,1,4,0:0:0:0:
320,192,74760,1,4,0:0:0:0:
192,192,74760,128,0,75091:0:0:0:0:
320,192,75091,1,0,0:0:0:0:
448,192,75091,1,4,0:0:0:0:
320,192,75423,1,4,0:0:0:0:
64,192,75423,128,0,75754:0:0:0:0:
448,192,75754,1,0,0:0:0:0:
192,192,75754,128,0,75920:0:0:0:0:
320,192,75920,128,0,76086:0:0:0:0:
64,192,76086,128,0,76252:0:0:0:0:
192,192,76252,128,0,76417:0:0:0:0:
448,192,76417,128,0,76583:0:0:0:0:
320,192,76583,128,0,76749:0:0:0:0:
192,192,76749,1,0,0:0:0:0:
64,192,76749,1,0,0:0:0:0:
320,192,77080,1,4,0:0:0:0:
448,192,77080,1,0,0:0:0:0:
64,192,77412,1,0,0:0:0:0:
448,192,77412,1,4,0:0:0:0:
192,192,77743,1,0,0:0:0:0:
448,192,77743,1,4,0:0:0:0:
320,192,78075,1,4,0:0:0:0:
64,192,78075,1,0,0:0:0:0:
448,192,78406,1,0,0:0:0:0:
192,192,78572,1,0,0:0:0:0:
64,192,78904,1,0,0:0:0:0:
320,192,79069,1,0,0:0:0:0:
192,192,79235,1,0,0:0:0:0:
320,192,79401,1,4,0:0:0:0:
448,192,79401,1,0,0:0:0:0:
64,192,79732,1,0,0:0:0:0:
448,192,79898,1,0,0:0:0:0:
64,192,80064,1,0,0:0:0:0:
320,192,80230,1,0,0:0:0:0:
192,192,80395,1,0,0:0:0:0:
320,192,80561,1,0,0:0:0:0:
192,192,80727,1,0,0:0:0:0:
448,192,80893,1,0,0:0:0:0:
448,192,81058,1,0,0:0:0:0:
64,192,81224,1,0,0:0:0:0:
64,192,81390,1,0,0:0:0:0:
448,192,81556,1,0,0:0:0:0:
192,192,81721,1,0,0:0:0:0:
320,192,81804,1,0,0:0:0:0:
448,192,81887,1,0,0:0:0:0:
192,192,82053,1,4,0:0:0:0:
64,192,82053,1,0,0:0:0:0:
320,192,82384,1,0,0:0:0:0:
64,192,82550,1,8,0:0:0:0:
192,192,82881,1,0,0:0:0:0:
448,192,83047,1,0,0:0:0:0:
320,192,83213,1,8,0:0:0:0:
64,192,83379,1,0,0:0:0:0:
64,192,83710,1,0,0:0:0:0:
448,192,83876,1,8,0:0:0:0:
192,192,84207,1,0,0:0:0:0:
448,192,84373,1,0,0:0:0:0:
64,192,84539,1,8,0:0:0:0:
192,192,84705,1,4,0:0:0:0:
320,192,84705,1,0,0:0:0:0:
448,192,85036,1,0,0:0:0:0:
64,192,85202,1,8,0:0:0:0:
320,192,85533,1,0,0:0:0:0:
192,192,85699,1,0,0:0:0:0:
64,192,85865,1,8,0:0:0:0:
448,192,86031,1,0,0:0:0:0:
192,192,86362,1,0,0:0:0:0:
448,192,86528,1,8,0:0:0:0:
448,192,86859,1,0,0:0:0:0:
192,192,87025,1,0,0:0:0:0:
320,192,87191,1,0,0:0:0:0:
64,192,87357,1,0,0:0:0:0:
448,192,87357,1,4,0:0:0:0:
192,192,87688,1,0,0:0:0:0:
448,192,87854,1,8,0:0:0:0:
320,192,88185,1,0,0:0:0:0:
64,192,88351,1,0,0:0:0:0:
192,192,88517,1,8,0:0:0:0:
448,192,88683,1,0,0:0:0:0:
64,192,89014,1,0,0:0:0:0:
320,192,89180,1,8,0:0:0:0:
192,192,89511,1,0,0:0:0:0:
320,192,89677,1,0,0:0:0:0:
64,192,89843,1,8,0:0:0:0:
192,192,90009,1,4,0:0:0:0:
448,192,90009,1,0,0:0:0:0:
320,192,90340,1,0,0:0:0:0:
64,192,90506,1,8,0:0:0:0:
448,192,90837,1,0,0:0:0:0:
192,192,91003,1,0,0:0:0:0:
320,192,91169,1,0,0:0:0:0:
64,192,91335,1,0,0:0:0:0:
448,192,91335,1,4,0:0:0:0:
192,192,91666,1,0,0:0:0:0:
320,192,91832,1,8,0:0:0:0:
64,192,91998,1,0,0:0:0:0:
192,192,92329,1,0,0:0:0:0:
320,192,92495,1,0,0:0:0:0:
64,192,92660,128,0,95810:0:0:0:0:
448,192,92660,128,0,95810:0:0:0:0:
