osu file format v14

[General]
AudioFilename: audio.mp3
AudioLeadIn: 0
PreviewTime: -1
Countdown: 1
SampleSet: Soft
StackLeniency: 0.7
Mode: 2
LetterboxInBreaks: 0
WidescreenStoryboard: 1

[Editor]
DistanceSpacing: 1
BeatDivisor: 4
GridSize: 4
TimelineZoom: 2.1

[Metadata]
Title:Over the Fantasy(TV Size)
TitleUnicode:Over the Fantasy(TV Size)
Artist:Kana Ueda
ArtistUnicode:植田 佳奈
Creator:Del
Version:the Fantasy
Source:Final Fantasy: Unlimited
Tags:FF:U Chocobo
BeatmapID:1672206
BeatmapSetID:796331

[Difficulty]
HPDrainRate:7
CircleSize:4
OverallDifficulty:9
ApproachRate:9
SliderMultiplier:2.4
SliderTickRate:2

[Events]
//Background and Video events
0,0,"Wall_UA_04.jpg",0,0
//Break Periods
//Storyboard Layer 0 (Background)
//Storyboard Layer 1 (Fail)
//Storyboard Layer 2 (Pass)
//Storyboard Layer 3 (Foreground)
//Storyboard Sound Samples

[TimingPoints]
8705,476.190476190476,4,2,0,50,1,0
69657,-100,4,2,0,50,0,1
82973,476.190476190476,4,2,0,50,1,0

[HitObjects]
380,188,8705,5,0,0:0:0:0:
84,112,8943,2,0,L|232:112,1,120
384,80,9295,2,0,L|488:80,2,60
148,236,9649,2,0,L|16:236,1,120
260,124,10003,2,0,L|160:124,3,60
400,232,10609,5,0,0:0:0:0:
208,236,10847,2,0,P|238:305|312:307,1,120
44,184,11204,2,0,P|74:253|148:255,1,120
344,104,11562,1,0,0:0:0:0:
200,304,11800,2,0,L|280:308,1,60
436,188,12038,2,0,L|528:188,1,60
220,220,12276,2,0,L|128:220,1,60
336,140,12514,5,0,0:0:0:0:
36,188,12752,2,0,L|40:316,1,120
376,188,13109,2,0,L|372:316,1,120
172,252,13466,6,0,B|28:244|36:184|36:184|208:160|208:160|220:12,1,480
340,168,14538,1,10,0:0:0:0:
336,84,14776,1,8,0:0:0:0:
216,112,14894,5,8,0:0:0:0:
136,308,15012,1,8,0:0:0:0:
216,236,15130,1,8,0:0:0:0:
108,152,15248,1,2,0:0:0:0:
188,80,15366,1,8,0:0:0:0:
384,128,15609,5,0,0:0:0:0:
440,119,15728,1,0,0:0:0:0:
444,204,15847,1,0,0:0:0:0:
387,195,15966,1,0,0:0:0:0:
272,260,16085,2,0,L|272:188,1,60
40,120,16324,6,0,L|168:120,1,120
344,116,16681,2,0,L|484:116,1,120
204,224,17038,2,0,L|64:224,1,120
308,116,17514,2,0,L|220:116,1,60
156,56,17752,2,0,L|228:56,1,60
308,248,17990,2,0,L|388:244,1,60
128,264,18228,6,0,P|96:268|72:180,1,120
336,112,18585,2,0,P|368:108|392:196,1,120
57,182,18943,2,0,P|26:242|70:286,1,120
392,300,19419,2,0,L|360:228,1,60
273,213,19657,2,0,L|297:158,1,60
392,84,19895,2,0,L|360:156,1,60
152,284,20133,6,0,P|112:280|64:208,1,120
144,176,20490,1,0,0:0:0:0:
64,120,20609,1,0,0:0:0:0:
184,328,20847,1,0,0:0:0:0:
280,320,20966,1,0,0:0:0:0:
376,308,21085,1,0,0:0:0:0:
184,192,21324,1,0,0:0:0:0:
360,100,21562,2,0,P|400:104|448:176,1,120
368,208,21919,1,0,0:0:0:0:
448,264,22038,5,0,0:0:0:0:
48,164,22276,2,0,L|136:164,1,60
284,100,22514,2,0,L|344:100,1,60
144,316,22752,2,0,L|197:261,1,60
424,304,22990,6,0,L|400:240,1,60
100,232,23228,2,0,L|40:232,1,60
40,152,23466,2,0,L|116:152,1,60
368,192,23704,2,0,L|356:116,1,60
144,312,23943,6,0,L|16:312,1,120
160,104,24300,2,0,L|300:104,1,120
416,336,24657,2,0,P|416:296|348:252,1,120
164,188,25133,1,0,0:0:0:0:
392,140,25371,1,0,0:0:0:0:
232,144,25609,2,0,L|160:144,1,60
368,72,25847,6,0,L|496:72,1,120
352,280,26204,2,0,L|212:280,1,120
96,48,26561,2,0,P|96:88|164:132,1,120
384,192,27038,1,0,0:0:0:0:
156,228,27276,1,0,0:0:0:0:
388,252,27514,1,0,0:0:0:0:
64,140,27752,6,0,L|204:140,1,120
104,256,28109,2,0,L|252:256,1,120
92,56,28466,2,0,L|224:56,1,120
440,192,28943,1,0,0:0:0:0:
212,176,29181,1,0,0:0:0:0:
440,116,29419,2,0,L|420:176,1,60
148,168,29657,6,0,L|100:300,1,120
224,112,30014,2,0,L|176:244,1,120
384,268,30371,1,0,0:0:0:0:
68,280,30609,1,0,0:0:0:0:
448,196,31085,1,0,0:0:0:0:
92,196,31324,1,0,0:0:0:0:
160,196,31443,1,0,0:0:0:0:
224,200,31562,6,0,L|220:72,1,120
356,308,31919,2,0,L|356:168,1,120
200,316,32276,2,0,L|200:252,1,60
316,88,32514,6,0,L|380:88,1,60
280,160,32752,2,0,L|220:160,1,60
336,256,32990,2,0,L|400:256,1,60
280,316,33228,2,0,L|340:316,1,60
152,308,33466,6,0,P|112:308|84:232,1,120
200,152,33824,2,0,L|336:156,1,120
188,71,34181,2,0,L|56:71,1,120
260,312,34657,6,0,L|344:312,1,60
436,236,34895,2,0,L|372:236,1,60
188,184,35133,2,0,L|120:184,1,60
372,156,35371,6,0,P|444:164|508:196,1,120
168,256,35728,2,0,P|96:248|32:216,1,120
256,216,36085,2,0,P|328:224|392:256,1,120
144,172,36562,5,0,0:0:0:0:
304,96,36800,1,0,0:0:0:0:
148,72,37038,1,0,0:0:0:0:
236,72,37157,1,0,0:0:0:0:
36,336,37276,5,0,0:0:0:0:
32,276,37395,1,0,0:0:0:0:
59,224,37514,1,0,0:0:0:0:
120,176,37633,1,0,0:0:0:0:
150,176,37692,1,0,0:0:0:0:
352,280,37752,5,0,0:0:0:0:
413,232,37871,1,0,0:0:0:0:
440,180,37990,1,0,0:0:0:0:
436,120,38109,1,0,0:0:0:0:
400,88,38169,1,0,0:0:0:0:
200,104,38228,6,0,L|112:100,3,60
436,324,38704,5,0,0:0:0:0:
466,324,38763,1,0,0:0:0:0:
496,324,38823,1,0,0:0:0:0:
312,252,38943,1,0,0:0:0:0:
282,252,39002,1,0,0:0:0:0:
252,252,39062,1,0,0:0:0:0:
44,128,39181,6,0,P|40:164|100:220,1,120
324,108,39657,2,0,P|328:144|268:200,1,120
84,284,40133,1,0,0:0:0:0:
244,76,40371,2,0,L|320:72,2,60
52,68,40847,1,0,0:0:0:0:
468,256,41085,6,0,P|472:220|412:164,1,120
188,276,41561,2,0,P|184:240|244:184,1,120
336,144,41919,1,0,0:0:0:0:
244,104,42038,6,0,L|248:36,1,60
156,52,42276,2,0,L|152:120,1,60
268,244,42514,2,0,L|264:316,1,60
381,241,42752,2,0,L|377:313,1,60
156,96,42990,6,0,P|161:160|264:166,1,180
80,188,43466,2,0,L|76:312,1,120
168,224,43824,1,0,0:0:0:0:
80,112,43943,6,0,L|16:112,2,60
308,116,44419,2,0,L|372:116,2,60
80,276,44895,5,0,0:0:0:0:
240,164,45133,1,0,0:0:0:0:
172,164,45252,1,0,0:0:0:0:
104,164,45371,1,0,0:0:0:0:
296,304,45609,1,0,0:0:0:0:
228,308,45728,1,0,0:0:0:0:
312,208,45847,6,0,L|312:144,1,60
396,220,46085,2,0,L|396:156,1,60
212,288,46324,2,0,L|292:288,1,60
180,208,46562,2,0,L|240:208,1,60
60,116,46800,6,0,P|20:164|56:224,1,120
156,76,47157,1,0,0:0:0:0:
76,36,47276,1,0,0:0:0:0:
196,244,47514,1,0,0:0:0:0:
388,276,47752,6,0,P|428:228|392:168,1,120
292,316,48109,1,0,0:0:0:0:
372,356,48228,1,0,0:0:0:0:
252,160,48466,1,0,0:0:0:0:
24,196,48704,5,0,0:0:0:0:
340,300,48943,2,0,L|256:300,1,60
310,212,49121,1,0,0:0:0:0:
340,212,49181,1,0,0:0:0:0:
148,76,49419,2,0,L|208:76,2,60
460,212,49895,1,0,0:0:0:0:
220,196,50371,1,0,0:0:0:0:
28,244,50609,6,0,L|72:176,1,60
172,288,50847,2,0,L|216:220,1,60
316,272,51085,2,0,L|360:204,1,60
168,180,51324,2,0,P|112:160|140:52,1,180
456,144,51800,2,0,L|412:212,1,60
312,100,52038,2,0,L|268:168,1,60
168,116,52276,2,0,L|124:184,1,60
316,324,52514,6,0,L|384:324,1,60
48,296,52752,2,0,P|28:255|84:186,1,120
464,296,53109,2,0,P|484:255|428:186,1,120
48,88,53466,1,0,0:0:0:0:
256,192,53704,12,0,56085,0:0:0:0:
376,288,56324,6,0,L|456:288,1,60
432,200,56562,2,0,L|372:200,1,60
268,200,56800,2,0,L|180:200,1,60
208,88,57038,2,0,L|280:88,1,60
372,96,57276,2,0,L|440:96,3,60
224,248,57752,2,0,L|352:248,1,120
120,192,58228,6,0,L|40:192,1,60
120,120,58466,2,0,L|188:120,1,60
304,248,58704,2,0,L|304:172,1,60
428,236,58943,2,0,L|424:160,1,60
184,88,59181,2,0,L|116:88,2,60
436,324,59657,2,0,L|504:324,2,60
364,212,60014,1,0,0:0:0:0:
56,120,60133,5,0,0:0:0:0:
116,120,60252,1,0,0:0:0:0:
176,120,60371,1,0,0:0:0:0:
368,120,60609,1,0,0:0:0:0:
428,120,60728,1,0,0:0:0:0:
488,120,60847,1,0,0:0:0:0:
296,300,61085,6,0,L|380:300,2,60
108,260,61562,2,0,L|192:260,1,60
352,188,61800,2,0,L|432:188,1,60
232,108,62038,6,0,L|172:112,1,60
252,28,62276,2,0,L|324:28,1,60
156,284,62514,2,0,L|220:284,2,60
348,176,62990,2,0,L|280:180,1,60
112,120,63228,2,0,L|28:120,1,60
316,256,63466,2,0,L|240:256,3,60
336,148,63943,6,0,L|396:200,1,60
296,224,64181,1,0,0:0:0:0:
460,72,64419,2,0,L|336:68,1,120
148,144,64895,2,0,L|288:144,1,120
364,256,65252,2,0,L|240:256,1,120
148,328,65609,2,0,L|216:328,1,60
476,96,65847,5,0,0:0:0:0:
476,154,65966,1,0,0:0:0:0:
404,164,66085,1,0,0:0:0:0:
212,80,66324,1,0,0:0:0:0:
212,138,66443,1,0,0:0:0:0:
284,128,66562,1,0,0:0:0:0:
56,284,66800,6,0,L|192:284,1,120
264,268,67157,2,0,P|264:228|200:168,1,120
124,172,67514,1,0,0:0:0:0:
472,276,67752,6,0,L|472:192,1,60
376,200,67990,2,0,L|376:128,1,60
280,88,68228,2,0,L|280:160,1,60
184,92,68466,2,0,L|184:168,1,60
400,296,68704,5,0,0:0:0:0:
430,296,68763,1,0,0:0:0:0:
460,296,68823,1,0,0:0:0:0:
188,300,68943,1,0,0:0:0:0:
158,300,69002,1,0,0:0:0:0:
128,300,69062,1,0,0:0:0:0:
306,208,69181,5,0,0:0:0:0:
336,208,69240,1,0,0:0:0:0:
366,208,69300,1,0,0:0:0:0:
248,112,69419,1,0,0:0:0:0:
218,112,69478,1,0,0:0:0:0:
188,112,69538,1,0,0:0:0:0:
472,332,69657,6,0,L|344:336,1,120
104,192,70074,1,0,0:0:0:0:
44,192,70133,2,0,L|44:320,1,120
408,192,70550,1,0,0:0:0:0:
468,192,70609,2,0,L|468:64,1,120
104,192,71026,5,0,0:0:0:0:
36,192,71085,1,0,0:0:0:0:
96,112,71204,1,0,0:0:0:0:
16,104,71323,1,0,0:0:0:0:
96,40,71443,1,0,0:0:0:0:
352,128,71562,6,0,L|480:128,1,120
248,280,72038,2,0,L|120:280,1,120
320,112,72514,1,0,0:0:0:0:
160,196,72752,2,0,L|184:124,1,60
392,324,72990,2,0,L|376:192,1,120
28,56,73466,6,0,L|160:60,1,120
484,56,73943,2,0,L|356:60,1,120
304,160,74300,1,0,0:0:0:0:
124,196,74419,2,0,L|36:192,1,60
184,296,74657,2,0,L|268:296,1,60
32,48,74895,1,0,0:0:0:0:
44,112,75014,1,0,0:0:0:0:
100,204,75133,2,0,L|180:204,1,60
456,184,75371,6,0,L|460:308,1,120
264,104,75847,2,0,L|404:100,1,120
288,204,76204,1,0,0:0:0:0:
168,200,76324,6,0,L|168:288,1,60
264,52,76562,2,0,L|200:52,1,60
384,288,76800,2,0,L|300:288,1,60
420,204,77038,2,0,L|420:120,1,60
84,160,77276,6,0,L|172:272,1,120
220,260,77633,1,0,0:0:0:0:
428,204,77752,2,0,L|340:92,1,120
292,104,78109,1,0,0:0:0:0:
468,320,78228,6,0,L|388:320,2,60
438,201,78526,2,0,L|390:201,1,30
224,192,78704,2,0,L|144:192,1,60
344,88,78943,2,0,L|416:92,1,60
108,308,79181,6,0,P|68:292|104:184,1,180
232,224,79657,2,0,L|232:140,1,60
136,96,79895,2,0,L|200:96,1,60
424,276,80133,6,0,L|504:276,1,60
256,272,80371,2,0,L|176:272,1,60
376,196,80609,2,0,L|348:116,1,60
128,180,80847,2,0,L|100:100,1,60
384,180,81085,6,0,L|412:100,1,60
224,144,81324,2,0,L|200:112,3,30
108,308,81562,5,0,0:0:0:0:
100,240,81681,1,0,0:0:0:0:
220,328,81800,2,0,L|220:252,1,60
340,276,82038,1,0,0:0:0:0:
348,224,82157,1,0,0:0:0:0:
72,160,82276,1,0,0:0:0:0:
64,108,82395,1,0,0:0:0:0:
480,96,82752,1,0,0:0:0:0:
132,96,82973,5,0,0:0:0:0:
304,264,83211,2,0,L|364:264,2,60
124,312,83568,2,0,L|44:312,2,60
304,96,83925,2,0,L|368:96,1,60
152,180,84163,2,0,L|72:184,1,60
272,264,84401,6,0,L|348:264,1,60
232,176,84639,2,0,L|308:176,1,60
176,140,84877,1,0,0:0:0:0:
476,188,85115,6,0,L|476:288,1,60
136,188,85473,2,0,L|136:284,1,60
360,384,85830,6,0,B|504:376|492:264|492:264|268:292|268:292|264:-12,1,720
256,192,87496,12,0,94401,0:0:0:0:
