osu file format v14

[General]
AudioFilename: audio.mp3
AudioLeadIn: 0
PreviewTime: 100443
Countdown: 1
SampleSet: Soft
StackLeniency: 0.7
Mode: 0
LetterboxInBreaks: 0
WidescreenStoryboard: 1

[Editor]
Bookmarks: 11147,21147,31147,41147,51147,61147,71147,79897,101147,119897
DistanceSpacing: 1.3
BeatDivisor: 4
GridSize: 4
TimelineZoom: 1.6

[Metadata]
Title:Torisetsu
TitleUnicode:Torisetsu
Artist:Kana Nishino
ArtistUnicode:Kana Nishino
Creator:SeaRasp
Version:Normal
Source:
Tags:
BeatmapID:909609
BeatmapSetID:419962

[Difficulty]
HPDrainRate:3
CircleSize:3
OverallDifficulty:3
ApproachRate:4
SliderMultiplier:0.8
SliderTickRate:1

[Events]
//Background and Video events
0,0,"tvyJcoT.jpg",0,0
//Break Periods
//Storyboard Layer 0 (Background)
//Storyboard Layer 1 (Fail)
//Storyboard Layer 2 (Pass)
//Storyboard Layer 3 (Foreground)
//Storyboard Sound Samples

[TimingPoints]
1147,312.5,4,2,1,45,1,0
1147,-100,4,2,1,45,0,0
2318,-100,4,2,1,45,0,0
2397,-100,4,2,1,45,0,0
4818,-100,4,2,1,45,0,0
4897,-100,4,2,1,45,0,0
7318,-100,4,2,1,45,0,0
7397,-100,4,2,1,45,0,0
9897,-100,4,2,1,40,0,0
11147,-100,4,2,1,40,0,0
31147,-100,4,2,1,60,0,0
32318,-100,4,2,1,60,0,0
32397,-100,4,2,1,60,0,0
34818,-100,4,2,1,60,0,0
34897,-100,4,2,1,60,0,0
36068,-100,4,2,1,60,0,0
36147,-100,4,2,1,60,0,0
37318,-100,4,2,1,60,0,0
37397,-100,4,2,1,60,0,0
41147,-100,4,2,1,60,0,0
93647,-100,4,2,1,50,0,0
96147,-100,4,2,1,60,0,0
98647,-100,4,2,1,40,0,0
98959,-100,4,2,1,50,0,0
99272,-100,4,2,1,60,0,0
100522,-100,4,2,1,40,0,0
100834,-100,4,2,1,55,0,0
101147,-100,4,2,1,70,0,1
113647,-100,4,2,1,60,0,1
116147,-100,4,2,1,60,0,1
119897,-100,4,2,1,30,0,0
120522,-100,4,2,1,25,0,0
121147,-100,4,2,1,20,0,0
121772,-100,4,2,1,15,0,0
122397,-100,4,2,1,10,0,0

[HitObjects]
308,284,1147,6,0,P|356:256|372:228,1,80,2|0,0:0|0:0,0:0:0:0:
372,136,1772,2,0,L|408:108,2,40,2|2|2,0:0|0:0|0:0,0:0:0:0:
292,72,2397,2,0,B|212:72|212:72|168:56|120:76,1,160,2|0,0:0|0:0,0:0:0:0:
60,140,3334,2,0,L|56:192,1,40,2|2,0:0|0:0,0:0:0:0:
28,256,3647,6,0,P|48:296|88:316,1,80,2|0,0:0|0:0,0:0:0:0:
172,288,4272,1,0,0:0:0:0:
264,320,4584,1,0,0:0:0:0:
352,276,4897,2,0,P|388:252|412:208,1,80,2|0,0:0|0:0,0:0:0:0:
320,184,5522,2,0,L|288:152,2,40,2|2|2,0:0|0:0|0:0,0:0:0:0:
400,120,6147,6,0,L|332:56,1,80,2|0,0:0|0:0,0:0:0:0:
244,52,6772,2,0,L|208:16,2,40,2|2|2,0:0|0:0|0:0,0:0:0:0:
192,144,7397,2,0,B|132:144|132:144|80:144|40:176,1,160,2|0,0:0|0:0,0:0:0:0:
72,268,8334,1,0,0:0:0:0:
120,348,8647,6,0,P|184:352|208:344,1,80,2|0,0:0|0:0,0:0:0:0:
264,280,9272,2,0,P|303:273|342:279,1,80,2|0,0:0|0:0,0:0:0:0:
436,320,9897,6,0,B|456:268|424:208|424:208|448:152|420:84,1,240,6|0,0:0|0:0,0:0:0:0:
332,56,11147,5,2,0:0:0:0:
196,252,12397,5,0,0:0:0:0:
180,56,13647,5,0,0:0:0:0:
316,252,14897,6,0,P|288:328|136:360,1,240,4|0,0:0|0:0,0:0:0:0:
80,284,16147,5,0,0:0:0:0:
264,132,17397,5,0,0:0:0:0:
316,368,18647,5,0,0:0:0:0:
148,144,19897,6,0,P|176:68|328:36,1,240,4|0,0:0|0:0,0:0:0:0:
384,104,21147,5,0,0:0:0:0:
192,248,22396,5,0,0:0:0:0:
432,228,23647,5,0,0:0:0:0:
276,44,24897,5,0,0:0:0:0:
325,232,26147,6,0,B|326:289|294:340|294:340|235:372|165:364,1,240,4|0,0:0|0:0,0:0:0:0:
208,252,27397,5,0,0:0:0:0:
96,40,28647,5,0,0:0:0:0:
348,48,29897,6,0,P|400:64|440:56,1,80,2|0,0:0|0:0,0:0:0:0:
488,12,30365,2,0,L|472:136,1,120,2|0,0:0|0:0,0:0:0:0:
400,204,31147,6,0,P|396:268|400:296,1,80,6|0,0:0|0:0,0:0:0:0:
308,332,31772,2,0,L|256:328,1,40,8|0,0:0|0:0,0:0:0:0:
208,280,32084,2,0,P|144:276|112:280,1,80,0|2,0:0|0:0,0:0:0:0:
44,328,32709,1,0,0:0:0:0:
48,228,33022,2,0,B|40:184|56:152|56:152|52:136|52:136|68:88|44:56,1,160,8|2,0:0|0:0,0:0:0:0:
136,20,33959,5,0,0:0:0:0:
216,80,34272,2,0,L|256:104,1,40,8|0,0:0|0:0,0:0:0:0:
332,104,34584,2,0,P|392:108|428:96,1,80,0|2,0:0|0:0,0:0:0:0:
496,52,35209,1,0,0:0:0:0:
496,148,35522,2,0,L|496:204,1,40,8|0,0:0|0:0,0:0:0:0:
448,252,35834,2,0,B|436:296|436:296|392:324,1,80,0|2,0:0|0:0,0:0:0:0:
320,272,36459,5,0,0:0:0:0:
236,224,36772,2,0,L|184:224,1,40,8|0,0:0|0:0,0:0:0:0:
124,192,37084,2,0,P|144:244|140:284,1,80,0|2,0:0|0:0,0:0:0:0:
48,256,37709,1,0,0:0:0:0:
24,156,38022,2,0,P|64:108|168:96,1,160,8|2,0:0|0:0,0:0:0:0:
256,192,38803,12,0,40522,0:0:0:0:
308,140,41147,6,0,P|364:144|400:136,1,80,4|0,0:0|0:0,0:0:0:0:
480,96,41772,2,0,P|488:152|480:188,1,80
408,244,42397,2,0,P|404:283|412:322,1,80
500,280,43022,1,0,0:0:0:0:
500,280,43647,6,0,B|388:280|388:280|328:296,1,160,4|0,0:0|0:0,0:0:0:0:
252,344,44584,1,0,0:0:0:0:
188,268,44897,2,0,P|168:292|152:340,1,80
52,336,45522,2,0,P|40:297|16:266,1,80
104,216,46147,5,4,0:0:0:0:
20,152,46459,1,0,0:0:0:0:
72,60,46772,2,0,B|128:60|128:60|160:40,1,80
240,16,47397,2,0,P|320:8|412:16,1,160
436,100,48647,6,0,P|384:128|344:224,1,160,4|0,0:0|0:0,0:0:0:0:
384,304,49584,1,0,0:0:0:0:
284,300,49897,2,0,P|240:304|188:296,1,80
140,224,50522,2,0,P|96:220|56:224,1,80
100,312,51147,5,0,0:0:0:0:
100,312,51459,2,0,P|104:232|104:136,1,160,2|0,0:0|0:0,0:0:0:0:
64,64,52397,2,0,B|108:48|152:64|152:64|196:48|236:64,1,160,2|0,0:0|0:0,0:0:0:0:
292,124,53334,1,2,0:0:0:0:
376,64,53647,5,0,0:0:0:0:
460,132,53959,2,0,L|460:228,2,80,2|0|0,0:0|0:0|0:0,0:0:0:0:
372,180,54897,2,0,B|372:236|372:236|372:292|296:312,1,160,2|0,0:0|0:0,0:0:0:0:
228,248,55834,1,0,0:0:0:0:
148,312,56147,6,0,B|84:295|84:239|84:239|84:183,1,160,2|0,0:0|0:0,0:0:0:0:
48,88,57084,1,0,0:0:0:0:
140,39,57397,2,0,P|179:36|219:38,1,80,2|0,0:0|0:0,0:0:0:0:
284,116,58022,2,0,P|323:118|363:114,1,80,2|0,0:0|0:0,0:0:0:0:
456,68,58647,6,0,L|456:164,1,80,2|0,0:0|0:0,0:0:0:0:
384,216,59272,2,0,P|308:220|212:216,1,160,2|0,0:0|0:0,0:0:0:0:
156,144,60209,2,0,L|136:96,2,40,2|2|2,0:0|0:0|0:0,0:0:0:0:
76,208,60834,1,0,0:0:0:0:
60,312,61147,6,0,B|88:332|88:332|148:336,1,80,4|0,0:0|0:0,0:0:0:0:
236,336,61772,2,0,L|316:336,1,80
404,284,62397,2,0,P|464:280|500:284,1,80
448,368,63022,1,0,0:0:0:0:
448,368,63647,6,0,B|448:284|448:284|408:204,1,160,4|0,0:0|0:0,0:0:0:0:
312,216,64584,1,0,0:0:0:0:
272,120,64897,2,0,P|224:64|136:64,1,160
180,152,65834,1,0,0:0:0:0:
76,136,66147,6,0,P|76:192|80:228,1,80,4|0,0:0|0:0,0:0:0:0:
176,256,66772,2,0,P|224:260|272:256,1,80
316,180,67397,2,0,P|355:178|395:182,1,80
480,244,68022,1,0,0:0:0:0:
480,244,68647,6,0,P|496:164|452:92,1,160,4|0,0:0|0:0,0:0:0:0:
356,100,69584,1,0,0:0:0:0:
280,32,69897,2,0,B|192:32|192:32|164:52|112:60,1,160
24,52,70834,1,0,0:0:0:0:
64,144,71147,5,0,0:0:0:0:
16,240,71459,2,0,P|64:248|112:236,1,80,2|0,0:0|0:0,0:0:0:0:
172,168,72084,1,0,0:0:0:0:
240,248,72397,2,0,P|288:256|336:244,1,80,2|0,0:0|0:0,0:0:0:0:
384,176,73022,2,0,P|423:184|462:178,1,80,2|0,0:0|0:0,0:0:0:0:
428,104,73647,5,0,0:0:0:0:
428,104,73959,2,0,L|428:200,1,80,2|0,0:0|0:0,0:0:0:0:
424,288,74584,1,0,0:0:0:0:
340,352,74897,2,0,B|312:368|276:368|276:368|172:364,1,160,2|0,0:0|0:0,0:0:0:0:
104,296,75834,1,0,0:0:0:0:
176,224,76147,6,0,P|184:184|176:128,1,80,2|0,0:0|0:0,0:0:0:0:
92,84,76772,2,0,P|88:44|96:5,1,80,2|0,0:0|0:0,0:0:0:0:
196,48,77397,2,0,L|280:48,1,80,2|0,0:0|0:0,0:0:0:0:
344,120,78022,2,0,L|428:120,1,80,2|0,0:0|0:0,0:0:0:0:
488,204,78647,6,0,P|492:248|488:300,2,80,2|0|0,0:0|0:0|0:0,0:0:0:0:
392,248,79584,1,2,0:0:0:0:
184,152,80209,2,0,P|180:212|184:236,1,80
272,272,80834,6,0,L|100:296,1,160
48,216,81772,1,8,0:0:0:0:
148,200,82084,2,0,P|192:232|204:260,1,80,0|2,0:0|0:0,0:0:0:0:
192,356,82709,1,0,0:0:0:0:
296,324,83022,2,0,P|348:316|388:328,1,80,8|0,0:0|0:0,0:0:0:0:
472,360,83647,6,0,L|484:276,1,80,2|0,0:0|0:0,0:0:0:0:
420,204,84272,1,8,0:0:0:0:
356,124,84584,2,0,L|368:40,2,80,0|2|0,0:0|0:0|0:0,0:0:0:0:
256,168,85522,2,0,P|212:160|176:136,1,80,8|0,0:0|0:0,0:0:0:0:
180,44,86147,6,0,P|152:116|80:152,1,160,2|8,0:0|0:0,0:0:0:0:
0,208,87084,1,0,0:0:0:0:
24,308,87397,2,0,P|68:332|108:332,1,80,2|0,0:0|0:0,0:0:0:0:
176,272,88022,1,8,0:0:0:0:
256,328,88334,1,0,0:0:0:0:
344,268,88647,6,0,L|416:212,1,80,2|0,0:0|0:0,0:0:0:0:
430,117,89272,1,8,0:0:0:0:
353,53,89584,2,0,P|281:53|261:57,1,80,0|2,0:0|0:0,0:0:0:0:
197,125,90209,1,0,0:0:0:0:
284,180,90522,2,0,P|284:220|280:264,1,80,8|0,0:0|0:0,0:0:0:0:
200,312,91147,6,0,P|276:296|368:312,1,160,2|8,0:0|0:0,0:0:0:0:
444,356,92084,1,0,0:0:0:0:
492,264,92397,2,0,P|492:216|488:180,1,80,2|0,0:0|0:0,0:0:0:0:
396,124,93022,2,0,P|392:84|392:44,1,80,8|0,0:0|0:0,0:0:0:0:
476,76,93647,6,0,L|304:92,1,160,2|2,0:0|0:0,0:0:0:0:
322,235,94897,6,0,L|164:208,1,160,2|2,0:0|0:0,0:0:0:0:
108,124,95834,5,0,0:0:0:0:
64,224,96147,2,0,B|52:264|52:264|68:312,1,80,2|0,0:0|0:0,0:0:0:0:
156,348,96772,2,0,L|240:352,1,80,8|0,0:0|0:0,0:0:0:0:
304,272,97397,2,0,P|352:268|400:276,1,80,2|0,0:0|0:0,0:0:0:0:
468,328,98022,2,0,P|488:288|484:240,1,80,8|0,0:0|0:0,0:0:0:0:
416,184,98647,6,0,B|400:144|400:120|400:120|364:104|348:76|348:76|320:48|264:52|248:80,1,240,2|2,0:0|0:0,0:0:0:0:
236,96,99740,5,2,0:0:0:0:
132,308,100522,5,2,0:0:0:0:
36,216,100834,5,2,0:0:0:0:
164,184,101147,6,0,P|208:204|236:240,1,80,2|0,0:0|0:0,0:0:0:0:
236,332,101772,2,0,P|275:332|312:316,1,80,10|0,0:0|0:0,0:0:0:0:
368,224,102397,2,0,P|404:208|444:208,1,80,2|0,0:0|0:0,0:0:0:0:
388,120,103022,2,0,L|352:48,1,80,8|0,0:0|0:0,0:0:0:0:
260,88,103647,5,2,0:0:0:0:
176,32,103959,1,0,0:0:0:0:
96,96,104272,2,0,P|96:164|88:188,1,80,10|0,0:0|0:0,0:0:0:0:
20,228,104897,2,0,P|96:212|188:236,1,160,2|10,0:0|0:0,0:0:0:0:
228,312,105834,1,0,0:0:0:0:
312,244,106147,6,0,P|352:240|408:248,1,80,2|0,0:0|0:0,0:0:0:0:
480,304,106772,2,0,L|492:224,1,80,10|0,0:0|0:0,0:0:0:0:
420,144,107397,2,0,L|410:63,1,80,2|0,0:0|0:0,0:0:0:0:
304,24,108022,2,0,L|276:56,2,40,10|0|0,0:0|0:0|0:0,0:0:0:0:
200,16,108647,6,0,P|188:52|208:100,1,80,2|0,0:0|0:0,0:0:0:0:
104,136,109272,2,0,P|87:102|38:82,1,80,10|0,0:0|0:0,0:0:0:0:
20,168,109897,1,2,0:0:0:0:
96,236,110209,2,0,L|120:280,1,40
168,332,110522,2,0,L|252:360,1,80,10|0,0:0|0:0,0:0:0:0:
320,280,111147,6,0,P|400:264|480:280,1,160,2|10,0:0|0:0,0:0:0:0:
400,348,112084,1,0,0:0:0:0:
396,236,112397,2,0,P|400:184|388:144,1,80,2|0,0:0|0:0,0:0:0:0:
312,88,113022,2,0,P|304:48|309:9,1,80,8|0,0:0|0:0,0:0:0:0:
392,48,113647,6,0,B|316:60|316:60|228:48,1,160,2|2,0:0|0:0,0:0:0:0:
72,200,114897,6,0,B|148:209|148:209|229:245,1,160,2|2,0:0|0:0,0:0:0:0:
296,312,115834,5,0,0:0:0:0:
368,228,116147,2,0,L|400:144,1,80,2|0,0:0|0:0,0:0:0:0:
332,72,116772,2,0,P|296:56|248:52,1,80,10|0,0:0|0:0,0:0:0:0:
176,116,117397,1,2,0:0:0:0:
268,156,117709,1,0,0:0:0:0:
180,216,118022,2,0,P|140:211|103:195,1,80,10|0,0:0|0:0,0:0:0:0:
68,104,118647,6,0,L|104:28,1,80,2|0,0:0|0:0,0:0:0:0:
180,20,119115,2,0,P|220:40|272:40,1,80,2|0,0:0|0:0,0:0:0:0:
332,24,119584,1,2,0:0:0:0:
388,132,119897,5,6,0:0:0:0:
256,192,120053,12,0,122397,0:0:0:0:
