osu file format v14

[General]
AudioFilename: audio.mp3
AudioLeadIn: 0
PreviewTime: 44326
Countdown: 1
SampleSet: None
StackLeniency: 0.7
Mode: 0
LetterboxInBreaks: 0
WidescreenStoryboard: 0

[Editor]
DistanceSpacing: 1.2
BeatDivisor: 4
GridSize: 16
TimelineZoom: 1

[Metadata]
Title:Sweet Dreams (11t dnb mix)
TitleUnicode:Sweet Dreams (11t dnb mix)
Artist:Kana Nishino
ArtistUnicode:西野カナ
Creator:Giralda
Version:Insane
Source:
Tags:
BeatmapID:1099353
BeatmapSetID:517394

[Difficulty]
HPDrainRate:6.5
CircleSize:4
OverallDifficulty:6
ApproachRate:9
SliderMultiplier:1.7
SliderTickRate:1

[Events]
//Background and Video events
0,0,"eleventea.jpg",0,0
//Break Periods
//Storyboard Layer 0 (Background)
//Storyboard Layer 1 (Fail)
//Storyboard Layer 2 (Pass)
//Storyboard Layer 3 (Foreground)
//Storyboard Sound Samples

[TimingPoints]
530,342.857142857143,4,2,1,40,1,0
16987,-125,4,2,1,60,0,0
21615,-125,4,2,1,70,0,0
22472,-125,4,2,1,75,0,0
33101,-100,4,2,1,75,0,0
38244,-100,4,2,0,70,0,0
38415,-100,4,2,1,70,0,0
38930,-125,4,2,1,50,0,0
41158,-125,4,2,1,70,0,0
41672,-100,4,2,1,75,0,0
43215,-100,4,2,1,60,0,0
44415,-133.333333333333,4,2,1,70,0,0
49901,-111.111111111111,4,2,1,70,0,0
54358,-111.111111111111,4,2,1,80,0,0
55044,-100,4,2,1,90,0,1
55387,-83.3333333333333,4,2,1,90,0,0
55730,-83.3333333333333,4,2,1,90,0,0
63615,-100,4,2,1,90,0,0
69101,-100,4,2,1,50,0,0
78701,-133.333333333333,4,2,1,50,0,0
79730,-83.3333333333333,4,2,1,50,0,0
80072,-100,4,2,1,80,0,0
89672,-100,4,2,1,30,0,0
90701,-83.3333333333333,4,2,1,55,0,0
91044,-100,4,2,1,80,0,0
102015,-133.333333333333,4,2,1,70,0,0
107501,-111.111111111111,4,2,1,75,0,0
108530,-83.3333333333333,4,2,1,75,0,0
108872,-100,4,2,1,80,0,0
109901,-83.3333333333333,4,2,1,80,0,0
112644,-83.3333333333333,4,2,1,95,0,1
112987,-83.3333333333333,4,2,1,90,0,0
121215,-100,4,2,1,75,0,0
126701,-100,4,2,1,65,0,0

[Colours]
Combo1 : 255,94,55
Combo2 : 173,255,95
Combo3 : 17,254,176
Combo4 : 255,88,100

[HitObjects]
62,285,530,6,0,P|53:244|49:202,1,85,0|0,1:0|0:0,0:0:0:0:
137,157,872,1,8,0:0:0:0:
159,317,1044,2,0,L|148:358,2,42.5,0|0|2,0:0|0:0|0:0,0:0:0:0:
245,272,1387,2,0,L|337:286,1,85,0|8,1:0|0:0,0:0:0:0:
407,326,1730,1,2,0:0:0:0:
459,170,1901,6,0,P|466:212|470:255,1,85,2|0,1:2|0:0,0:0:0:0:
407,326,2244,1,8,0:0:0:0:
298,218,2415,1,0,0:0:0:0:
298,218,2501,1,0,0:0:0:0:
298,218,2587,1,2,0:0:0:0:
459,170,2758,1,0,1:0:0:0:
376,101,2930,2,0,P|334:92|293:82,1,85,8|2,0:0|0:0,0:0:0:0:
133,156,3272,6,0,P|174:164|215:174,1,85,2|0,1:2|0:0,0:0:0:0:
298,218,3615,1,8,0:0:0:0:
206,68,3787,2,0,L|217:27,2,42.5,0|0|2,0:0|0:0|0:0,0:0:0:0:
215,174,4130,1,0,1:0:0:0:
57,265,4301,2,0,P|98:254|139:246,1,85,8|2,0:0|0:0,0:0:0:0:
79,174,4644,5,2,1:2:0:0:
61,346,4815,1,0,0:0:0:0:
242,369,4987,2,0,L|229:283,1,85,10|2,0:0|0:0,0:0:0:0:
227,272,5244,1,0,0:0:0:0:
227,272,5330,1,0,0:0:0:0:
331,233,5501,1,2,1:2:0:0:
349,337,5672,1,8,0:0:0:0:
450,293,5844,1,2,1:2:0:0:
432,189,6015,6,0,P|425:146|422:104,1,85,0|0,1:0|0:0,0:0:0:0:
331,233,6358,2,0,P|334:275|340:317,1,85,10|0,0:0|0:0,0:0:0:0:
349,337,6615,1,0,0:0:0:0:
349,337,6701,1,0,0:0:0:0:
272,148,6872,1,2,1:2:0:0:
235,283,7044,2,0,P|193:273|151:267,1,85,8|2,0:0|0:0,0:0:0:0:
56,185,7387,6,0,P|98:178|139:169,1,85,2|0,1:2|0:0,0:0:0:0:
202,92,7730,1,8,0:0:0:0:
235,283,7901,1,0,0:0:0:0:
235,283,7987,1,0,0:0:0:0:
235,283,8072,1,2,0:0:0:0:
151,267,8244,5,2,1:2:0:0:
292,210,8415,1,10,0:0:0:0:
139,169,8587,1,0,0:0:0:0:
267,28,8758,6,0,P|275:70|281:128,1,85,2|0,1:2|0:0,0:0:0:0:
292,210,9101,1,8,0:0:0:0:
139,169,9272,2,0,L|97:159,2,42.5
275,277,9615,1,2,1:2:0:0:
145,247,9787,1,8,0:0:0:0:
266,311,9958,1,2,1:2:0:0:
136,281,10130,5,0,0:0:0:0:
285,244,10301,1,0,1:0:0:0:
186,85,10472,1,8,0:0:0:0:
145,247,10644,5,0,1:0:0:0:
136,281,10730,1,0,1:0:0:0:
126,314,10815,1,8,0:2:0:0:
266,311,10987,1,0,1:0:0:0:
276,278,11072,1,0,1:0:0:0:
285,244,11158,1,8,0:2:0:0:
186,85,11330,1,0,1:0:0:0:
87,55,11501,6,0,P|81:97|76:144,1,85,2|2,0:0|0:0,0:0:0:0:
145,247,11844,1,10,0:0:0:0:
245,218,12015,1,2,0:0:0:0:
245,218,12101,1,2,0:0:0:0:
245,218,12187,2,0,P|254:176|258:134,1,85,0|0,0:0|1:0,0:0:0:0:
186,85,12530,1,10,0:0:0:0:
337,60,12701,6,0,P|345:101|349:143,1,85,0|0,0:0|1:0,0:0:0:0:
336,240,13044,1,2,0:0:0:0:
182,339,13215,2,0,P|229:332|269:330,1,85,8|0,0:0|0:0,0:0:0:0:
282,332,13472,1,0,0:0:0:0:
282,332,13558,1,0,0:0:0:0:
120,235,13730,1,2,1:2:0:0:
275,217,13901,1,8,0:0:0:0:
120,235,14072,1,2,0:0:0:0:
37,176,14244,6,0,P|30:134|26:91,1,85,2|0,1:2|0:0,0:0:0:0:
111,42,14587,1,8,0:0:0:0:
219,174,14758,1,0,0:0:0:0:
219,174,14844,1,0,0:0:0:0:
219,174,14930,2,0,P|215:216|208:258,1,85,2|0,0:0|1:0,0:0:0:0:
120,235,15272,1,8,0:0:0:0:
339,330,15444,6,0,P|254:338|170:353,1,170,2|0,1:2|0:0,0:0:0:0:
407,249,15958,2,0,P|451:244|497:235,1,85,10|0,0:2|0:0,0:0:0:0:
505,230,16215,1,0,0:0:0:0:
505,230,16301,1,0,0:0:0:0:
295,169,16472,1,0,1:0:0:0:
428,144,16644,1,8,0:0:0:0:
295,169,16815,1,2,0:0:0:0:
39,216,16987,6,0,P|42:284|51:352,2,136,4|8|0,0:0|1:2|1:0,0:0:0:0:
221,239,17844,1,2,0:0:0:0:
134,259,18015,1,0,0:0:0:0:
154,347,18187,1,0,0:0:0:0:
375,306,18358,6,0,P|308:311|242:327,2,136,4|8|0,0:0|1:2|1:0,0:0:0:0:
134,259,19215,2,0,P|126:225|122:192,1,68,2|8,0:0|0:0,0:0:0:0:
153,102,19558,1,2,0:0:0:0:
320,242,19730,5,0,1:0:0:0:
358,148,19901,1,2,1:2:0:0:
267,102,20072,1,8,0:0:0:0:
229,196,20243,1,0,1:0:0:0:
435,280,20415,5,2,1:2:0:0:
409,184,20586,1,0,1:0:0:0:
311,214,20758,1,8,0:0:0:0:
338,309,20930,1,2,1:2:0:0:
55,279,21101,5,0,1:0:0:0:
85,280,21186,1,0,1:0:0:0:
113,292,21272,1,0,1:0:0:0:
139,308,21358,1,0,1:0:0:0:
168,317,21444,2,0,L|185:274,3,34,4|0|0|0,0:0|0:0|0:0|0:0,0:0:0:0:
290,268,21787,2,0,L|273:224,3,34,2|0|0|0,0:0|0:0|0:0|0:0,0:0:0:0:
189,184,22130,1,4,0:0:0:0:
262,71,22301,1,8,0:0:0:0:
262,71,22387,1,8,0:0:0:0:
261,71,22472,6,0,P|294:68|328:65,1,68,6|0,0:0|0:0,0:0:0:0:
169,58,22815,1,10,0:0:0:0:
407,94,22987,2,0,L|439:84,2,34,2|0|0,0:0|0:0|0:0,0:0:0:0:
338,166,23330,2,0,P|333:199|329:233,1,68,2|10,1:2|0:0,0:0:0:0:
321,323,23672,1,2,0:0:0:0:
493,243,23844,6,0,P|461:231|428:223,1,68,0|2,1:2|0:0,0:0:0:0:
242,195,24187,1,10,0:0:0:0:
354,63,24358,2,0,L|365:26,2,34,2|0|0,0:0|0:0|0:0,0:0:0:0:
329,233,24701,1,0,1:2:0:0:
319,138,24872,1,8,0:0:0:0:
403,175,25044,1,0,0:0:0:0:
118,194,25215,6,0,P|84:193|51:191,1,68,2|2,1:2|0:0,0:0:0:0:
242,195,25558,1,8,0:0:0:0:
260,67,25730,1,2,0:0:0:0:
260,67,25815,1,0,0:0:0:0:
260,67,25901,1,0,0:0:0:0:
356,33,26072,1,2,1:2:0:0:
378,155,26244,1,10,0:0:0:0:
394,248,26415,6,0,L|402:315,1,68,2|0,1:2|0:0,0:0:0:0:
159,317,26758,2,0,L|151:249,1,68,2|8,1:2|0:0,0:0:0:0:
277,280,27101,1,2,1:2:0:0:
281,313,27186,1,0,0:0:0:0:
285,347,27272,1,0,0:0:0:0:
42,349,27444,2,0,L|34:281,1,68,2|8,1:2|0:0,0:0:0:0:
15,154,27787,1,2,1:2:0:0:
151,249,27958,5,0,1:0:0:0:
226,186,28130,2,0,L|300:202,1,68,2|8,0:0|0:0,0:0:0:0:
419,133,28472,1,2,0:0:0:0:
385,125,28557,1,0,0:0:0:0:
352,118,28644,2,0,L|263:98,1,68,0|2,0:0|1:2,0:0:0:0:
94,73,28987,1,8,0:0:0:0:
109,186,29158,1,2,0:0:0:0:
38,139,29330,5,2,1:2:0:0:
162,122,29501,1,2,0:0:0:0:
285,103,29672,1,8,0:0:0:0:
216,54,29844,1,2,0:0:0:0:
216,54,29930,1,0,0:0:0:0:
216,54,30015,1,0,0:0:0:0:
233,176,30187,1,2,1:2:0:0:
132,299,30358,1,10,0:0:0:0:
132,299,30530,6,0,P|198:285|266:277,1,136,2|2,1:2|0:0,0:0:0:0:
436,241,31044,1,10,0:0:0:0:
316,172,31215,1,2,0:0:0:0:
456,238,31387,1,10,1:2:0:0:
356,313,31558,1,10,0:2:0:0:
476,236,31730,1,8,1:2:0:0:
290,164,31901,1,10,0:0:0:0:
496,234,32072,5,0,1:0:0:0:
476,236,32415,1,0,1:0:0:0:
456,238,32758,1,0,1:0:0:0:
436,241,33101,6,0,P|374:229|330:184,1,127.5,4|0,0:2|0:0,0:0:0:0:
327,172,33444,6,0,L|410:157,1,85,2|2,1:2|0:0,0:0:0:0:
252,106,33787,1,10,0:0:0:0:
409,69,33958,1,2,0:0:0:0:
409,69,34044,1,0,0:0:0:0:
409,69,34130,1,0,0:0:0:0:
251,106,34301,2,2,P|209:101|168:92,1,85,0|10,1:0|0:0,0:0:0:0:
16,35,34644,1,2,0:0:0:0:
63,247,34815,6,0,P|132:199|215:207,1,170,2|10,1:2|0:0,0:0:0:0:
394,275,35330,1,2,0:0:0:0:
391,249,35415,1,0,0:0:0:0:
388,223,35501,1,0,0:0:0:0:
288,117,35672,1,0,1:0:0:0:
299,226,35844,1,8,0:0:0:0:
288,117,36015,1,2,1:2:0:0:
481,138,36187,6,0,P|440:130|399:119,1,85,2|2,1:2|0:0,0:0:0:0:
273,12,36530,1,8,0:0:0:0:
299,226,36701,1,2,0:0:0:0:
299,226,36787,1,0,0:0:0:0:
299,226,36872,1,0,0:0:0:0:
215,298,37044,2,0,L|116:282,1,85,2|8,1:2|0:0,0:0:0:0:
41,225,37387,6,0,P|29:162|29:98,1,127.5,2|0,1:3|0:0,0:0:0:0:
38,86,37730,5,2,1:3:0:0:
141,105,37901,2,0,L|58:89,1,85,10|2,0:0|0:0,0:0:0:0:
38,86,38158,1,0,0:0:0:0:
38,86,38244,1,8,0:1:0:0:
246,212,38415,2,0,L|162:196,1,85,2|8,1:2|0:0,0:0:0:0:
284,93,38758,1,2,0:0:0:0:
372,172,38930,6,0,P|382:205|388:239,1,68,4|0,0:1|0:0,0:0:0:0:
297,345,39272,2,0,P|307:312|313:278,1,68,0|0,1:0|0:0,0:0:0:0:
209,216,39615,2,0,L|276:206,1,68,0|0,1:0|0:0,0:0:0:0:
175,139,39958,2,0,L|107:148,1,68,0|0,1:0|0:0,0:0:0:0:
113,344,40301,6,0,L|124:276,1,68,0|0,1:0|0:0,0:0:0:0:
33,198,40644,2,8,L|21:265,1,68,0|0,1:0|0:0,0:0:0:0:
210,324,40987,1,0,1:0:0:0:
175,139,41158,1,8,0:0:0:0:
175,139,41244,1,8,0:0:0:0:
175,139,41330,1,8,0:0:0:0:
113,344,41501,1,0,1:0:0:0:
303,298,41672,6,0,L|210:282,1,85,6|2,0:0|0:0,0:0:0:0:
449,320,42015,1,10,0:0:0:0:
512,185,42187,2,0,P|428:182|370:123,1,170,4|0,0:0|1:0,0:0:0:0:
303,298,42701,1,8,0:0:0:0:
224,169,42872,6,0,P|216:126|220:83,1,85,4|0,0:0|0:0,0:0:0:0:
42,145,43215,2,0,L|126:135,1,85,0|8,1:0|1:2,0:0:0:0:
357,114,43558,1,0,1:0:0:0:
357,114,43730,6,2,L|368:58,2,56.6666666666667,2|0|0,0:0|0:0|0:0,0:0:0:0:
431,191,44072,2,0,L|442:135,2,56.6666666666667,2|0|0,0:0|0:0|0:0,0:0:0:0:
479,275,44415,6,0,P|416:289|366:311,1,95.6250036478044,4|2,0:1|0:0,0:0:0:0:
371,307,44758,1,0,0:0:0:0:
302,243,44930,1,2,0:0:0:0:
289,379,45101,2,0,P|244:360|198:349,1,95.6250036478044,2|2,0:0|0:0,0:0:0:0:
181,347,45444,1,0,0:0:0:0:
204,195,45615,1,2,0:0:0:0:
10,309,45787,6,0,P|57:305|103:294,1,95.6250036478044,2|2,0:0|0:0,0:0:0:0:
117,282,46130,1,0,0:0:0:0:
137,161,46301,1,2,0:0:0:0:
193,271,46472,1,0,0:0:0:0:
83,214,46644,1,2,0:0:0:0:
204,195,46815,1,0,0:0:0:0:
117,282,46987,1,2,0:0:0:0:
330,328,47158,6,0,P|341:293|346:225,1,95.6250036478044,2|2,0:0|0:0,0:0:0:0:
338,219,47501,1,0,0:0:0:0:
417,343,47672,1,2,0:0:0:0:
130,205,47844,2,0,L|234:194,1,95.6250036478044,2|2,0:0|0:0,0:0:0:0:
242,192,48187,1,0,0:0:0:0:
338,219,48358,1,2,0:0:0:0:
432,251,48530,6,0,P|448:206|453:158,1,95.6250036478044,2|2,1:2|0:0,0:0:0:0:
447,141,48872,1,0,1:0:0:0:
386,37,49044,1,2,0:0:0:0:
386,37,49215,2,0,P|375:66|370:98,1,63.7500024318696,2|0,1:2|0:0,0:0:0:0:
313,298,49558,2,0,P|307:266|297:236,1,63.7500024318696,2|0,1:2|0:0,0:0:0:0:
107,193,49901,6,0,B|15:210|15:210|41:227,2,114.749996498108,2|2|0,1:2|1:2|1:0,0:0:0:0:
227,215,50587,2,0,L|238:118,1,76.4999976654053,8|0,1:2|0:0,0:0:0:0:
238,117,50844,1,0,0:0:0:0:
238,117,50930,1,0,1:2:0:0:
251,26,51101,1,0,0:0:0:0:
326,196,51272,6,0,L|340:63,1,114.749996498108,4|2,1:2|1:2,0:0:0:0:
348,3,51615,1,8,1:2:0:0:
326,196,51787,1,2,1:2:0:0:
448,14,51958,6,0,B|465:47|465:47|463:87,1,76.4999976654053,2|0,1:2|0:0,0:0:0:0:
253,210,52301,2,0,B|288:193|288:193|325:195,1,76.4999976654053,8|2,0:0|0:0,0:0:0:0:
512,240,52644,5,2,1:2:0:0:
380,260,52815,1,2,0:2:0:0:
433,176,52987,1,2,0:2:0:0:
456,308,53158,1,2,1:2:0:0:
253,210,53330,5,0,1:0:0:0:
385,137,53501,1,2,0:2:0:0:
370,289,53672,1,2,1:2:0:0:
178,195,53844,5,2,1:2:0:0:
297,115,54015,6,0,L|288:67,1,38.2499988327027,0|0,1:0|0:0,0:0:0:0:
363,37,54187,2,0,L|356:0,1,38.2499988327027,0|0,1:0|0:0,0:0:0:0:
441,81,54358,5,2,1:2:0:0:
458,115,54444,1,0,0:0:0:0:
458,153,54530,1,0,0:0:0:0:
442,187,54615,5,0,0:0:0:0:
409,207,54701,5,14,1:2:0:0:
370,209,54787,5,2,0:0:0:0:
333,218,54872,5,2,0:0:0:0:
305,244,54958,5,0,0:0:0:0:
294,280,55044,6,2,L|303:322,1,42.5,14|2,1:2|0:0,0:0:0:0:
228,384,55215,6,0,L|219:343,1,42.5,0|0,0:2|0:0,0:0:0:0:
48,313,55387,6,0,L|149:300,1,101.999996887207,4|0,0:0|0:0,0:0:0:0:
225,118,55730,2,0,L|123:130,1,101.999996887207,12|0,0:0|0:0,0:0:0:0:
387,315,56072,2,0,B|411:267|411:267|387:171,2,152.999995330811,12|4|2,0:0|1:2|0:0,0:0:0:0:
494,275,56758,6,0,L|469:176,1,101.999996887207,6|0,0:0|0:0,0:0:0:0:
302,160,57101,2,0,L|326:258,1,101.999996887207,12|0,0:0|0:0,0:0:0:0:
50,309,57444,2,0,B|79:277|79:277|130:260|187:286,2,152.999995330811,0|0|4,1:0|1:0|0:0,0:0:0:0:
254,331,58130,6,0,P|269:282|273:231,1,101.999996887207,4|0,0:0|0:0,0:0:0:0:
342,59,58472,2,0,P|345:109|361:158,1,101.999996887207,12|0,0:0|0:0,0:0:0:0:
512,289,58815,2,0,B|465:263|465:263|368:287,2,152.999995330811,12|4|4,1:2|1:2|0:0,0:0:0:0:
466,181,59501,5,2,0:0:0:0:
451,184,59586,1,2,0:0:0:0:
436,188,59672,1,2,0:0:0:0:
421,191,59758,1,2,0:0:0:0:
406,195,59844,2,0,L|356:206,1,50.9999984436036,2|0,0:0|0:0,0:0:0:0:
291,256,60015,2,0,L|277:206,1,50.9999984436036,2|0,0:0|0:0,0:0:0:0:
209,125,60187,2,0,B|170:154|170:154|154:189|164:256,2,152.999995330811,0|0|0,1:0|1:0|1:0,0:0:0:0:
477,84,60872,6,0,P|426:76|377:63,1,101.999996887207,4|0,0:0|0:0,0:0:0:0:
277,206,61215,2,0,P|326:193|376:185,1,101.999996887207,4|0,0:0|0:0,0:0:0:0:
485,280,61558,2,0,B|433:330|433:330|353:319,2,152.999995330811,4|4|4,0:0|0:0|0:0,0:0:0:0:
376,185,62244,5,0,1:0:0:0:
278,326,62415,2,0,L|270:376,2,50.9999984436036,0|0|8,0:0|0:0|0:0,0:0:0:0:
353,112,62758,5,2,0:0:0:0:
404,115,62844,1,0,0:0:0:0:
441,149,62930,1,2,0:0:0:0:
447,199,63015,1,0,0:0:0:0:
420,242,63101,1,0,0:0:0:0:
371,258,63187,1,2,0:0:0:0:
323,239,63272,1,10,0:0:0:0:
272,232,63358,1,0,0:0:0:0:
222,245,63444,2,0,L|213:302,1,50.9999984436036
144,336,63615,6,0,P|127:253|131:169,1,170,4|8,0:0|0:0,0:0:0:0:
213,50,64130,2,0,P|230:133|226:217,1,170,4|0,0:0|0:0,0:0:0:0:
222,245,64558,1,0,0:0:0:0:
222,245,64644,1,8,0:0:0:0:
473,127,64815,6,0,B|419:117|419:117|369:138|369:138|309:127,1,170,4|2,0:0|0:0,0:0:0:0:
479,212,65330,1,8,0:0:0:0:
345,227,65501,1,2,0:0:0:0:
486,311,65672,1,0,0:0:0:0:
456,314,65757,1,0,0:0:0:0:
426,318,65843,1,0,0:0:0:0:
397,321,65929,1,0,0:0:0:0:
367,325,66015,1,8,0:0:0:0:
234,328,66187,1,2,0:0:0:0:
333,142,66358,6,0,P|342:183|344:225,1,85,0|0,1:0|0:0,0:0:0:0:
344,226,66615,1,0,0:0:0:0:
344,226,66701,1,8,0:0:0:0:
234,328,66872,2,0,P|224:286|222:244,1,85
222,244,67130,5,0,0:0:0:0:
222,244,67216,1,0,0:0:0:0:
74,100,67387,2,0,L|52:96,1,14.1666666666667,10|0,0:0|0:0,0:0:0:0:
60,96,69101,6,0,P|55:139|49:181,1,85,0|0,1:0|0:0,0:0:0:0:
137,286,69444,2,0,P|142:243|147:201,1,85,0|0,1:0|0:0,0:0:0:0:
306,333,69787,2,0,B|345:311|345:311|427:324,2,127.5,8|8|8,0:0|0:0|0:0,0:0:0:0:
499,251,70472,6,0,L|414:238,1,85,0|0,1:0|0:0,0:0:0:0:
348,107,70815,2,0,L|432:119,1,85,0|0,1:0|0:0,0:0:0:0:
236,205,71158,2,0,B|257:164|257:164|239:76,2,127.5,8|8|8,0:0|0:0|0:0,0:0:0:0:
27,289,71844,6,0,B|60:260|60:260|101:259,1,85,0|0,1:0|0:0,0:0:0:0:
249,337,72187,2,0,B|216:366|216:366|174:366,1,85,0|0,1:0|0:0,0:0:0:0:
46,163,72530,2,0,L|31:30,2,127.5,8|8|8,0:0|0:0|0:0,0:0:0:0:
243,227,73215,6,0,P|213:196|173:181,1,85,0|0,1:0|0:0,0:0:0:0:
240,47,73558,2,8,P|211:78|173:95,1,85,0|0,1:0|0:0,0:0:0:0:
331,199,73901,2,0,B|303:141|303:141|336:87,2,127.5,8|8|8,0:0|0:0|0:0,0:0:0:0:
468,316,74587,6,0,P|428:300|381:294,1,85,0|0,1:0|0:0,0:0:0:0:
220,382,74930,2,0,P|261:375|301:360,1,85,0|0,1:0|0:0,0:0:0:0:
464,181,75272,2,0,L|313:164,2,127.5,8|8|8,0:0|0:0|0:0,0:0:0:0:
221,219,75958,6,0,B|205:178|205:178|218:132,1,85,0|0,1:0|0:0,0:0:0:0:
96,23,76301,2,0,B|107:62|107:62|91:103,1,85,0|0,1:0|0:0,0:0:0:0:
30,328,76644,2,0,B|71:303|71:303|147:323,2,127.5,8|8|8,0:0|0:0|0:0,0:0:0:0:
240,372,77330,6,0,P|269:293|263:209,1,170,2|8,1:2|0:0,0:0:0:0:
262,208,78015,1,8,0:0:0:0:
155,222,78187,1,8,0:0:0:0:
141,115,78358,1,8,0:0:0:0:
248,101,78530,1,8,0:0:0:0:
359,125,78701,6,0,L|484:150,2,127.500004863739,2|2|2,1:2|1:2|1:2,0:0:0:0:
359,125,79730,6,0,B|332:133|293:121|293:121|273:141|273:141|245:132|215:133,1,152.999995330811,4|0,0:0|0:0,0:0:0:0:
199,125,80072,6,0,L|191:209,1,85,4|2,1:0|0:0,0:0:0:0:
138,68,80415,1,8,0:0:0:0:
273,248,80587,2,0,L|328:237,2,42.5,2|0|2,0:0|0:0|0:0,0:0:0:0:
98,177,80930,2,0,L|90:261,1,85,2|10,1:2|0:0,0:0:0:0:
31,342,81272,1,2,0:0:0:0:
281,332,81444,6,0,L|273:248,1,85,2|0,1:2|0:0,0:0:0:0:
255,79,81787,1,10,0:0:0:0:
369,267,81958,2,0,L|411:276,2,42.5,2|0|0,0:0|0:0|0:0,0:0:0:0:
208,299,82301,1,2,1:2:0:0:
333,193,82472,1,10,0:0:0:0:
255,79,82644,1,2,1:2:0:0:
281,332,82815,5,0,1:0:0:0:
175,219,82987,1,2,0:0:0:0:
175,219,83072,1,0,0:0:0:0:
174,219,83158,2,0,P|132:217|90:212,1,85,8|2,0:0|0:0,0:0:0:0:
130,314,83501,1,0,0:0:0:0:
227,285,83673,1,2,1:2:0:0:
324,256,83844,1,10,0:0:0:0:
387,108,84015,6,0,B|409:142|409:142|407:186,1,85,6|0,0:2|0:0,0:0:0:0:
246,363,84358,2,0,B|224:329|224:329|226:285,1,85,6|8,0:0|0:0,0:0:0:0:
458,284,84701,2,0,L|373:272,1,85,6|0,0:0|0:0,0:0:0:0:
161,151,85044,1,6,0:0:0:0:
194,155,85129,1,0,0:0:0:0:
228,160,85215,1,8,0:0:0:0:
91,92,85387,1,6,0:0:0:0:
313,171,85558,5,2,1:2:0:0:
168,330,85730,2,0,L|150:246,1,85,2|10,0:0|0:0,0:0:0:0:
194,155,86072,1,2,0:0:0:0:
68,288,86244,1,2,0:0:0:0:
244,340,86415,1,0,0:0:0:0:
153,129,86587,5,8,0:0:0:0:
178,282,86758,1,2,0:0:0:0:
297,187,86930,5,0,1:0:0:0:
114,124,87101,1,2,0:0:0:0:
266,81,87272,2,0,B|342:63|350:119|430:107,1,170,10|2,0:0|0:0,0:0:0:0:
496,280,87787,2,0,L|513:196,1,85,2|8,0:0|0:0,0:0:0:0:
383,360,88130,1,0,0:0:0:0:
383,360,88215,1,0,0:0:0:0:
383,360,88301,6,0,L|366:276,1,85,2|0,0:0|1:0,0:0:0:0:
271,341,88644,1,10,1:2:0:0:
305,122,88815,1,2,0:0:0:0:
204,301,88987,1,2,0:0:0:0:
213,103,89158,1,2,1:2:0:0:
129,289,89329,1,10,1:2:0:0:
120,89,89501,1,2,0:0:0:0:
58,319,89672,5,2,1:2:0:0:
129,289,90015,1,0,1:0:0:0:
204,301,90358,1,2,1:2:0:0:
271,341,90701,6,0,B|309:345|309:345|338:333|338:333|376:353|426:333,1,152.999995330811,12|0,0:0|0:0,0:0:0:0:
447,318,91044,6,0,L|462:234,1,85,4|2,1:2|0:0,0:0:0:0:
512,156,91387,1,10,0:0:0:0:
329,83,91558,2,0,L|308:29,2,42.5,2|0|0,0:0|0:0|0:0,0:0:0:0:
236,206,91901,1,2,1:2:0:0:
190,112,92072,1,10,0:0:0:0:
132,197,92244,1,2,0:0:0:0:
280,167,92415,5,0,1:0:0:0:
227,26,92587,1,2,0:0:0:0:
212,225,92758,1,10,0:0:0:0:
390,136,92930,1,2,0:0:0:0:
390,136,93015,1,0,0:0:0:0:
390,136,93101,1,0,0:0:0:0:
181,145,93272,2,0,P|138:140|96:134,1,85,2|8,1:2|0:0,0:0:0:0:
44,288,93615,1,2,0:0:0:0:
130,334,93787,6,0,P|172:327|214:322,1,85,2|0,1:2|0:0,0:0:0:0:
343,172,94130,1,10,0:0:0:0:
327,365,94301,1,2,0:0:0:0:
327,365,94387,1,0,0:0:0:0:
327,365,94472,1,0,0:0:0:0:
215,323,94644,1,2,1:2:0:0:
398,277,94815,1,10,0:0:0:0:
222,204,94987,6,0,P|158:199|94:193,1,127.5,2|0,1:3|0:0,0:0:0:0:
74,191,95330,1,2,1:3:0:0:
229,118,95501,1,10,0:0:0:0:
216,288,95672,2,0,L|221:203,1,85,0|2,0:0|0:0,0:0:0:0:
345,65,96015,1,0,1:2:0:0:
328,176,96187,1,10,0:0:0:0:
221,203,96358,1,2,1:2:0:0:
88,60,96530,6,0,P|169:44|234:94,1,170,4|2,1:2|1:2,0:0:0:0:
75,228,97044,1,2,0:0:0:0:
148,128,97215,1,2,1:2:0:0:
148,252,97387,1,2,0:0:0:0:
75,151,97558,1,2,1:2:0:0:
192,190,97730,2,0,P|235:185|284:177,1,85,2|0,0:0|1:0,0:0:0:0:
460,324,98072,5,2,0:0:0:0:
330,267,98244,1,2,1:2:0:0:
486,214,98415,1,2,0:0:0:0:
385,95,98587,1,2,1:2:0:0:
396,296,98758,1,8,0:0:0:0:
396,296,98844,1,8,0:0:0:0:
396,296,98930,1,10,0:0:0:0:
396,296,99101,1,2,0:0:0:0:
385,95,99272,5,4,1:2:0:0:
486,214,99444,1,2,0:0:0:0:
330,267,99615,1,10,0:0:0:0:
490,377,99787,2,0,P|406:362|321:355,1,170,4|2,0:0|1:2,0:0:0:0:
94,349,100301,1,8,0:0:0:0:
414,257,100472,2,0,P|371:263|329:266,1,85,2|0,1:2|0:0,0:0:0:0:
84,79,102015,6,0,B|57:137|57:137|83:196,1,127.500004863739,4|0,1:2|0:0,0:0:0:0:
429,196,102701,2,0,B|455:137|455:137|428:79,1,127.500004863739,4|0,1:2|0:0,0:0:0:0:
208,288,103387,6,0,P|256:278|304:288,2,95.6250036478044,2|0|2,0:0|0:0|0:0,0:0:0:0:
117,333,104072,1,2,0:0:0:0:
28,281,104244,1,2,0:0:0:0:
65,186,104415,2,0,L|81:93,1,63.7500024318696,2|2,0:0|0:0,0:0:0:0:
162,68,104758,6,0,P|216:61|272:59,1,95.6250036478044,2|2,0:2|0:0,0:0:0:0:
274,61,105101,1,0,0:2:0:0:
389,16,105272,1,2,0:0:0:0:
431,100,105444,2,0,P|441:147|446:195,1,95.6250036478044,2|2,0:0|0:0,0:0:0:0:
448,212,105787,1,0,0:0:0:0:
358,290,105958,1,2,0:0:0:0:
135,349,106130,6,0,P|183:342|231:339,1,95.6250036478044,2|2,1:2|0:0,0:0:0:0:
248,341,106472,1,0,1:0:0:0:
112,248,106644,1,2,0:0:0:0:
42,126,106815,2,0,L|37:189,1,63.7500024318696,2|0,1:2|0:0,0:0:0:0:
142,59,107158,2,0,L|137:122,1,63.7500024318696,2|0,1:2|0:0,0:0:0:0:
436,118,107501,6,0,L|320:102,2,114.749996498108,4|2|2,1:2|1:2|1:2,0:0:0:0:
96,217,108187,2,0,L|172:211,1,76.4999976654053,8|0,1:2|0:0,0:0:0:0:
415,319,108530,2,0,L|313:309,1,101.999996887207,0|0,1:0|0:0,0:0:0:0:
78,348,108872,6,0,L|68:220,1,127.5,4|2,1:2|0:0,0:0:0:0:
62,145,109215,1,8,1:2:0:0:
227,124,109387,1,0,0:0:0:0:
392,100,109558,2,0,B|408:142|408:142|397:181,1,85,4|0,1:2|0:0,0:0:0:0:
183,332,109901,2,0,B|166:283|166:283|182:235,1,101.999996887207,8|0,0:0|0:0,0:0:0:0:
227,124,110244,5,2,1:2:0:0:
275,272,110415,1,2,0:0:0:0:
345,181,110587,1,2,0:0:0:0:
181,235,110758,1,0,1:0:0:0:
378,193,110930,5,0,1:0:0:0:
249,97,111101,1,2,0:0:0:0:
252,261,111272,1,10,0:0:0:0:
410,176,111444,5,2,0:0:0:0:
196,60,111615,6,0,L|188:9,1,50.9999984436036
274,27,111787,2,0,L|282:78,1,50.9999984436036
346,134,111958,1,8,0:0:0:0:
386,103,112044,1,0,0:0:0:0:
437,105,112130,1,0,0:0:0:0:
475,137,112215,1,0,0:0:0:0:
482,187,112301,5,10,0:0:0:0:
459,232,112387,5,0,0:0:0:0:
412,251,112472,5,0,0:0:0:0:
363,235,112558,5,0,0:0:0:0:
314,218,112644,6,0,L|242:239,1,50.9999984436036,10|0,0:0|0:0,0:0:0:0:
166,257,112815,2,0,L|172:207,1,50.9999984436036,2|2,0:0|0:0,0:0:0:0:
70,112,112987,6,0,B|52:161|52:161|69:208,1,101.999996887207,4|0,0:0|0:0,0:0:0:0:
259,131,113330,2,0,B|276:84|276:84|258:34,1,101.999996887207,4|0,0:0|0:0,0:0:0:0:
172,206,113672,6,0,B|142:276|142:276|172:346,2,152.999995330811,4|4|4,0:0|0:0|0:0,0:0:0:0:
441,186,114358,6,0,L|337:171,1,101.999996887207,2|0,0:0|0:0,1:0:0:0:
314,43,114701,2,0,L|414:57,1,101.999996887207,8|0,0:0|0:0,0:0:0:0:
467,314,115044,2,0,L|315:291,2,152.999995330811,0|0|0,1:0|1:0|1:0,0:0:0:0:
188,127,115730,6,0,P|136:121|88:111,1,101.999996887207,4|0,0:0|0:0,0:0:0:0:
215,275,116072,2,0,P|266:280|314:290,1,101.999996887207,4|0,0:0|0:0,0:0:0:0:
187,127,116415,2,0,P|111:117|37:96,2,152.999995330811,4|4|4,0:0|0:0|0:0,0:0:0:0:
436,259,117101,5,2,0:0:0:0:
433,243,117186,1,2,0:0:0:0:
430,228,117272,1,2,0:0:0:0:
428,213,117358,1,2,0:0:0:0:
425,198,117444,2,0,L|417:147,1,50.9999984436036,2|0,0:0|0:0,0:0:0:0:
363,77,117615,2,0,L|412:64,1,50.9999984436036,2|0,0:0|0:0,0:0:0:0:
302,138,117787,2,0,L|152:172,2,152.999995330811,0|2|2,1:2|1:2|1:2,0:0:0:0:
65,123,118472,6,0,B|45:172|45:172|62:217,1,101.999996887207,4|0,0:0|0:0,0:0:0:0:
258,352,118815,2,0,B|275:306|275:306|255:257,1,101.999996887207,4|0,0:0|0:0,0:0:0:0:
454,150,119158,2,0,L|301:137,2,152.999995330811,4|4|4,0:0|0:0|0:0,0:0:0:0:
238,65,119844,6,0,L|226:13,2,50.9999984436036,2|0|0,1:2|0:0|0:0,0:0:0:0:
198,189,120187,1,8,0:0:0:0:
45,133,120358,1,0,0:0:0:0:
95,126,120444,1,0,0:0:0:0:
136,96,120530,1,2,0:0:0:0:
146,46,120615,5,0,0:0:0:0:
127,93,120701,1,2,0:0:0:0:
111,141,120787,1,2,0:0:0:0:
108,193,120872,1,10,0:0:0:0:
116,243,120958,1,2,0:0:0:0:
141,287,121044,2,0,L|207:279,1,50.9999984436036
276,328,121215,6,0,P|358:307|442:299,1,170,4|8,0:0|0:0,0:0:0:0:
270,127,121730,2,0,P|187:148|103:156,1,170,4|0,0:0|0:0,0:0:0:0:
81,151,122158,1,0,0:0:0:0:
81,151,122244,1,8,0:0:0:0:
276,328,122415,6,0,P|358:307|442:299,1,170,4|2,0:0|0:0,0:0:0:0:
468,99,122930,2,0,L|481:182,1,85,10|0,0:0|0:0,0:0:0:0:
364,217,123272,1,0,0:0:0:0:
335,198,123358,1,0,0:0:0:0:
301,189,123444,1,0,0:0:0:0:
267,192,123530,1,0,0:0:0:0:
238,210,123615,1,2,0:0:0:0:
133,145,123787,1,2,0:0:0:0:
256,62,123958,6,0,L|250:15,2,42.5,2|0|0,1:2|0:0|0:0,0:0:0:0:
359,107,124301,2,0,L|365:60,2,42.5,2|0|0,1:2|0:0|0:0,0:0:0:0:
238,210,124644,2,0,L|232:163,2,42.5,2|0|0,1:2|0:0|0:0,0:0:0:0:
356,280,124987,1,2,0:0:0:0:
356,280,125672,5,0,1:0:0:0:
362,304,125844,1,0,1:0:0:0:
369,328,126015,1,0,1:0:0:0:
458,213,126187,2,0,L|500:203,2,42.5,0|0|8,1:0|1:0|0:0,0:0:0:0:
346,147,126530,1,0,1:0:0:0:
346,147,126615,1,0,1:0:0:0:
346,147,126701,6,0,P|261:138|179:116,1,170,2|4,1:2|0:0,0:0:0:0:
43,349,127387,1,8,0:0:0:0:
115,291,127558,1,2,0:0:0:0:
181,361,127730,1,0,0:0:0:0:
269,314,127901,2,0,P|353:309|436:290,1,170,0|2,1:0|0:0,0:0:0:0:
436,289,128587,6,0,L|348:275,1,85,2|0,1:2|0:0,0:0:0:0:
491,198,128930,1,2,0:0:0:0:
371,95,129101,2,0,P|356:135|353:178,1,85,2|0,1:2|0:0,0:0:0:0:
265,356,129444,2,0,P|256:272|232:191,1,170,2|0,1:2|0:0,0:0:0:0:
232,191,130130,1,2,1:2:0:0:
132,212,130302,1,2,0:0:0:0:
132,212,130387,1,2,0:0:0:0:
132,212,130472,1,2,0:0:0:0:
84,92,130644,6,0,P|168:85|250:62,1,170,0|0,1:0|1:0,0:0:0:0:
432,184,131158,2,0,P|390:174|348:169,1,85,2|0,1:2|0:0,0:0:0:0:
262,290,131501,2,0,P|303:299|345:304,1,85,2|0,1:2|0:0,0:0:0:0:
392,81,131844,1,10,0:0:0:0:
248,100,132015,1,2,0:0:0:0:
100,122,132187,6,0,P|83:205|84:290,1,170,0|2,1:0|1:2,0:0:0:0:
85,289,132872,1,2,1:2:0:0:
180,273,133043,1,2,0:0:0:0:
180,273,133129,1,2,0:0:0:0:
180,273,133215,1,2,0:0:0:0:
387,197,133387,6,0,P|305:171|221:165,1,170,0|2,1:0|1:2,0:0:0:0:
221,165,134072,6,0,L|321:157,1,85,2|0,1:2|0:0,0:0:0:0:
168,85,134415,1,2,0:0:0:0:
68,89,134587,2,0,P|59:47|59:5,1,85,2|0,1:2|0:0,0:0:0:0:
0,169,134930,6,0,P|23:250|18:334,1,170,0|2,1:0|1:2,0:0:0:0:
18,334,135615,1,2,1:2:0:0:
116,305,135787,1,2,0:0:0:0:
116,305,135872,1,2,0:0:0:0:
116,305,135958,1,2,0:0:0:0:
234,354,136130,6,0,P|318:350|398:321,1,170,0|2,1:0|1:2,0:0:0:0:
398,321,136815,1,2,0:0:0:0:
484,245,136987,2,0,L|400:231,1,85,2|2,1:2|1:2,0:0:0:0:
203,197,137330,1,10,0:0:0:0:
203,197,137415,1,2,0:0:0:0:
203,197,137501,1,2,0:0:0:0:
290,69,137672,6,0,P|306:151|288:234,1,170,4|8,1:2|1:2,0:0:0:0:
36,312,138358,1,2,1:2:0:0:
112,253,138530,1,2,0:0:0:0:
112,253,138615,1,2,0:0:0:0:
112,253,138700,1,10,0:0:0:0:
311,316,138872,6,0,P|227:320|151:357,1,170,0|2,1:0|1:2,0:0:0:0:
42,130,139387,1,10,0:0:0:0:
23,218,139558,2,0,P|65:212|105:199,1,85,2|0,0:0|0:0,0:0:0:0:
194,52,139901,1,2,0:0:0:0:
294,168,140072,2,0,P|253:154|211:149,1,85,10|2,0:0|0:0,0:0:0:0:
343,300,140415,6,0,P|379:224|380:139,1,170,0|8,1:0|1:2,0:0:0:0:
429,338,141101,1,2,1:2:0:0:
267,269,141272,1,2,0:0:0:0:
267,269,141358,1,2,0:0:0:0:
267,269,141444,1,10,0:0:0:0:
21,355,141615,6,0,P|98:319|183:316,1,170,0|2,1:0|1:2,0:0:0:0:
68,198,142130,2,0,P|52:155|45:93,1,85,10|0,1:2|0:0,0:0:0:0:
189,8,142473,2,0,P|205:51|212:113,1,85,2|0,1:2|0:0,0:0:0:0:
267,268,142815,2,0,P|281:229|305:194,1,85,10|0,1:2|0:0,0:0:0:0:
422,28,143158,6,0,P|455:105|462:190,1,170,0|8,1:0|1:2,0:0:0:0:
323,384,143844,1,2,1:2:0:0:
289,289,144015,1,2,0:0:0:0:
289,289,144101,1,2,0:0:0:0:
289,289,144187,1,10,0:0:0:0:
36,334,144358,6,0,P|115:303|199:303,1,170,0|2,1:0|1:2,0:0:0:0:
323,208,144872,1,0,0:0:0:0:
252,146,145044,2,0,P|290:127|331:120,1,85,2|0,1:2|0:0,0:0:0:0:
174,70,145387,1,2,0:0:0:0:
120,198,145558,2,0,P|95:163|64:134,1,85,10|2,0:0|0:0,0:0:0:0:
199,303,145901,6,0,P|274:264|358:266,1,170,0|8,1:0|1:2,0:0:0:0:
357,265,146587,1,2,1:2:0:0:
436,197,146758,1,2,0:0:0:0:
436,197,146844,1,2,0:0:0:0:
435,197,146930,2,0,P|445:155|446:113,1,85,10|2,0:0|1:2,0:0:0:0:
276,30,147272,6,0,P|266:71|265:113,1,85,2|2,1:2|0:0,0:0:0:0:
126,347,147615,2,0,P|87:329|46:319,1,85,8|2,1:2|0:0,0:0:0:0:
196,231,147958,2,0,P|234:248|275:258,1,85,0|2,1:2|1:2,0:0:0:0:
85,193,148301,1,2,0:0:0:0:
85,193,148387,1,2,0:0:0:0:
85,193,148472,1,2,0:0:0:0:
170,90,148644,6,0,L|165:73,1,14.1666666666667,2|0,0:0|0:0,0:0:0:0:
