osu file format v14

[General]
AudioFilename: audio.mp3
AudioLeadIn: 0
PreviewTime: 44330
Countdown: 0
SampleSet: Soft
StackLeniency: 0.7
Mode: 2
LetterboxInBreaks: 0
EpilepsyWarning: 1
WidescreenStoryboard: 1

[Editor]
DistanceSpacing: 1
BeatDivisor: 4
GridSize: 8
TimelineZoom: 2.799999

[Metadata]
Title:Sweet Dreams (11t dnb mix)
TitleUnicode:Sweet Dreams (11t dnb mix)
Artist:Kana Nishino
ArtistUnicode:西野カナ
Creator:Ascendance
Version:Rain
Source:
Tags:Love Collection ~mint~ FAST LANE MATS LIE SKARE happyrocket88 xinely nozhomi -kevincela- haruto meyrink asphyxia wivaiien yauxo iwinnie kocari gero andrea osuplayer111 tari captin1 giralda smoothie world kaifin doormat fieryrage byfar kibbleru sing kalamitous -mo- haruto_aizawa slayed collab collaboration storyboarder mbomb -_magic_bomb_- refaller
BeatmapID:1074077
BeatmapSetID:499488

[Difficulty]
HPDrainRate:6
CircleSize:4
OverallDifficulty:9
ApproachRate:9
SliderMultiplier:1.92
SliderTickRate:2

[Events]
//Background and Video events
0,0,"eleventea.jpg",0,0
//Break Periods
//Storyboard Layer 0 (Background)
//Storyboard Layer 1 (Fail)
//Storyboard Layer 2 (Pass)
//Storyboard Layer 3 (Foreground)
//Storyboard Sound Samples

[TimingPoints]
530,342.857142857143,4,2,80,40,1,0
3272,-100,4,2,80,50,0,0
6015,-100,4,2,80,60,0,0
8758,-100,4,2,80,70,0,0
33101,-100,4,2,81,40,0,0
33358,-100,4,2,82,20,0,0
33444,-100,4,2,80,70,0,0
38244,-100,4,2,81,70,0,0
38587,-100,4,2,80,70,0,0
42872,-100,4,2,81,70,0,0
43044,-100,4,2,80,40,0,0
43215,-100,4,2,80,50,0,0
43387,-100,4,2,80,60,0,0
43558,-100,4,2,80,70,0,0
44415,-100,4,2,80,60,0,0
44501,-100,4,2,81,60,0,0
48530,-100,4,2,80,60,0,0
49730,-100,4,2,80,20,0,0
49901,-100,4,2,80,60,0,0
55044,-100,4,2,81,60,0,0
55387,-100,4,2,80,70,0,1
56072,-100,4,2,81,70,0,1
56758,-100,4,2,80,70,0,1
57444,-100,4,2,81,70,0,1
58130,-100,4,2,80,70,0,1
58815,-100,4,2,81,70,0,1
59501,-100,4,2,80,70,0,1
60187,-100,4,2,81,70,0,1
60872,-100,4,2,80,70,0,1
61558,-100,4,2,81,70,0,1
62244,-100,4,2,80,70,0,1
62930,-100,4,2,81,70,0,1
63615,-100,4,2,80,70,0,1
63872,-100,4,2,80,20,0,1
63958,-100,4,2,80,70,0,1
64387,-100,4,2,80,20,0,1
64472,-100,4,2,80,70,0,1
65672,-100,4,2,81,70,0,1
66358,-100,4,2,80,70,0,1
69101,-100,4,2,80,60,0,0
69272,-100,4,2,81,60,0,0
77330,-100,4,2,80,60,0,0
90701,-100,4,2,81,40,0,0
90958,-100,4,2,80,20,0,0
91044,-100,4,2,80,60,0,0
95844,-100,4,2,81,60,0,0
96187,-100,4,2,80,60,0,0
100472,-100,4,2,81,60,0,0
100815,-100,4,2,80,40,0,0
101330,-100,4,2,80,50,0,0
106130,-100,4,2,80,60,0,0
107330,-100,4,2,80,20,0,0
107501,-100,4,2,80,50,0,0
112644,-100,4,2,81,50,0,0
112987,-100,4,2,80,70,0,1
113672,-100,4,2,81,70,0,1
114358,-100,4,2,80,70,0,1
115044,-100,4,2,81,70,0,1
115730,-100,4,2,80,70,0,1
116415,-100,4,2,81,70,0,1
117101,-100,4,2,80,70,0,1
117787,-100,4,2,81,70,0,1
118472,-100,4,2,80,70,0,1
119158,-100,4,2,81,70,0,1
119844,-100,4,2,80,70,0,1
120530,-100,4,2,81,70,0,1
121215,-100,4,2,80,70,0,1
121472,-100,4,2,80,20,0,1
121558,-100,4,2,80,70,0,1
121987,-100,4,2,80,20,0,1
122072,-100,4,2,80,70,0,1
123272,-100,4,2,81,70,0,1
123958,-100,4,2,80,70,0,1
126701,-100,4,2,80,70,0,0
126958,-100,4,2,80,20,0,0
127044,-100,4,2,80,70,0,0
137672,-100,4,2,80,60,0,0
138015,-100,4,2,81,60,0,0
147958,-100,4,2,80,60,0,0
148644,-100,4,2,80,50,0,0
148730,-100,4,2,80,10,0,0
150015,-100,4,2,80,10,0,0

[Colours]
Combo1 : 255,94,55
Combo2 : 173,255,95
Combo3 : 17,254,176
Combo4 : 255,88,100

[HitObjects]
256,192,530,6,0,L|368:192,1,96,6|0,1:2|0:0,0:0:0:0:
192,128,872,1,8,0:0:0:0:
288,80,1044,2,0,L|352:80,2,48,0|0|0,0:0|0:0|0:0,0:0:0:0:
144,40,1387,2,0,L|248:40,1,96,2|8,1:3|1:2,0:0:0:0:
72,112,1730,1,0,2:0:0:0:
192,280,1901,6,0,L|208:176,1,96,2|0,1:2|0:0,0:0:0:0:
80,216,2244,1,8,0:0:0:0:
216,40,2415,1,0,0:0:0:0:
254,67,2500,1,0,0:0:0:0:
267,113,2586,1,0,0:0:0:0:
250,157,2672,1,0,0:0:0:0:
210,182,2757,1,2,1:3:0:0:
336,240,2930,2,0,L|448:240,1,96,8|2,1:2|1:3,0:0:0:0:
248,320,3272,5,2,1:2:0:0:
360,240,3444,1,0,0:0:0:0:
192,240,3615,1,8,0:0:0:0:
320,160,3787,1,0,0:0:0:0:
272,160,3872,1,0,0:0:0:0:
224,160,3958,1,0,0:0:0:0:
352,64,4130,1,2,1:3:0:0:
192,96,4301,2,0,L|72:96,1,96,8|2,1:2|1:3,0:0:0:0:
240,168,4644,6,0,L|112:168,1,96,0|2,0:0|1:3,0:0:0:0:
320,120,4987,1,8,0:0:0:0:
176,288,5158,1,0,1:2:0:0:
130,278,5243,1,0,0:0:0:0:
107,238,5329,1,0,0:0:0:0:
122,194,5415,1,0,0:0:0:0:
165,176,5500,1,2,1:3:0:0:
304,184,5672,2,0,L|408:184,1,96,8|2,1:2|1:3,0:0:0:0:
240,56,6015,6,0,L|224:160,1,96,2|0,1:2|0:0,0:0:0:0:
328,240,6358,1,8,0:0:0:0:
208,240,6530,1,0,0:0:0:0:
160,240,6615,1,0,0:0:0:0:
112,240,6701,1,0,0:0:0:0:
240,304,6872,1,2,1:3:0:0:
112,160,7044,2,0,P|104:104|120:64,1,96,8|2,1:2|0:3,0:0:0:0:
272,120,7387,6,0,L|168:120,1,96,2|0,1:2|0:0,0:0:0:0:
56,128,7730,1,8,0:0:0:0:
192,136,7901,1,0,0:0:0:0:
240,136,7986,1,0,0:0:0:0:
288,136,8072,1,0,0:0:0:0:
240,136,8158,1,0,0:0:0:0:
192,136,8244,1,2,1:3:0:0:
304,208,8415,2,0,L|200:208,1,96,8|2,1:2|0:3,0:0:0:0:
80,208,8758,5,2,1:2:0:0:
208,208,8930,1,0,0:0:0:0:
256,208,9015,1,0,0:0:0:0:
304,208,9101,1,8,0:0:0:0:
152,128,9272,2,0,L|216:128,1,48,0|0,0:0|0:0,0:0:0:0:
152,128,9444,6,0,L|96:128,2,48,0|0|2,0:0|0:0|1:3,0:0:0:0:
296,128,9787,2,0,L|392:128,1,96,8|2,1:2|1:3,0:0:0:0:
216,304,10130,6,0,L|200:208,1,96,0|2,0:0|1:3,0:0:0:0:
336,208,10472,1,8,1:2:0:0:
184,128,10644,1,2,1:3:0:0:
136,128,10729,1,0,0:0:0:0:
88,128,10815,1,4,0:3:0:0:
264,64,10987,1,0,1:2:0:0:
280,112,11072,1,0,1:2:0:0:
296,160,11158,1,8,1:2:0:0:
176,248,11330,2,0,L|104:248,1,48,0|0,1:2|0:0,0:0:0:0:
392,328,11501,6,0,L|416:232,1,96,6|2,1:2|0:0,0:0:0:0:
296,184,11844,1,8,0:0:0:0:
168,104,12015,2,0,L|280:104,2,96,0|2|2,0:0|0:0|1:2,0:0:0:0:
24,192,12530,2,0,L|128:192,1,96,8|2,0:0|0:0,0:0:0:0:
264,264,12872,6,0,L|144:264,1,96,2|2,1:2|0:0,0:0:0:0:
24,264,13215,1,8,0:0:0:0:
176,184,13387,2,0,L|240:184,1,48,2|0,0:0|0:0,0:0:0:0:
176,184,13558,6,0,L|64:184,1,96,0|2,0:0|1:2,0:0:0:0:
216,88,13901,2,0,L|104:88,1,96,10|2,1:2|1:2,0:0:0:0:
416,304,14244,6,0,L|432:192,1,96,2|2,1:2|0:0,0:0:0:0:
288,200,14587,1,8,0:0:0:0:
400,112,14758,2,0,L|288:112,2,96,2|2|0,0:0|0:0|1:2,0:0:0:0:
240,208,15272,2,0,L|128:208,1,96,10|2,0:0|0:0,0:0:0:0:
328,296,15615,5,2,1:2:0:0:
200,288,15787,2,0,L|312:288,1,96,2|10,0:0|0:0,0:0:0:0:
176,216,16130,2,0,L|128:216,1,48,2|0,1:2|0:0,0:0:0:0:
176,216,16301,6,0,L|280:216,1,96,0|2,0:0|1:2,0:0:0:0:
112,144,16644,2,0,L|88:48,1,96,8|2,0:0|1:2,0:0:0:0:
408,72,16987,6,0,L|408:176,1,96,6|0,1:2|0:0,0:0:0:0:
264,232,17330,2,0,L|160:240,1,96,2|0,1:2|0:0,0:0:0:0:
320,136,17672,2,0,L|368:240,1,96,2|2,1:2|0:0,0:0:0:0:
216,152,18015,2,0,L|104:144,1,96,2|2,1:2|0:0,0:0:0:0:
456,80,18358,6,0,L|352:72,1,96,6|0,1:1|0:0,0:0:0:0:
224,288,18701,2,0,L|200:176,1,96,2|0,1:2|0:0,0:0:0:0:
392,264,19044,2,0,L|384:376,1,96,2|2,1:2|0:0,0:0:0:0:
216,352,19387,2,0,L|104:352,1,96,2|2,1:2|0:0,0:0:0:0:
400,64,19730,5,4,1:2:0:0:
463,133,19901,1,2,1:2:0:0:
459,226,20072,1,2,1:2:0:0:
391,291,20244,1,2,1:2:0:0:
112,64,20415,5,4,1:1:0:0:
48,133,20586,1,2,1:2:0:0:
52,226,20757,1,2,1:2:0:0:
120,291,20929,1,2,1:2:0:0:
376,305,21101,5,6,1:2:0:0:
410,273,21186,1,0,1:2:0:0:
411,227,21272,1,0,1:2:0:0:
377,194,21358,1,0,1:2:0:0:
192,168,21444,6,0,L|128:160,1,48,6|0,1:1|1:2,0:0:0:0:
352,96,21615,2,0,L|424:88,1,48,0|0,1:2|1:2,0:0:0:0:
158,60,21787,5,6,1:1:0:0:
117,82,21872,1,0,1:2:0:0:
111,128,21958,1,0,1:2:0:0:
144,161,22044,1,0,1:2:0:0:
344,200,22130,2,0,L|448:208,1,96,14|8,0:1|0:0,0:0:0:0:
400,208,22387,1,8,0:0:0:0:
160,240,22472,6,0,L|56:240,1,96,6|0,1:2|0:0,0:0:0:0:
232,176,22815,1,8,0:0:0:0:
88,56,22987,2,0,P|16:112|104:152,1,192,0|2,0:0|1:3,0:0:0:0:
184,168,23501,1,8,0:0:0:0:
336,168,23672,2,0,L|400:168,1,48
336,168,23844,6,0,L|232:168,2,96,2|0|8,1:2|0:0|0:0,0:0:0:0:
200,168,24358,2,0,L|400:168,1,192,0|2,0:0|1:3,0:0:0:0:
112,96,24872,2,0,L|8:96,1,96,8|2,0:0|1:3,0:0:0:0:
328,88,25215,6,0,L|440:88,1,96,2|2,1:2|0:3,0:0:0:0:
240,160,25558,1,8,0:0:0:0:
400,304,25730,2,0,P|456:256|368:184,1,192,0|2,0:0|1:3,0:0:0:0:
272,176,26244,1,8,0:0:0:0:
400,176,26415,1,0,1:2:0:0:
248,120,26587,6,0,L|136:112,1,96,0|0,0:0|1:2,0:0:0:0:
320,120,26930,2,0,L|328:224,1,96,8|2,0:0|1:3,0:0:0:0:
176,304,27272,2,0,L|272:304,1,96,0|2,0:0|1:3,0:0:0:0:
96,240,27615,1,8,0:0:0:0:
184,240,27787,2,0,L|248:240,1,48,2|0,1:3|0:0,0:0:0:0:
408,240,27958,6,0,L|544:240,1,96,2|0,1:2|0:0,0:0:0:0:
328,160,28301,2,0,L|216:160,1,96,8|0,0:0|0:0,0:0:0:0:
368,88,28644,1,0,0:0:0:0:
96,88,28815,2,0,P|32:120|112:192,1,192,2|0,1:3|0:0,0:0:0:0:
240,208,29330,6,0,L|128:208,1,96,2|0,1:2|0:0,0:0:0:0:
336,128,29672,2,0,L|432:128,1,96,8|0,0:0|0:0,0:0:0:0:
144,40,30015,2,0,P|80:80|152:152,1,192,0|8,0:0|0:0,0:0:0:0:
280,160,30530,1,0,1:2:0:0:
40,312,30701,6,0,L|152:288,1,96,2|0,1:3|0:0,0:0:0:0:
296,256,31044,2,0,L|184:216,1,96,2|0,1:3|0:0,0:0:0:0:
384,128,31387,2,0,L|272:136,2,96,8|8|8,3:2|3:2|3:2,0:0:0:0:
88,64,31901,6,0,P|24:104|112:184,1,192,8|0,3:2|0:0,0:0:0:0:
192,208,32415,2,0,L|296:200,1,96,0|0,1:2|0:0,0:0:0:0:
144,136,32758,2,0,L|64:56,1,96,0|0,1:2|0:0,0:0:0:0:
240,80,33101,2,0,L|344:80,1,96,4|0,1:1|0:0,0:0:0:0:
88,320,33444,6,0,L|64:208,1,96,6|0,1:2|0:0,0:0:0:0:
208,200,33787,1,8,0:0:0:0:
104,136,33958,2,0,L|40:136,2,48,0|0|0,0:0|0:0|0:0,0:0:0:0:
248,136,34301,1,2,1:3:0:0:
128,64,34472,2,0,L|232:64,1,96,8|0,0:0|0:0,0:0:0:0:
496,160,34815,6,0,P|440:176|376:144,1,96,0|0,1:2|0:0,0:0:0:0:
272,128,35158,1,8,0:0:0:0:
400,64,35330,2,0,P|464:104|384:160,1,192,0|2,0:0|1:3,0:0:0:0:
288,256,35844,2,0,L|400:256,1,96,8|2,0:0|1:3,0:0:0:0:
120,256,36187,6,0,L|16:256,2,96,2|0|8,1:2|0:0|0:0,0:0:0:0:
384,256,36701,2,0,L|176:256,1,192,0|2,0:0|1:3,0:0:0:0:
288,256,37215,1,8,0:0:0:0:
48,80,37387,6,0,P|24:144|48:184,1,96,4|0,1:3|0:0,0:0:0:0:
376,280,37730,2,0,P|400:200|392:176,1,96,4|8,1:3|0:0,0:0:0:0:
128,128,38072,2,0,L|232:128,1,96,0|8,1:2|0:3,0:0:0:0:
328,128,38415,1,8,1:3:0:0:
192,224,38587,1,8,0:0:0:0:
320,224,38758,1,0,1:2:0:0:
72,328,38930,6,0,L|64:232,1,96,6|2,1:2|0:3,0:0:0:0:
192,216,39272,2,0,L|296:216,1,96,0|2,1:2|0:3,0:0:0:0:
128,120,39615,2,0,L|232:120,2,96,0|2|0,1:2|0:3|1:2,0:0:0:0:
424,48,40130,6,0,P|472:80|400:160,1,192,2|2,0:3|0:3,0:0:0:0:
272,160,40644,2,0,L|160:160,1,96,0|2,1:2|0:3,0:0:0:0:
328,248,40987,1,0,1:2:0:0:
208,248,41158,2,0,L|144:248,2,48,8|8|8,0:0|0:0|1:2,0:0:0:0:
328,248,41501,1,0,1:2:0:0:
80,64,41672,6,0,P|24:104|104:176,1,192,6|8,1:2|0:0,0:0:0:0:
216,184,42187,2,0,L|344:184,1,96,6|0,1:1|0:0,0:0:0:0:
192,112,42530,1,2,1:3:0:0:
320,112,42701,1,8,0:0:0:0:
32,232,42872,5,6,1:2:0:0:
32,232,43215,1,0,1:2:0:0:
136,232,43387,1,0,1:2:0:0:
240,232,43558,1,0,1:2:0:0:
352,232,43730,2,0,L|456:232,1,96,8|0,1:2|1:2,0:0:0:0:
168,168,44072,2,0,L|144:72,1,96,8|0,1:2|0:0,0:0:0:0:
384,64,44415,6,0,P|448:112|368:168,1,192,6|0,1:2|0:0,0:0:0:0:
280,176,44930,1,8,0:3:0:0:
160,176,45101,2,0,P|104:200|176:272,1,192,2|0,0:0|0:0,0:0:0:0:
280,280,45615,1,8,0:3:0:0:
32,280,45787,6,0,L|184:280,2,144,2|0|0,0:0|0:0|0:0,0:0:0:0:
176,280,46472,1,2,0:0:0:0:
248,222,46643,1,0,0:0:0:0:
243,130,46814,1,2,0:0:0:0:
166,80,46986,1,0,0:0:0:0:
336,72,47158,6,0,P|384:120|304:200,1,192,2|0,0:0|0:0,0:0:0:0:
208,208,47672,1,8,0:3:0:0:
112,128,47844,2,0,L|312:128,1,192,2|8,0:0|0:3,0:0:0:0:
416,128,48358,1,0,0:0:0:0:
288,200,48530,6,0,L|176:200,1,96,0|0,1:2|0:0,0:0:0:0:
72,288,48872,2,0,L|176:288,1,96,0|0,1:2|0:0,0:0:0:0:
280,288,49215,2,0,L|384:288,1,96,0|0,1:2|0:0,0:0:0:0:
200,216,49558,2,0,P|176:168|200:112,1,96,0|0,1:2|1:2,0:0:0:0:
336,40,49901,6,0,L|472:88,2,144,0|0|0,1:2|1:2|1:2,0:0:0:0:
184,184,50587,2,0,L|384:184,1,192,0|8,1:2|1:2,0:0:0:0:
272,184,51101,1,0,1:2:0:0:
16,184,51272,6,0,L|192:184,2,144,0|0|0,1:2|1:2|1:2,0:0:0:0:
176,184,51958,2,0,L|272:184,1,96,0|0,1:2|1:2,0:0:0:0:
16,104,52301,2,0,L|144:104,1,96,8|0,1:2|1:2,0:0:0:0:
352,104,52644,6,0,L|256:104,1,96,2|0,1:3|1:2,0:0:0:0:
384,184,52987,2,0,L|408:280,1,96,2|0,1:3|1:2,0:0:0:0:
240,287,53330,1,2,1:3:0:0:
318,241,53501,1,0,1:2:0:0:
312,150,53672,1,2,1:3:0:0:
228,116,53844,1,0,1:2:0:0:
80,240,54015,5,2,1:3:0:0:
44,210,54100,1,0,1:2:0:0:
47,164,54186,1,0,1:2:0:0:
87,141,54272,1,0,1:2:0:0:
352,136,54358,1,2,1:3:0:0:
389,163,54443,1,0,1:2:0:0:
394,209,54529,1,0,1:2:0:0:
362,244,54615,1,0,1:2:0:0:
160,272,54701,6,0,L|56:272,1,96,2|0,1:3|1:2,0:0:0:0:
240,200,55044,2,0,L|344:200,1,96,4|0,1:3|0:0,0:0:0:0:
64,64,55387,6,0,P|32:112|88:176,1,144,6|0,1:2|0:0,0:0:0:0:
144,176,55730,2,0,L|248:176,1,96,0|0,1:2|0:0,0:0:0:0:
56,344,56072,6,0,L|32:248,1,96,8|0,1:1|1:2,0:0:0:0:
88,224,56330,2,0,L|184:224,1,96,8|0,1:1|1:2,0:0:0:0:
344,224,56587,1,8,1:1:0:0:
488,216,56758,5,6,1:1:0:0:
368,144,56930,2,0,L|320:144,1,48,0|0,0:0|0:0,0:0:0:0:
368,144,57101,2,0,L|464:144,1,96,0|0,1:2|0:0,0:0:0:0:
288,144,57444,1,8,1:1:0:0:
392,80,57615,1,0,1:2:0:0:
344,80,57700,1,8,1:1:0:0:
296,80,57786,1,0,0:0:0:0:
448,80,57958,1,8,1:1:0:0:
96,72,58130,6,0,P|64:136|112:200,1,144,6|0,1:2|0:0,0:0:0:0:
168,232,58472,2,0,L|32:232,1,96,0|0,1:2|0:0,0:0:0:0:
216,144,58815,6,0,L|312:144,1,96,8|0,1:1|1:2,0:0:0:0:
368,144,59072,2,0,L|272:144,1,96,8|0,1:1|1:2,0:0:0:0:
128,144,59330,1,8,1:1:0:0:
16,136,59501,5,6,1:1:0:0:
160,80,59672,2,0,L|240:80,2,48,0|0|0,0:0|0:0|1:2,0:0:0:0:
40,72,60015,1,0,0:0:0:0:
280,288,60187,5,8,1:1:0:0:
311,252,60272,1,0,0:0:0:0:
306,206,60358,1,0,1:2:0:0:
270,177,60444,1,0,1:2:0:0:
224,176,60530,2,0,L|344:176,1,96,8|0,1:1|0:0,0:0:0:0:
64,184,60872,6,0,P|32:136|88:64,1,144,6|0,1:2|0:0,0:0:0:0:
128,64,61215,2,0,L|240:64,1,96,0|0,1:2|0:0,0:0:0:0:
400,80,61558,6,0,L|360:200,1,96,8|0,1:1|1:2,0:0:0:0:
328,208,61815,2,0,L|216:208,1,96,8|0,1:1|1:2,0:0:0:0:
56,176,62072,1,8,1:1:0:0:
152,176,62244,5,0,1:2:0:0:
280,176,62415,2,0,L|328:176,1,48,0|0,0:0|0:0,0:0:0:0:
280,176,62587,2,0,L|184:176,1,96,8|0,0:0|1:2,0:0:0:0:
424,56,62930,5,8,1:1:0:0:
469,67,63015,1,0,1:2:0:0:
478,111,63101,1,0,1:2:0:0:
443,140,63187,1,8,1:1:0:0:
400,144,63272,2,0,L|304:144,1,96,0|8,1:2|1:1,0:0:0:0:
64,304,63615,6,0,P|32:264|112:160,1,192,6|8,1:2|1:2,0:0:0:0:
288,224,64130,2,0,P|336:184|248:88,1,192,6|8,1:1|1:2,0:0:0:0:
160,80,64644,1,0,1:2:0:0:
416,288,64815,6,0,P|480:248|392:184,1,192,6|0,1:2|0:0,0:0:0:0:
288,168,65330,2,0,L|168:168,1,96,6|0,1:1|0:0,0:0:0:0:
304,80,65672,1,8,1:1:0:0:
352,80,65757,1,0,1:2:0:0:
400,80,65843,1,0,1:2:0:0:
352,80,65930,1,0,1:2:0:0:
304,80,66015,2,0,L|200:80,1,96,8|8,1:1|1:1,0:0:0:0:
456,328,66358,6,0,L|488:224,1,96,2|0,1:2|0:0,0:0:0:0:
336,264,66701,2,0,L|224:264,1,96,2|0,1:2|0:0,0:0:0:0:
416,152,67044,2,0,L|296:152,1,96,2|0,1:2|0:0,0:0:0:0:
88,152,67387,1,4,0:3:0:0:
200,152,67558,6,0,L|296:152,2,96,0|0|0,0:0|0:0|0:0,0:0:0:0:
88,144,68072,1,0,0:0:0:0:
208,152,68244,2,0,L|16:152,2,192,0|0|0,0:0|0:0|0:0,0:0:0:0:
456,152,69101,6,0,L|448:256,1,96,6|0,1:2|0:0,0:0:0:0:
312,296,69444,2,0,L|416:296,1,96,2|0,1:2|0:0,0:0:0:0:
272,184,69787,2,0,L|112:184,2,144,8|8|8,1:1|1:1|1:1,0:0:0:0:
392,128,70472,6,0,L|288:128,1,96,2|0,1:2|0:0,0:0:0:0:
168,88,70815,2,0,L|304:88,1,96,2|0,1:2|0:0,0:0:0:0:
96,168,71158,2,0,L|248:168,2,144,8|8|8,1:1|1:1|1:1,0:0:0:0:
240,304,71844,6,0,L|264:208,1,96,2|0,1:2|0:0,0:0:0:0:
144,152,72187,2,0,L|32:152,1,96,2|0,1:2|0:0,0:0:0:0:
208,72,72530,2,0,L|56:72,2,144,8|8|8,1:1|1:1|1:1,0:0:0:0:
480,72,73215,6,0,L|464:176,1,96,2|0,1:2|0:0,0:0:0:0:
312,248,73558,2,0,L|408:248,1,96,2|0,1:2|0:0,0:0:0:0:
296,160,73901,2,0,L|464:160,2,144,8|8|8,1:1|1:1|1:1,0:0:0:0:
16,168,74587,6,0,L|144:168,1,96,2|0,1:2|0:0,0:0:0:0:
280,240,74930,2,0,L|176:240,1,96,2|0,1:2|0:0,0:0:0:0:
480,160,75272,2,0,L|320:160,2,144,8|8|8,1:1|1:1|1:1,0:0:0:0:
112,96,75958,6,0,L|224:96,1,96,2|0,1:2|0:0,0:0:0:0:
352,160,76301,2,0,L|232:160,1,96,2|0,1:2|0:0,0:0:0:0:
8,240,76644,2,0,L|160:240,2,144,8|8|8,1:1|1:1|1:1,0:0:0:0:
360,304,77330,6,0,L|392:200,1,96,2|0,1:2|0:0,0:0:0:0:
224,232,77672,2,0,L|128:208,1,96,8|0,1:2|0:0,0:0:0:0:
384,48,78015,5,8,1:2:0:0:
464,91,78186,1,8,1:2:0:0:
471,183,78357,1,8,1:2:0:0:
398,239,78529,1,8,1:2:0:0:
80,248,78701,5,2,1:3:0:0:
232,184,79044,1,2,1:3:0:0:
72,160,79387,2,0,L|72:56,1,96,2|0,1:3|0:0,0:0:0:0:
368,120,79730,2,0,L|440:120,2,48,4|0|0,0:3|0:0|0:0,0:0:0:0:
72,216,80072,6,0,L|184:216,1,96,6|0,1:2|0:0,0:0:0:0:
288,216,80415,1,8,0:0:0:0:
152,128,80587,1,0,0:0:0:0:
200,128,80672,1,0,0:0:0:0:
248,128,80758,1,0,0:0:0:0:
120,40,80930,1,2,1:3:0:0:
232,40,81101,1,8,1:2:0:0:
464,312,81272,6,0,P|504:264|416:200,1,192,0|0,0:0|0:0,0:0:0:0:
288,192,81787,1,8,0:0:0:0:
392,112,81958,2,0,L|192:112,1,192,0|2,0:0|1:3,0:0:0:0:
456,48,82472,2,0,L|472:152,1,96,8|2,1:2|1:3,0:0:0:0:
224,216,82815,6,0,L|120:216,2,96,2|0|8,1:2|0:0|0:0,0:0:0:0:
360,216,83330,2,0,P|424:184|336:136,1,192,0|2,0:0|1:3,0:0:0:0:
240,128,83844,1,8,1:2:0:0:
416,240,84015,6,0,L|312:240,1,96,2|0,1:3|0:0,0:0:0:0:
160,240,84358,2,0,L|48:240,1,96,2|8,1:3|0:0,0:0:0:0:
224,152,84701,2,0,L|320:152,1,96,2|0,1:3|0:0,0:0:0:0:
472,56,85044,2,0,L|368:56,1,96,0|8,1:2|1:2,0:0:0:0:
136,56,85387,6,0,P|64:96|128:152,1,192,4|0,1:2|0:0,0:0:0:0:
272,160,85901,1,8,0:0:0:0:
144,304,86072,1,0,0:0:0:0:
96,256,86157,1,0,0:0:0:0:
144,208,86243,1,0,1:2:0:0:
264,232,86415,2,0,L|160:232,1,96,0|8,0:0|0:0,0:0:0:0:
448,80,86758,6,0,P|512:120|432:184,1,192,0|0,0:0|0:0,0:0:0:0:
336,192,87272,1,8,0:0:0:0:
224,112,87444,1,0,0:0:0:0:
272,112,87529,1,0,0:0:0:0:
320,112,87615,1,0,1:2:0:0:
200,192,87787,1,0,1:2:0:0:
448,320,87958,2,0,L|472:208,1,96,8|0,0:0|0:0,0:0:0:0:
408,216,88215,1,0,0:0:0:0:
224,216,88301,6,0,L|104:216,1,96,2|0,1:3|0:0,0:0:0:0:
312,160,88644,2,0,L|336:48,1,96,2|0,1:3|0:0,0:0:0:0:
48,120,88987,2,0,L|144:120,2,96,8|8|8,3:2|3:2|3:2,0:0:0:0:
448,128,89501,1,8,3:2:0:0:
336,200,89672,6,0,L|432:200,1,96,2|0,1:2|0:0,0:0:0:0:
248,320,90015,2,0,L|232:224,1,96,0|0,1:2|0:0,0:0:0:0:
384,256,90358,2,0,L|488:256,1,96,0|0,1:2|0:0,0:0:0:0:
288,168,90701,2,0,L|192:168,1,96,4|0,1:1|0:0,0:0:0:0:
480,88,91044,6,0,L|360:88,2,96,6|0|8,1:2|0:0|0:0,0:0:0:0:
176,88,91558,2,0,P|128:136|216:200,1,192,0|2,0:0|1:3,0:0:0:0:
312,208,92072,1,8,1:2:0:0:
176,328,92244,6,0,L|144:128,1,192,0|0,0:0|0:0,0:0:0:0:
288,136,92758,1,8,0:0:0:0:
160,56,92930,2,0,L|360:56,1,192,0|2,0:0|1:3,0:0:0:0:
240,136,93444,2,0,L|128:136,1,96,8|2,1:2|1:3,0:0:0:0:
440,320,93787,6,0,L|504:216,1,96,2|0,1:2|0:0,0:0:0:0:
352,248,94130,1,8,0:0:0:0:
271,207,94301,1,0,0:0:0:0:
286,119,94472,1,0,0:0:0:0:
375,106,94644,1,2,1:3:0:0:
224,48,94815,1,8,1:3:0:0:
496,152,94987,6,0,P|424:120|304:152,1,192,4|4,1:3|1:3,0:0:0:0:
192,200,95501,1,8,0:0:0:0:
344,304,95672,2,0,P|392:264|320:176,1,192,0|8,0:0|1:3,0:0:0:0:
208,128,96187,2,0,L|96:128,1,96,8|0,1:3|1:3,0:0:0:0:
416,88,96530,6,0,L|424:184,1,96,6|2,1:2|0:3,0:0:0:0:
272,208,96872,2,0,L|280:320,1,96,0|2,1:2|0:3,0:0:0:0:
128,232,97215,2,0,L|16:232,2,96,0|2|0,1:2|0:3|1:2,0:0:0:0:
416,240,97730,6,0,P|480:200|392:144,1,192,2|2,0:3|0:3,0:0:0:0:
280,88,98244,2,0,L|392:88,1,96,0|2,1:2|0:3,0:0:0:0:
208,176,98587,1,0,1:2:0:0:
360,288,98758,1,8,0:0:0:0:
365,240,98843,1,8,0:0:0:0:
371,192,98929,1,8,1:2:0:0:
208,176,99101,1,0,1:2:0:0:
472,128,99272,6,0,L|360:128,2,96,6|0|8,1:2|0:0|0:0,0:0:0:0:
96,112,99787,2,0,P|48:160|136:240,1,192,6|2,1:1|1:3,0:0:0:0:
224,248,100301,1,8,0:0:0:0:
488,256,100472,5,6,1:2:0:0:
488,256,100815,1,0,0:0:0:0:
328,256,100987,1,0,0:0:0:0:
184,256,101158,1,0,0:0:0:0:
320,176,101330,2,0,L|360:72,1,96,0|0,0:0|0:0,0:0:0:0:
208,120,101672,2,0,L|112:120,1,96,8|0,0:0|0:0,0:0:0:0:
464,232,102015,6,0,L|312:232,2,144,6|0|0,1:2|0:0|0:0,0:0:0:0:
56,176,102701,2,0,L|216:176,2,144,6|0|0,1:2|0:0|0:0,0:0:0:0:
328,176,103387,6,0,L|488:176,2,144,2|0|0,0:0|0:0|0:0,0:0:0:0:
208,176,104072,2,0,L|96:176,1,96,2|0,0:0|0:0,0:0:0:0:
272,112,104415,2,0,L|368:112,1,96,2|0,0:0|0:0,0:0:0:0:
136,40,104758,6,0,P|116:102|144:184,1,144,2|0,0:0|0:0,0:0:0:0:
288,256,105272,1,0,0:0:0:0:
136,320,105444,2,0,L|296:312,1,144,2|0,0:0|0:0,0:0:0:0:
384,304,105958,1,0,0:0:0:0:
224,224,106130,6,0,L|208:128,1,96,0|0,1:2|0:0,0:0:0:0:
336,176,106472,2,0,L|432:176,1,96,0|0,1:2|0:0,0:0:0:0:
280,80,106815,2,0,L|176:80,1,96,0|0,1:2|0:0,0:0:0:0:
32,184,107158,2,0,L|144:184,1,96,0|0,1:2|1:2,0:0:0:0:
432,192,107501,6,0,L|280:192,2,144,0|0|0,1:2|1:2|1:2,0:0:0:0:
304,136,108187,2,0,L|184:136,1,96,0|0,1:2|1:2,0:0:0:0:
488,72,108530,1,8,1:2:0:0:
360,72,108701,1,0,1:2:0:0:
232,72,108872,6,0,L|72:72,2,144,0|0|0,1:2|1:2|1:2,0:0:0:0:
416,88,109558,2,0,L|296:88,1,96,0|0,1:2|1:2,0:0:0:0:
48,88,109901,1,8,1:2:0:0:
168,80,110072,1,0,1:2:0:0:
448,176,110244,6,0,L|336:176,1,96,2|0,1:3|1:2,0:0:0:0:
224,256,110587,2,0,L|328:256,1,96,2|0,1:3|1:2,0:0:0:0:
144,208,110930,2,0,L|128:112,1,96,2|0,1:3|1:2,0:0:0:0:
288,112,111272,2,0,L|400:112,1,96,2|0,1:3|1:2,0:0:0:0:
224,200,111615,6,0,L|160:200,1,48,2|0,1:3|1:2,0:0:0:0:
224,200,111787,2,0,L|280:200,1,48,0|0,1:2|1:2,0:0:0:0:
80,136,111958,2,0,L|8:136,1,48,2|0,1:3|1:2,0:0:0:0:
408,136,112130,2,0,L|464:136,1,48,0|0,1:2|1:2,0:0:0:0:
200,32,112301,5,2,1:3:0:0:
159,53,112386,1,0,1:2:0:0:
155,99,112472,1,0,1:2:0:0:
191,128,112558,1,0,1:2:0:0:
240,136,112644,2,0,L|352:136,1,96,4|0,1:3|0:0,0:0:0:0:
72,336,112987,6,0,P|40:280|96:216,1,144,6|0,1:2|0:0,0:0:0:0:
160,216,113330,2,0,L|288:216,1,96,0|0,1:2|0:0,0:0:0:0:
72,184,113672,6,0,L|40:80,1,96,8|0,1:1|1:2,0:0:0:0:
96,64,113930,2,0,L|232:64,1,96,8|0,1:1|1:2,0:0:0:0:
376,64,114187,1,8,1:1:0:0:
264,64,114358,5,6,1:1:0:0:
168,64,114530,2,0,L|120:64,1,48,0|0,0:0|0:0,0:0:0:0:
168,64,114701,2,0,L|296:64,1,96,0|0,1:2|0:0,0:0:0:0:
112,144,115044,1,8,1:1:0:0:
200,304,115215,1,0,1:2:0:0:
205,256,115300,1,8,1:1:0:0:
211,208,115386,1,0,0:0:0:0:
80,240,115558,1,8,1:1:0:0:
408,296,115730,6,0,P|448:256|448:168,1,144,6|0,1:2|0:0,0:0:0:0:
368,168,116072,2,0,L|400:56,1,96,0|0,1:2|0:0,0:0:0:0:
272,128,116415,6,0,L|160:128,1,96,8|0,1:1|1:2,0:0:0:0:
128,128,116672,2,0,L|232:128,1,96,8|0,1:1|1:2,0:0:0:0:
416,128,116930,1,8,1:1:0:0:
288,128,117101,5,6,1:1:0:0:
200,240,117272,1,0,0:0:0:0:
248,240,117357,1,0,0:0:0:0:
296,240,117443,1,0,1:2:0:0:
152,128,117615,1,0,0:0:0:0:
416,56,117787,5,8,1:1:0:0:
453,84,117872,1,0,0:0:0:0:
464,130,117958,1,0,1:2:0:0:
445,173,118044,1,0,1:2:0:0:
400,200,118130,2,0,L|288:200,1,96,4|0,1:2|1:2,0:0:0:0:
64,320,118472,6,0,P|24:264|72:200,1,144,6|0,1:2|0:0,0:0:0:0:
144,192,118815,2,0,L|120:96,1,96,0|0,1:2|0:0,0:0:0:0:
240,120,119158,6,0,L|344:120,1,96,8|0,1:1|1:2,0:0:0:0:
288,120,119415,2,0,L|160:120,1,96,8|0,1:1|1:2,0:0:0:0:
16,120,119672,1,8,1:1:0:0:
144,120,119844,5,0,1:2:0:0:
264,120,120015,2,0,L|320:120,1,48,0|0,0:0|0:0,0:0:0:0:
264,120,120187,2,0,L|144:120,1,96,8|0,0:0|1:2,0:0:0:0:
424,40,120530,5,8,1:1:0:0:
462,66,120615,1,0,1:2:0:0:
473,112,120701,1,0,1:2:0:0:
450,153,120787,1,8,1:1:0:0:
400,168,120872,2,0,L|288:168,1,96,0|8,1:2|1:1,0:0:0:0:
56,336,121215,6,0,P|16:264|88:176,1,192,6|8,1:2|1:2,0:0:0:0:
360,256,121730,2,0,P|424:224|336:160,1,192,6|8,1:1|1:2,0:0:0:0:
240,144,122244,1,0,1:2:0:0:
472,72,122415,6,0,L|240:72,1,192,6|0,1:2|0:0,0:0:0:0:
160,168,122930,2,0,L|288:168,1,96,6|0,1:1|0:0,0:0:0:0:
96,312,123272,1,8,1:1:0:0:
57,285,123357,1,0,1:2:0:0:
46,239,123443,1,0,1:2:0:0:
69,198,123529,1,0,1:2:0:0:
120,192,123615,2,0,L|248:192,1,96,8|8,1:1|1:1,0:0:0:0:
496,288,123958,6,0,L|376:280,1,96,2|0,1:2|0:0,0:0:0:0:
272,184,124301,2,0,L|376:176,1,96,2|0,1:2|0:0,0:0:0:0:
232,104,124644,2,0,L|120:88,1,96,2|0,1:2|0:0,0:0:0:0:
416,40,124987,5,4,0:3:0:0:
288,120,125158,2,0,L|304:240,1,96,0|0,0:0|0:0,0:0:0:0:
424,272,125501,1,0,0:0:0:0:
288,312,125672,1,0,1:2:0:0:
448,128,125844,6,0,L|320:144,2,96,0|0|0,1:2|1:2|1:2,0:0:0:0:
184,56,126358,1,8,1:2:0:0:
138,66,126443,1,0,0:0:0:0:
112,105,126529,1,8,1:2:0:0:
121,151,126615,1,8,1:2:0:0:
304,232,126701,6,0,L|432:248,1,96,6|0,1:1|0:0,0:0:0:0:
224,344,127044,2,0,L|208:224,1,96,6|0,1:2|0:0,0:0:0:0:
328,120,127387,2,0,L|432:136,2,96,10|0|10,1:2|0:0|1:2,0:0:0:0:
64,160,127901,6,0,L|272:136,2,192,2|2|2,1:2|1:2|1:2,0:0:0:0:
208,344,128758,2,0,L|240:232,1,96,0|0,0:0|1:2,0:0:0:0:
112,248,129101,1,10,1:2:0:0:
76,218,129186,1,0,0:0:0:0:
73,171,129272,1,0,1:2:0:0:
105,138,129358,1,0,0:0:0:0:
304,120,129444,6,0,L|400:120,1,96,2|0,1:2|0:0,0:0:0:0:
272,344,129787,2,0,L|248:232,1,96,2|0,1:2|0:0,0:0:0:0:
384,248,130130,2,0,L|488:256,2,96,10|0|10,1:2|1:2|1:2,0:0:0:0:
128,240,130644,6,0,P|64:192|72:72,1,192,2|2,1:2|1:2,0:0:0:0:
192,120,131158,2,0,L|296:120,1,96,0|2,0:0|1:2,0:0:0:0:
408,120,131501,1,0,0:0:0:0:
280,208,131672,1,0,1:2:0:0:
232,208,131757,1,0,0:0:0:0:
184,208,131843,1,10,1:2:0:0:
336,136,132015,1,8,1:2:0:0:
64,48,132187,6,0,L|48:168,1,96,2|0,1:2|0:0,0:0:0:0:
176,176,132530,2,0,L|200:272,1,96,2|0,1:2|0:0,0:0:0:0:
56,304,132872,2,0,L|192:320,2,96,10|0|10,1:2|1:2|1:2,0:0:0:0:
368,144,133387,6,0,L|168:160,2,192,2|2|2,1:2|1:2|1:2,0:0:0:0:
248,336,134244,2,0,L|224:216,1,96,0|0,0:0|0:0,0:0:0:0:
360,240,134587,1,10,1:2:0:0:
398,212,134672,1,0,0:0:0:0:
410,167,134758,1,0,1:2:0:0:
391,123,134844,1,0,0:0:0:0:
192,112,134930,6,0,L|56:120,1,96,2|0,1:2|0:0,0:0:0:0:
248,312,135272,2,0,L|272:208,1,96,2|0,1:2|0:0,0:0:0:0:
128,232,135615,2,0,L|16:240,2,96,10|0|10,1:2|1:2|1:2,0:0:0:0:
384,152,136130,6,0,L|160:128,1,192,0|0,1:2|1:2,0:0:0:0:
344,64,136644,2,0,L|456:80,1,96,0|0,1:2|1:2,0:0:0:0:
304,320,136987,1,2,1:3:0:0:
267,290,137072,1,0,0:0:0:0:
256,244,137158,1,0,1:2:0:0:
276,202,137244,1,0,0:0:0:0:
437,199,137330,1,8,1:2:0:0:
466,161,137415,1,0,1:2:0:0:
466,114,137501,1,0,1:2:0:0:
438,76,137587,1,0,1:2:0:0:
208,72,137672,6,0,L|72:72,1,96,6|0,1:2|0:0,0:0:0:0:
376,144,138015,1,8,1:3:0:0:
248,304,138187,1,0,0:0:0:0:
241,256,138272,1,0,0:0:0:0:
235,208,138358,1,8,1:3:0:0:
376,248,138530,2,0,L|480:248,1,96,8|8,1:3|1:3,0:0:0:0:
160,80,138872,6,0,P|112:120|176:208,1,192,0|0,1:2|1:2,0:0:0:0:
304,216,139387,2,0,L|424:216,1,96,8|0,0:3|1:2,0:0:0:0:
224,312,139730,1,0,0:0:0:0:
304,216,139901,1,0,0:0:0:0:
311,168,139986,1,0,0:0:0:0:
318,121,140072,1,8,1:3:0:0:
152,72,140244,1,0,1:2:0:0:
384,328,140415,6,0,L|496:352,1,96,0|0,1:2|0:0,0:0:0:0:
184,208,140758,1,8,1:3:0:0:
312,112,140930,1,0,0:0:0:0:
301,158,141015,1,0,0:0:0:0:
291,205,141101,1,8,1:3:0:0:
192,328,141272,2,0,L|312:328,1,96,8|8,1:3|1:3,0:0:0:0:
56,304,141615,6,0,L|32:96,1,192,0|0,1:2|1:2,0:0:0:0:
168,64,142130,1,8,0:3:0:0:
296,184,142301,1,0,1:2:0:0:
248,184,142386,1,0,0:0:0:0:
200,184,142472,1,0,0:0:0:0:
352,104,142644,2,0,L|464:104,2,96,0|8|0,0:0|1:3|1:3,0:0:0:0:
104,104,143158,6,0,L|0:104,1,96,0|0,1:2|0:0,0:0:0:0:
352,256,143501,1,8,1:3:0:0:
216,344,143672,1,0,0:0:0:0:
209,296,143757,1,0,0:0:0:0:
202,248,143843,1,8,1:3:0:0:
320,176,144015,2,0,L|416:160,1,96,8|8,1:3|1:3,0:0:0:0:
136,48,144358,6,0,P|72:96|168:160,1,192,0|0,1:2|1:2,0:0:0:0:
272,176,144872,1,8,0:3:0:0:
168,272,145044,2,0,L|272:272,1,96,0|0,1:2|0:0,0:0:0:0:
416,184,145387,1,0,0:0:0:0:
368,184,145472,1,0,0:0:0:0:
320,184,145558,1,8,1:3:0:0:
176,184,145730,1,0,1:2:0:0:
408,360,145901,6,0,L|440:256,1,96,0|0,1:2|0:0,0:0:0:0:
112,232,146244,1,8,1:3:0:0:
240,232,146415,1,0,0:0:0:0:
288,232,146500,1,0,0:0:0:0:
336,232,146586,1,8,1:3:0:0:
192,144,146758,2,0,L|80:144,2,96,8|8|0,1:3|1:3|1:2,0:0:0:0:
456,176,147272,6,0,L|440:280,1,96,0|0,1:2|1:2,0:0:0:0:
312,328,147615,2,0,L|336:208,1,96,0|0,1:2|1:2,0:0:0:0:
88,264,147958,1,2,1:3:0:0:
55,229,148043,1,0,0:0:0:0:
47,183,148129,1,0,1:2:0:0:
67,140,148215,1,0,0:0:0:0:
272,136,148301,2,0,L|328:136,1,48,2|0,1:3|1:2,0:0:0:0:
144,48,148472,2,0,L|88:48,1,48,0|0,1:2|1:2,0:0:0:0:
384,56,148644,5,0,0:0:0:0:
256,192,148815,12,0,150015,0:0:0:0:
