osu file format v14

[General]
AudioFilename: audio.mp3
AudioLeadIn: 0
PreviewTime: 44330
Countdown: 0
SampleSet: Soft
StackLeniency: 0.7
Mode: 2
LetterboxInBreaks: 0
EpilepsyWarning: 1
WidescreenStoryboard: 1

[Editor]
DistanceSpacing: 1
BeatDivisor: 4
GridSize: 8
TimelineZoom: 2.799999

[Metadata]
Title:Sweet Dreams (11t dnb mix)
TitleUnicode:Sweet Dreams (11t dnb mix)
Artist:Kana Nishino
ArtistUnicode:西野カナ
Creator:Ascendance
Version:Overdose
Source:
Tags:Love Collection ~mint~ FAST LANE MATS LIE SKARE happyrocket88 xinely nozhomi -kevincela- haruto meyrink asphyxia wivaiien yauxo iwinnie kocari gero andrea osuplayer111 tari captin1 giralda smoothie world kaifin doormat fieryrage byfar kibbleru sing kalamitous -mo- haruto_aizawa slayed collab collaboration storyboarder mbomb -_magic_bomb_- refaller
BeatmapID:1081357
BeatmapSetID:499488

[Difficulty]
HPDrainRate:7
CircleSize:4.2
OverallDifficulty:9.2
ApproachRate:9.2
SliderMultiplier:1.92
SliderTickRate:2

[Events]
//Background and Video events
0,0,"eleventea.jpg",0,0
//Break Periods
//Storyboard Layer 0 (Background)
//Storyboard Layer 1 (Fail)
//Storyboard Layer 2 (Pass)
//Storyboard Layer 3 (Foreground)
//Storyboard Sound Samples

[TimingPoints]
530,342.857142857143,4,2,80,40,1,0
3272,-100,4,2,80,50,0,0
6015,-100,4,2,80,60,0,0
8758,-100,4,2,80,70,0,0
33101,-100,4,2,81,40,0,0
33358,-100,4,2,82,20,0,0
33444,-100,4,2,80,70,0,0
38244,-100,4,2,81,70,0,0
38587,-100,4,2,80,70,0,0
42872,-100,4,2,81,70,0,0
43044,-100,4,2,80,40,0,0
43215,-100,4,2,80,50,0,0
43387,-100,4,2,80,60,0,0
43558,-100,4,2,80,70,0,0
44415,-100,4,2,80,60,0,0
44501,-100,4,2,81,60,0,0
48530,-100,4,2,80,60,0,0
49730,-100,4,2,80,20,0,0
49901,-100,4,2,80,60,0,0
55044,-100,4,2,81,60,0,0
55387,-100,4,2,80,70,0,1
56072,-100,4,2,81,70,0,1
56758,-100,4,2,80,70,0,1
57444,-100,4,2,81,70,0,1
58130,-100,4,2,80,70,0,1
58815,-100,4,2,81,70,0,1
59501,-100,4,2,80,70,0,1
60187,-100,4,2,81,70,0,1
60872,-100,4,2,80,70,0,1
61558,-100,4,2,81,70,0,1
62244,-100,4,2,80,70,0,1
62930,-100,4,2,81,70,0,1
63615,-100,4,2,80,70,0,1
63872,-100,4,2,80,20,0,1
63958,-100,4,2,80,70,0,1
64387,-100,4,2,80,20,0,1
64472,-100,4,2,80,70,0,1
65672,-100,4,2,81,70,0,1
66358,-100,4,2,80,70,0,1
69101,-100,4,2,80,60,0,0
69272,-100,4,2,81,60,0,0
77330,-100,4,2,80,60,0,0
90701,-100,4,2,81,40,0,0
90958,-100,4,2,80,20,0,0
91044,-100,4,2,80,60,0,0
95844,-100,4,2,81,60,0,0
96187,-100,4,2,80,60,0,0
100472,-100,4,2,81,60,0,0
100815,-100,4,2,80,40,0,0
101330,-100,4,2,80,50,0,0
106130,-100,4,2,80,60,0,0
107330,-100,4,2,80,20,0,0
107501,-100,4,2,80,50,0,0
112644,-100,4,2,81,50,0,0
112987,-100,4,2,80,70,0,1
113672,-100,4,2,81,70,0,1
114358,-100,4,2,80,70,0,1
115044,-100,4,2,81,70,0,1
115730,-100,4,2,80,70,0,1
116415,-100,4,2,81,70,0,1
117101,-100,4,2,80,70,0,1
117787,-100,4,2,81,70,0,1
118472,-100,4,2,80,70,0,1
119158,-100,4,2,81,70,0,1
119844,-100,4,2,80,70,0,1
120530,-100,4,2,81,70,0,1
121215,-100,4,2,80,70,0,1
121472,-100,4,2,80,20,0,1
121558,-100,4,2,80,70,0,1
121987,-100,4,2,80,20,0,1
122072,-100,4,2,80,70,0,1
123272,-100,4,2,81,70,0,1
123958,-100,4,2,80,70,0,1
126701,-100,4,2,80,70,0,0
126958,-100,4,2,80,20,0,0
127044,-100,4,2,80,70,0,0
137672,-100,4,2,80,60,0,0
138015,-100,4,2,81,60,0,0
147958,-100,4,2,80,60,0,0
148644,-100,4,2,80,50,0,0
148730,-100,4,2,80,10,0,0
150015,-100,4,2,80,10,0,0

[Colours]
Combo1 : 255,94,55
Combo2 : 173,255,95
Combo3 : 17,254,176
Combo4 : 255,88,100

[HitObjects]
128,192,530,6,0,L|224:192,1,96,6|0,1:2|0:0,0:0:0:0:
336,192,872,1,8,0:0:0:0:
214,49,1044,1,0,0:0:0:0:
176,78,1129,1,0,0:0:0:0:
164,123,1215,1,0,0:0:0:0:
182,167,1301,1,0,0:0:0:0:
223,191,1386,1,2,1:3:0:0:
64,304,1558,1,8,1:2:0:0:
192,304,1730,2,0,L|256:304,1,48,0|0,2:0|0:0,0:0:0:0:
40,216,1901,6,0,L|24:80,1,96,2|0,1:2|0:0,0:0:0:0:
136,72,2244,1,8,0:0:0:0:
301,114,2415,1,0,0:0:0:0:
293,161,2500,1,0,0:0:0:0:
266,199,2586,1,0,0:0:0:0:
223,221,2672,1,0,0:0:0:0:
176,220,2757,1,2,1:3:0:0:
368,256,2930,1,8,1:2:0:0:
232,368,3101,2,0,L|224:304,1,48,2|0,1:3|0:0,0:0:0:0:
464,88,3272,6,0,L|344:120,1,96,2|0,1:2|0:0,0:0:0:0:
240,144,3615,1,8,0:0:0:0:
376,272,3787,1,0,0:0:0:0:
404,234,3872,1,0,0:0:0:0:
403,187,3958,1,0,0:0:0:0:
375,149,4044,1,0,0:0:0:0:
329,137,4129,1,2,1:3:0:0:
160,136,4301,1,8,1:2:0:0:
248,64,4472,2,0,L|328:56,1,48,2|0,1:3|0:0,0:0:0:0:
104,352,4644,5,0,0:0:0:0:
86,308,4729,1,0,0:0:0:0:
98,262,4815,1,2,1:3:0:0:
134,232,4901,1,0,0:0:0:0:
181,228,4986,1,8,0:0:0:0:
312,248,5158,1,0,1:2:0:0:
184,184,5330,5,0,0:0:0:0:
227,165,5415,1,0,0:0:0:0:
256,127,5501,1,2,1:3:0:0:
264,81,5587,1,0,0:0:0:0:
249,36,5672,1,8,1:2:0:0:
88,32,5844,1,2,1:3:0:0:
392,360,6015,6,0,L|424:248,1,96,2|0,1:2|0:0,0:0:0:0:
256,248,6358,1,8,0:0:0:0:
376,168,6530,1,0,0:0:0:0:
328,164,6615,1,0,0:0:0:0:
280,160,6701,1,0,0:0:0:0:
232,156,6787,1,0,0:0:0:0:
184,152,6872,1,2,1:3:0:0:
320,64,7044,1,8,1:2:0:0:
208,56,7215,2,0,L|128:48,1,48,2|0,0:3|0:0,0:0:0:0:
368,256,7387,6,0,L|232:224,1,96,2|0,1:2|0:0,0:0:0:0:
424,168,7730,1,8,0:0:0:0:
288,56,7901,1,0,0:0:0:0:
254,89,7986,1,0,0:0:0:0:
249,136,8072,1,0,0:0:0:0:
273,176,8158,1,0,0:0:0:0:
318,192,8243,1,2,1:3:0:0:
184,272,8415,1,8,1:2:0:0:
328,368,8587,2,0,L|344:288,1,48,2|0,0:3|0:0,0:0:0:0:
88,272,8758,6,0,L|72:152,1,96,2|0,1:2|0:0,0:0:0:0:
208,136,9101,1,8,0:0:0:0:
80,72,9272,2,0,L|24:64,2,48,0|0|0,0:0|0:0|0:0,0:0:0:0:
240,232,9615,2,0,L|296:224,2,48,2|0|8,1:3|0:0|1:2,0:0:0:0:
80,344,9958,2,0,L|64:272,1,48,2|0,1:3|0:0,0:0:0:0:
328,64,10130,5,0,0:0:0:0:
366,91,10215,1,0,0:0:0:0:
383,135,10301,1,2,1:3:0:0:
375,182,10387,1,0,0:0:0:0:
342,216,10472,1,8,1:2:0:0:
200,160,10644,6,0,L|144:160,2,48,2|0|4,1:3|0:0|0:3,0:0:0:0:
344,160,10987,2,0,L|400:160,1,48,0|0,1:2|1:2,0:0:0:0:
80,80,11158,2,0,L|88:168,1,48,8|0,1:2|0:0,0:0:0:0:
296,200,11330,2,0,L|288:248,1,48,0|0,1:2|0:0,0:0:0:0:
88,344,11501,6,0,L|80:232,1,96,6|2,1:2|0:0,0:0:0:0:
192,216,11844,1,8,0:0:0:0:
64,120,12015,1,0,0:0:0:0:
111,117,12100,1,0,0:0:0:0:
159,114,12186,1,2,0:0:0:0:
296,104,12358,1,2,1:2:0:0:
192,216,12530,1,8,0:0:0:0:
352,272,12701,1,2,0:0:0:0:
104,352,12872,6,0,L|96:240,1,96,2|2,1:2|0:0,0:0:0:0:
192,216,13215,1,8,0:0:0:0:
48,48,13387,1,2,0:0:0:0:
54,95,13472,1,0,0:0:0:0:
60,143,13558,1,0,0:0:0:0:
360,216,13730,2,0,L|336:328,1,96,2|10,1:2|1:2,0:0:0:0:
224,288,14072,1,2,1:2:0:0:
456,48,14244,6,0,L|344:72,1,96,2|2,1:2|0:0,0:0:0:0:
232,104,14587,1,8,0:0:0:0:
352,176,14758,2,0,L|440:184,2,48,2|0|2,0:0|0:0|0:0,0:0:0:0:
208,224,15101,1,0,1:2:0:0:
368,368,15272,2,0,L|376:256,1,96,10|2,0:0|0:0,0:0:0:0:
192,304,15615,5,2,1:2:0:0:
304,224,15787,1,2,0:0:0:0:
307,176,15872,1,0,0:0:0:0:
311,128,15958,1,10,0:0:0:0:
168,72,16130,1,2,1:2:0:0:
320,24,16301,1,0,0:0:0:0:
48,320,16472,2,0,L|32:192,1,96,2|8,1:2|0:0,0:0:0:0:
128,184,16815,1,2,1:2:0:0:
456,80,16987,6,0,L|432:192,1,96,6|0,1:2|0:0,0:0:0:0:
272,200,17330,2,0,L|288:320,1,96,2|0,1:2|0:0,0:0:0:0:
120,224,17672,2,0,L|104:104,1,96,2|2,1:2|0:0,0:0:0:0:
232,104,18015,1,2,1:2:0:0:
384,88,18187,1,2,0:0:0:0:
56,80,18358,6,0,L|80:192,1,96,6|0,1:1|0:0,0:0:0:0:
240,200,18701,2,0,L|224:320,1,96,2|0,1:2|0:0,0:0:0:0:
392,224,19043,2,0,L|408:104,1,96,2|2,1:2|0:0,0:0:0:0:
280,104,19386,1,2,1:2:0:0:
128,88,19558,1,2,0:0:0:0:
480,216,19730,6,0,L|344:240,2,96,4|2|2,1:2|1:2|1:2,0:0:0:0:
248,136,20244,1,2,1:2:0:0:
16,216,20415,6,0,L|152:240,2,96,4|2|2,1:1|1:2|1:2,0:0:0:0:
248,136,20929,1,2,1:2:0:0:
488,136,21101,6,0,L|480:200,1,48,6|0,1:2|1:2,0:0:0:0:
416,240,21273,2,0,L|376:280,1,48,0|0,1:2|1:2,0:0:0:0:
176,288,21444,2,0,L|176:224,1,48,6|0,1:1|1:2,0:0:0:0:
256,216,21615,2,0,L|304:208,1,48,0|0,1:2|1:2,0:0:0:0:
96,48,21787,6,0,L|72:112,1,48,6|0,1:1|1:2,0:0:0:0:
368,128,21958,2,0,L|384:184,1,48,0|0,1:2|1:2,0:0:0:0:
48,280,22130,1,14,0:1:0:0:
168,280,22301,2,0,L|232:280,1,48,8|8,0:0|0:0,0:0:0:0:
424,208,22472,6,0,L|304:208,1,96,6|0,1:2|0:0,0:0:0:0:
200,208,22815,1,8,0:0:0:0:
328,40,22987,2,0,P|384:96|312:192,1,192,0|2,0:0|1:3,0:0:0:0:
80,128,23501,1,8,0:0:0:0:
200,128,23672,2,0,L|256:128,1,48,0|0,0:0|0:0,0:0:0:0:
200,128,23844,6,0,L|80:128,2,96,2|0|8,1:2|0:0|0:0,0:0:0:0:
464,152,24358,2,0,L|264:152,1,192,0|2,0:0|1:3,0:0:0:0:
128,240,24872,2,0,L|240:240,1,96,8|2,0:0|1:3,0:0:0:0:
352,240,25215,5,2,1:2:0:0:
192,152,25387,1,2,0:3:0:0:
352,72,25558,1,8,0:0:0:0:
48,72,25730,2,0,P|32:184|88:272,1,192,0|2,0:0|1:3,0:0:0:0:
232,288,26244,1,8,0:0:0:0:
480,176,26415,6,0,L|360:152,1,96,0|0,1:2|0:0,0:0:0:0:
224,208,26758,2,0,L|336:240,1,96,0|8,1:2|0:0,0:0:0:0:
176,88,27101,2,0,L|296:120,1,96,2|0,1:3|0:0,0:0:0:0:
96,280,27444,2,0,L|72:144,1,96,2|8,1:3|0:0,0:0:0:0:
352,40,27787,6,0,P|400:104|312:184,1,192,2|0,1:3|0:0,0:0:0:0:
224,216,28301,1,8,0:0:0:0:
328,352,28472,1,0,0:0:0:0:
334,304,28557,1,0,0:0:0:0:
341,256,28643,1,0,0:0:0:0:
224,216,28815,1,2,1:3:0:0:
360,152,28987,1,8,0:0:0:0:
80,48,29158,6,0,L|288:80,1,192,0|0,0:0|0:0,0:0:0:0:
136,168,29672,1,8,0:0:0:0:
256,328,29844,1,0,0:0:0:0:
262,280,29929,1,0,0:0:0:0:
269,232,30015,1,0,0:0:0:0:
128,280,30187,2,0,L|56:280,2,48,2|0|8,1:3|0:0|0:0,0:0:0:0:
280,280,30530,1,0,1:2:0:0:
16,88,30701,6,0,L|152:104,1,96,2|0,1:3|0:0,0:0:0:0:
384,160,31044,2,0,L|280:176,1,96,2|0,1:3|0:0,0:0:0:0:
184,200,31387,1,8,3:2:0:0:
296,88,31558,1,8,3:2:0:0:
136,48,31730,1,8,3:2:0:0:
464,296,31901,1,8,3:2:0:0:
40,336,32072,5,2,1:2:0:0:
224,264,32415,1,0,1:2:0:0:
40,176,32758,1,0,1:2:0:0:
192,96,33101,1,4,1:1:0:0:
151,120,33186,1,0,0:0:0:0:
130,162,33272,1,0,0:0:0:0:
136,209,33358,1,0,0:0:0:0:
384,344,33444,6,0,L|400:232,1,96,6|0,1:2|0:0,0:0:0:0:
272,208,33787,1,8,0:0:0:0:
400,104,33958,2,0,L|184:120,1,192,0|2,0:0|1:3,0:0:0:0:
320,200,34472,1,8,0:0:0:0:
224,320,34644,2,0,L|208:272,1,48,0|0,0:0|0:0,0:0:0:0:
288,256,34815,6,0,L|408:232,2,96,0|0|8,1:2|0:0|0:0,0:0:0:0:
32,120,35330,2,0,L|240:152,1,192,0|2,0:0|1:3,0:0:0:0:
104,224,35844,1,8,0:0:0:0:
232,360,36015,2,0,L|248:304,1,48,2|0,1:3|0:0,0:0:0:0:
64,112,36187,6,0,L|184:136,2,96,2|0|8,1:2|0:0|0:0,0:0:0:0:
336,64,36701,2,0,P|392:112|312:208,1,192,0|2,0:0|1:3,0:0:0:0:
208,216,37215,1,8,0:0:0:0:
440,368,37387,6,0,L|456:240,1,96,4|0,1:3|0:0,0:0:0:0:
296,296,37730,2,0,L|280:184,1,96,4|8,1:3|0:0,0:0:0:0:
112,224,38072,2,0,L|120:144,1,48,0|0,1:2|0:0,0:0:0:0:
304,96,38244,2,0,L|192:80,2,96,8|8|8,0:3|1:3|0:0,0:0:0:0:
432,128,38758,1,0,1:2:0:0:
144,328,38930,6,0,L|128:208,1,96,6|2,1:2|0:3,0:0:0:0:
240,208,39272,2,0,L|344:208,1,96,0|2,1:2|0:3,0:0:0:0:
192,128,39615,1,0,1:2:0:0:
312,128,39787,2,0,L|384:128,2,48,2|0|0,0:3|0:0|1:2,0:0:0:0:
72,64,40130,5,2,0:3:0:0:
168,64,40301,1,4,1:1:0:0:
264,64,40472,1,2,0:3:0:0:
24,320,40644,2,0,L|8:216,1,96,0|2,1:2|0:3,0:0:0:0:
112,192,40987,1,0,1:2:0:0:
400,240,41158,5,8,0:0:0:0:
352,243,41243,1,8,0:0:0:0:
304,246,41329,1,8,1:2:0:0:
464,144,41501,1,0,1:2:0:0:
192,112,41672,6,0,L|312:128,2,96,6|0|8,1:2|0:0|0:0,0:0:0:0:
440,64,42187,2,0,P|488:120|400:216,1,192,6|2,1:1|1:3,0:0:0:0:
312,240,42701,1,8,0:0:0:0:
32,280,42872,5,6,1:2:0:0:
288,360,43215,2,0,L|312:240,1,96,0|0,1:2|1:2,0:0:0:0:
192,224,43558,1,0,1:2:0:0:
424,64,43730,1,8,1:2:0:0:
460,93,43815,1,0,0:0:0:0:
473,139,43901,1,0,1:2:0:0:
459,184,43987,1,0,0:0:0:0:
184,224,44072,2,0,L|48:200,1,96,8|0,1:2|0:0,0:0:0:0:
464,280,44415,6,0,L|304:296,2,144,6|8|8,1:2|0:3|0:3,0:0:0:0:
48,120,45101,2,0,L|224:152,2,144,2|8|8,0:0|0:3|0:3,0:0:0:0:
368,56,45787,6,0,L|320:224,1,144,2|0,0:0|0:0,0:0:0:0:
160,224,46301,1,0,0:0:0:0:
320,304,46472,1,2,0:0:0:0:
390,243,46643,1,0,0:0:0:0:
385,150,46814,1,2,0:0:0:0:
310,97,46986,1,0,0:0:0:0:
40,192,47158,6,0,L|224:208,1,144,2|8,0:0|0:3,0:0:0:0:
344,232,47672,1,8,0:3:0:0:
64,360,47844,6,0,L|40:208,1,144,2|0,0:0|0:0,0:0:0:0:
400,120,48358,1,0,0:0:0:0:
96,48,48530,6,0,L|128:168,1,96,0|0,1:2|0:0,0:0:0:0:
272,184,48872,2,0,L|248:304,1,96,0|0,1:2|0:0,0:0:0:0:
128,360,49215,1,0,1:2:0:0:
256,280,49387,2,0,L|328:272,2,48,0|0|0,0:0|0:0|1:2,0:0:0:0:
88,224,49730,1,0,1:2:0:0:
416,48,49901,6,0,L|392:152,1,96,0|0,1:2|0:0,0:0:0:0:
304,176,50158,2,0,L|320:304,1,96,0|0,1:2|0:0,0:0:0:0:
400,304,50415,2,0,L|384:368,1,48,0|0,1:2|0:0,0:0:0:0:
168,320,50587,2,0,P|120:256|168:192,1,144,0|0,1:2|1:2,0:0:0:0:
320,168,50930,2,0,L|456:152,1,96,8|0,1:2|1:2,0:0:0:0:
80,48,51272,6,0,L|120:160,1,96,0|0,1:2|0:0,0:0:0:0:
224,168,51530,2,0,L|200:272,1,96,0|0,1:2|0:0,0:0:0:0:
112,296,51787,2,0,L|128:368,1,48,0|0,1:2|0:0,0:0:0:0:
424,336,51958,2,0,P|472:272|416:216,1,144,0|0,1:2|0:0,0:0:0:0:
232,208,52301,2,0,L|120:200,1,96,8|0,1:2|1:2,0:0:0:0:
488,64,52644,5,2,1:3:0:0:
360,80,52815,1,0,1:2:0:0:
232,104,52987,1,2,1:3:0:0:
360,184,53158,1,0,1:2:0:0:
24,64,53330,5,2,1:3:0:0:
152,80,53501,1,0,1:2:0:0:
280,104,53673,1,2,1:3:0:0:
152,184,53844,1,0,1:2:0:0:
384,336,54015,6,0,L|416:272,1,48,2|0,1:3|1:2,0:0:0:0:
256,256,54187,1,0,1:2:0:0:
217,230,54272,1,0,1:2:0:0:
208,184,54358,1,2,1:3:0:0:
235,146,54444,1,0,1:2:0:0:
384,72,54530,2,0,L|432:80,1,48,0|0,1:2|1:2,0:0:0:0:
120,48,54701,6,0,L|88:96,1,48,2|0,1:3|1:2,0:0:0:0:
320,208,54872,2,0,L|344:272,1,48,0|0,1:2|1:2,0:0:0:0:
120,344,55044,2,0,L|96:248,1,96,4|0,1:3|0:0,0:0:0:0:
168,200,55301,1,0,0:0:0:0:
408,96,55387,5,6,1:2:0:0:
288,96,55558,2,0,L|224:96,1,48,0|0,0:0|0:0,0:0:0:0:
400,352,55730,2,0,P|464:288|464:216,1,144,0|0,1:2|0:0,0:0:0:0:
216,256,56072,6,0,L|192:136,1,96,8|0,1:1|1:2,0:0:0:0:
344,168,56330,2,0,L|360:56,1,96,8|0,1:1|1:2,0:0:0:0:
144,48,56587,1,8,1:1:0:0:
432,56,56758,5,6,1:1:0:0:
312,128,56930,1,0,0:0:0:0:
315,175,57015,1,0,0:0:0:0:
318,223,57101,1,0,1:2:0:0:
448,296,57272,1,0,0:0:0:0:
208,344,57444,5,8,1:1:0:0:
175,310,57529,1,0,0:0:0:0:
169,263,57615,1,0,1:2:0:0:
194,223,57701,1,8,1:1:0:0:
240,208,57787,5,0,0:0:0:0:
273,174,57872,1,0,1:2:0:0:
279,128,57958,1,8,1:1:0:0:
254,87,58044,1,0,0:0:0:0:
72,48,58130,5,6,1:2:0:0:
184,48,58301,2,0,L|240:24,1,48,0|0,0:0|0:0,0:0:0:0:
64,360,58472,2,0,P|48:280|80:184,1,144,0|0,1:2|0:0,0:0:0:0:
296,152,58815,6,0,L|336:272,1,96,8|0,1:1|1:2,0:0:0:0:
240,272,59072,2,0,L|144:272,1,96,8|0,1:1|1:2,0:0:0:0:
312,272,59330,1,8,1:1:0:0:
80,152,59501,5,6,1:1:0:0:
216,72,59672,1,0,0:0:0:0:
209,119,59757,1,0,0:0:0:0:
203,167,59843,1,0,1:2:0:0:
80,152,60015,1,0,0:0:0:0:
384,328,60187,6,0,L|392:272,1,48,8|0,1:1|0:0,0:0:0:0:
304,264,60358,2,0,L|296:208,1,48,0|0,1:2|1:2,0:0:0:0:
392,208,60530,1,8,1:1:0:0:
438,198,60615,1,0,1:2:0:0:
468,162,60701,1,8,1:1:0:0:
469,115,60787,1,0,1:2:0:0:
192,64,60872,5,6,1:2:0:0:
280,128,61044,2,0,L|272:192,1,48,0|0,0:0|0:0,0:0:0:0:
88,224,61215,2,0,P|112:328|176:344,1,144,0|0,1:2|0:0,0:0:0:0:
392,344,61558,6,0,L|408:240,1,96,8|0,1:1|1:2,0:0:0:0:
264,272,61815,2,0,L|248:168,1,96,8|0,1:1|1:2,0:0:0:0:
456,136,62072,1,8,1:1:0:0:
184,88,62244,5,0,1:2:0:0:
64,176,62415,1,0,0:0:0:0:
110,183,62500,1,0,0:0:0:0:
148,212,62586,1,8,0:0:0:0:
169,255,62672,1,0,0:0:0:0:
168,302,62757,1,0,1:2:0:0:
152,344,62844,1,0,1:2:0:0:
8,304,62930,6,0,L|88:280,1,48,8|0,1:1|1:2,0:0:0:0:
368,224,63101,2,0,L|312:208,1,48,0|8,1:2|1:1,0:0:0:0:
40,96,63272,2,0,L|120:80,1,48,0|0,1:2|1:2,0:0:0:0:
464,112,63444,2,0,L|392:96,1,48,8|0,1:1|1:2,0:0:0:0:
224,264,63615,6,0,P|160:184|160:144,1,144,6|0,1:2|0:0,0:0:0:0:
208,112,63958,1,8,1:2:0:0:
448,176,64130,2,0,P|464:256|400:312,1,144,6|0,1:1|0:0,0:0:0:0:
368,312,64472,1,8,1:2:0:0:
96,200,64644,1,0,1:2:0:0:
400,48,64815,6,0,P|408:136|368:216,1,144,6|0,1:2|0:0,0:0:0:0:
360,240,65158,1,0,0:0:0:0:
240,128,65330,1,6,1:1:0:0:
400,48,65501,1,0,0:0:0:0:
144,344,65672,6,0,L|136:272,1,48,8|0,1:1|1:2,0:0:0:0:
232,288,65844,2,0,L|240:232,1,48,0|0,1:2|1:2,0:0:0:0:
48,160,66015,2,0,L|184:136,1,96,8|8,1:1|1:1,0:0:0:0:
312,72,66358,6,0,L|296:184,1,96,2|0,1:2|0:0,0:0:0:0:
176,232,66701,2,0,L|184:344,1,96,2|0,1:2|0:0,0:0:0:0:
360,360,67044,1,2,1:2:0:0:
392,325,67129,1,0,0:0:0:0:
401,278,67215,1,0,0:0:0:0:
385,234,67301,1,0,0:0:0:0:
160,144,67387,1,4,0:3:0:0:
280,144,67558,6,0,L|384:144,2,96,0|0|0,0:0|0:0|0:0,0:0:0:0:
160,144,68072,1,0,0:0:0:0:
448,264,68244,2,0,L|240:264,2,192,0|0|0,0:0|0:0|0:0,0:0:0:0:
120,352,69101,6,0,L|112:232,1,96,6|0,1:2|0:0,0:0:0:0:
184,232,69358,1,0,0:0:0:0:
328,232,69444,2,0,L|432:232,1,96,2|0,1:2|0:0,0:0:0:0:
160,120,69787,2,0,L|0:120,2,144,8|8|8,1:1|1:1|1:1,0:0:0:0:
304,120,70472,6,0,L|416:120,1,96,2|0,1:2|0:0,0:0:0:0:
360,120,70730,1,0,0:0:0:0:
128,200,70815,2,0,L|144:296,1,96,2|0,1:2|0:0,0:0:0:0:
464,216,71158,2,0,L|320:224,2,144,8|8|8,1:1|1:1|1:1,0:0:0:0:
176,72,71844,5,2,1:2:0:0:
148,110,71929,1,0,0:0:0:0:
147,157,72015,1,0,0:0:0:0:
173,196,72101,1,0,0:0:0:0:
336,304,72187,2,0,L|440:296,1,96,2|0,1:2|0:0,0:0:0:0:
88,208,72530,2,0,L|240:224,2,144,8|8|8,1:1|1:1|1:1,0:0:0:0:
368,56,73215,6,0,L|384:104,1,48,2|0,1:2|0:0,0:0:0:0:
312,120,73387,2,0,L|304:176,1,48,0|0,0:0|0:0,0:0:0:0:
480,224,73558,2,0,L|440:336,1,96,2|0,1:2|0:0,0:0:0:0:
176,216,73901,2,0,L|344:248,2,144,8|8|8,1:1|1:1|1:1,0:0:0:0:
464,104,74587,5,2,1:2:0:0:
344,104,74758,1,0,0:0:0:0:
296,104,74843,1,0,0:0:0:0:
248,104,74929,1,2,1:2:0:0:
392,192,75101,1,0,0:0:0:0:
80,240,75272,2,0,L|248:264,2,144,8|8|8,1:1|1:1|1:1,0:0:0:0:
384,312,75958,5,2,1:2:0:0:
224,248,76130,1,0,0:0:0:0:
272,248,76215,1,0,0:0:0:0:
320,248,76301,1,2,1:2:0:0:
160,184,76472,1,0,0:0:0:0:
472,96,76644,2,0,L|288:96,2,144,8|8|8,1:1|1:1|1:1,0:0:0:0:
88,328,77330,6,0,P|56:240|96:160,1,144,2|0,1:2|0:0,0:0:0:0:
368,264,77672,2,0,P|416:208|400:120,1,144,8|0,1:2|0:0,0:0:0:0:
168,64,78015,1,8,1:2:0:0:
272,128,78187,1,8,1:2:0:0:
168,192,78358,1,8,1:2:0:0:
456,272,78530,1,8,1:2:0:0:
48,336,78701,5,2,1:3:0:0:
240,264,79044,1,2,1:3:0:0:
56,160,79387,1,2,1:3:0:0:
160,136,79558,1,0,0:0:0:0:
264,112,79730,1,4,0:3:0:0:
309,124,79815,1,0,0:0:0:0:
336,163,79901,1,0,0:0:0:0:
334,210,79987,1,0,0:0:0:0:
136,352,80072,6,0,L|128:248,1,96,6|0,1:2|0:0,0:0:0:0:
248,240,80415,1,8,0:0:0:0:
112,168,80587,2,0,L|320:152,1,192,0|2,0:0|1:3,0:0:0:0:
152,64,81101,1,8,1:2:0:0:
317,58,81272,1,0,0:0:0:0:
310,105,81357,1,0,0:0:0:0:
303,153,81444,5,2,1:2:0:0:
176,200,81615,2,0,L|208:320,1,96,0|8,0:0|0:0,0:0:0:0:
448,344,81958,2,0,P|504:272|432:200,1,192,0|2,0:0|1:3,0:0:0:0:
96,144,82472,2,0,L|224:120,1,96,8|2,1:2|1:3,0:0:0:0:
472,128,82815,5,2,1:2:0:0:
320,128,82987,2,0,L|256:128,2,48,0|0|8,0:0|0:0|0:0,0:0:0:0:
472,128,83330,2,0,L|280:128,1,192,0|2,0:0|1:3,0:0:0:0:
120,128,83844,1,8,1:2:0:0:
384,344,84015,6,0,L|400:232,1,96,2|0,1:3|0:0,0:0:0:0:
264,232,84358,2,0,L|160:232,1,96,2|8,1:3|0:0,0:0:0:0:
312,160,84701,2,0,L|408:160,1,96,2|0,1:3|0:0,0:0:0:0:
248,64,85044,1,0,1:2:0:0:
227,106,85129,1,0,1:2:0:0:
225,154,85215,1,8,1:2:0:0:
241,199,85301,1,0,0:0:0:0:
464,280,85387,6,0,L|264:296,1,192,4|0,1:2|0:0,0:0:0:0:
24,176,85901,1,8,0:0:0:0:
176,120,86072,1,0,0:0:0:0:
128,116,86157,1,0,0:0:0:0:
80,113,86243,1,0,1:2:0:0:
224,48,86415,2,0,L|336:56,1,96,0|8,0:0|0:0,0:0:0:0:
64,240,86758,6,0,L|272:256,1,192,0|0,0:0|0:0,0:0:0:0:
496,288,87272,1,8,0:0:0:0:
368,224,87444,1,0,0:0:0:0:
352,176,87530,1,0,0:0:0:0:
336,136,87615,1,0,1:2:0:0:
440,88,87787,1,0,1:2:0:0:
112,56,87958,1,8,0:0:0:0:
248,96,88130,2,0,L|240:152,1,48,0|0,0:0|0:0,0:0:0:0:
40,176,88301,6,0,L|56:272,1,96,2|0,1:3|0:0,0:0:0:0:
408,360,88644,2,0,L|424:256,1,96,2|0,1:3|0:0,0:0:0:0:
288,248,88987,1,8,3:2:0:0:
416,176,89158,1,8,3:2:0:0:
288,120,89330,1,8,3:2:0:0:
56,48,89501,1,8,3:2:0:0:
456,48,89672,5,2,1:2:0:0:
304,192,90015,1,0,1:2:0:0:
480,336,90358,1,0,1:2:0:0:
224,320,90701,2,0,P|192:264|248:192,1,144,4|0,1:1|0:0,0:0:0:0:
480,56,91044,6,0,L|456:168,1,96,6|0,1:2|0:0,0:0:0:0:
336,200,91387,1,8,0:0:0:0:
200,112,91558,2,0,L|400:128,1,192,0|2,0:0|1:3,0:0:0:0:
288,192,92072,1,8,1:2:0:0:
136,248,92244,2,0,L|200:192,1,48
120,176,92415,6,0,L|80:72,1,96,2|0,1:2|0:0,0:0:0:0:
424,96,92758,1,8,0:0:0:0:
136,40,92930,2,0,P|96:72|160:176,1,192,0|2,0:0|1:3,0:0:0:0:
280,192,93444,2,0,L|392:184,1,96,8|2,1:2|1:3,0:0:0:0:
112,304,93787,6,0,L|8:280,2,96,2|0|8,1:2|0:0|0:0,0:0:0:0:
240,288,94301,1,0,0:0:0:0:
104,200,94472,1,0,0:0:0:0:
432,112,94644,1,2,1:3:0:0:
296,112,94815,1,8,1:3:0:0:
40,104,94987,6,0,L|240:136,1,192,4|4,1:3|1:3,0:0:0:0:
376,168,95501,1,8,0:0:0:0:
104,368,95672,2,0,P|88:280|184:208,1,192,0|8,0:0|1:3,0:0:0:0:
272,208,96187,2,0,L|368:224,1,96,8|0,1:3|1:3,0:0:0:0:
64,56,96530,6,0,L|88:184,1,96,6|2,1:2|0:3,0:0:0:0:
264,192,96872,2,0,L|240:320,1,96,0|2,1:2|0:3,0:0:0:0:
432,320,97215,1,0,1:2:0:0:
328,200,97387,2,0,L|448:200,1,96,2|0,0:3|1:2,0:0:0:0:
144,56,97730,6,0,P|120:112|240:184,1,192,2|2,0:3|0:3,0:0:0:0:
48,352,98244,2,0,L|40:256,1,96,0|2,1:2|0:3,0:0:0:0:
144,224,98587,1,0,1:2:0:0:
464,104,98758,1,8,0:0:0:0:
416,106,98843,1,8,0:0:0:0:
368,109,98929,1,8,1:2:0:0:
104,120,99101,1,0,1:2:0:0:
384,368,99272,6,0,L|408:264,1,96,6|0,1:2|0:0,0:0:0:0:
296,224,99615,1,8,0:0:0:0:
48,64,99787,2,0,L|272:96,1,192,6|2,1:1|1:3,0:0:0:0:
400,120,100301,1,8,0:0:0:0:
64,336,100472,5,6,1:2:0:0:
256,280,100815,1,0,0:0:0:0:
160,208,100987,1,0,0:0:0:0:
320,168,101158,1,0,0:0:0:0:
64,64,101330,2,0,L|72:176,1,96,0|0,0:0|0:0,0:0:0:0:
448,184,101672,2,0,L|432:288,1,96,8|0,0:0|0:0,0:0:0:0:
96,288,102015,5,6,1:2:0:0:
288,232,102272,1,0,0:0:0:0:
104,128,102530,1,0,0:0:0:0:
416,288,102701,5,6,1:2:0:0:
224,232,102958,1,0,0:0:0:0:
408,128,103216,1,0,0:0:0:0:
96,48,103387,6,0,L|248:136,1,144,2|0,0:0|0:0,0:0:0:0:
80,224,103901,1,0,0:0:0:0:
240,336,104072,1,2,0:0:0:0:
312,279,104243,1,0,0:0:0:0:
297,189,104414,1,2,0:0:0:0:
211,159,104586,1,0,0:0:0:0:
472,48,104758,6,0,L|448:200,1,144,2|0,0:0|0:0,0:0:0:0:
328,232,105272,1,0,0:0:0:0:
64,96,105444,2,0,L|240:112,1,144,2|0,0:0|0:0,0:0:0:0:
360,128,105958,1,0,0:0:0:0:
72,336,106130,6,0,L|64:240,1,96,0|0,1:2|0:0,0:0:0:0:
232,232,106472,2,0,L|328:232,1,96,0|0,1:2|0:0,0:0:0:0:
192,136,106815,2,0,L|304:136,1,96,0|0,1:2|0:0,0:0:0:0:
472,56,107158,2,0,L|352:56,1,96,0|0,1:2|1:2,0:0:0:0:
80,80,107501,6,0,L|104:200,1,96,0|0,1:2|0:0,0:0:0:0:
208,184,107758,2,0,L|192:288,1,96,0|0,1:2|0:0,0:0:0:0:
88,312,108015,2,0,L|104:384,1,48,0|0,1:2|0:0,0:0:0:0:
392,336,108187,2,0,P|464:288|440:216,1,144,0|0,1:2|1:2,0:0:0:0:
256,176,108530,2,0,L|128:168,1,96,8|0,1:2|1:2,0:0:0:0:
456,64,108872,6,0,L|440:168,1,96,0|0,1:2|0:0,0:0:0:0:
336,176,109130,2,0,L|352:288,1,96,0|0,1:2|0:0,0:0:0:0:
440,312,109387,2,0,L|424:368,1,48,0|0,1:2|0:0,0:0:0:0:
136,320,109558,2,0,P|112:248|184:208,1,144,0|0,1:2|0:0,0:0:0:0:
352,200,109901,2,0,L|448:200,1,96,8|0,1:2|1:2,0:0:0:0:
72,72,110244,5,2,1:3:0:0:
192,120,110415,1,0,1:2:0:0:
64,200,110587,1,2,1:3:0:0:
64,336,110758,1,0,1:2:0:0:
440,72,110930,5,2,1:3:0:0:
320,128,111101,1,0,1:2:0:0:
448,200,111273,1,2,1:3:0:0:
448,336,111444,1,0,1:2:0:0:
168,304,111615,6,0,L|136:240,1,48,2|0,1:3|1:2,0:0:0:0:
368,224,111787,2,0,L|416:216,1,48,0|0,1:2|1:2,0:0:0:0:
208,176,111958,1,2,1:3:0:0:
219,129,112043,1,0,1:2:0:0:
251,95,112129,1,0,1:2:0:0:
297,81,112215,1,0,1:2:0:0:
112,80,112301,6,0,L|40:72,1,48,2|0,1:3|1:2,0:0:0:0:
392,160,112472,2,0,L|448:152,1,48,0|0,1:2|1:2,0:0:0:0:
128,280,112644,2,0,L|64:264,1,48,4|0,1:3|0:0,0:0:0:0:
416,344,112815,2,0,L|488:328,1,48,0|0,0:0|0:0,0:0:0:0:
208,184,112987,5,6,1:2:0:0:
336,104,113158,2,0,L|320:160,1,48,0|0,0:0|0:0,0:0:0:0:
80,272,113330,2,0,P|72:208|152:144,1,144,0|0,1:2|0:0,0:0:0:0:
416,144,113672,6,0,L|384:240,1,96,8|0,1:1|1:2,0:0:0:0:
240,248,113930,2,0,L|264:376,1,96,8|0,1:1|1:2,0:0:0:0:
472,352,114187,1,8,1:1:0:0:
160,232,114358,5,6,1:1:0:0:
280,176,114530,1,0,0:0:0:0:
283,128,114615,1,0,0:0:0:0:
286,80,114701,1,0,1:2:0:0:
144,32,114872,1,0,0:0:0:0:
376,192,115044,6,0,L|432:192,1,48,8|0,1:1|0:0,0:0:0:0:
376,192,115215,2,0,L|320:192,2,48,0|8|0,1:2|1:1|0:0,0:0:0:0:
424,192,115472,1,0,1:2:0:0:
464,152,115557,1,8,1:1:0:0:
424,104,115643,1,0,0:0:0:0:
104,80,115730,5,6,1:2:0:0:
240,136,115901,2,0,L|224:192,1,48,0|0,0:0|0:0,0:0:0:0:
32,352,116072,2,0,P|32:280|112:232,1,144,0|0,1:2|0:0,0:0:0:0:
312,256,116415,6,0,L|368:160,1,96,8|0,1:1|1:2,0:0:0:0:
272,176,116672,2,0,L|256:64,1,96,8|0,1:1|1:2,0:0:0:0:
432,64,116930,1,8,1:1:0:0:
176,192,117101,5,6,1:1:0:0:
304,344,117272,1,0,0:0:0:0:
314,297,117357,1,0,0:0:0:0:
325,250,117443,1,0,1:2:0:0:
168,288,117615,2,0,L|104:296,1,48,0|0,0:0|0:0,0:0:0:0:
325,250,117787,5,8,1:1:0:0:
372,252,117872,1,0,0:0:0:0:
413,228,117958,1,0,1:2:0:0:
432,184,118044,1,0,1:2:0:0:
200,192,118130,1,4,1:2:0:0:
165,160,118215,1,0,1:2:0:0:
163,113,118301,1,0,1:2:0:0:
193,78,118387,1,0,1:2:0:0:
416,48,118472,5,6,1:2:0:0:
288,136,118644,2,0,L|296:184,1,48,0|0,0:0|0:0,0:0:0:0:
472,240,118815,2,0,P|440:288|328:312,1,144,0|0,1:2|0:0,0:0:0:0:
144,328,119158,6,0,L|128:208,1,96,8|0,1:1|1:2,0:0:0:0:
280,256,119415,2,0,L|296:152,1,96,8|0,1:1|1:2,0:0:0:0:
32,120,119672,1,8,1:1:0:0:
384,64,119844,5,0,1:2:0:0:
232,96,120015,1,0,0:0:0:0:
235,143,120100,1,0,0:0:0:0:
261,183,120186,1,8,0:0:0:0:
302,206,120272,1,0,0:0:0:0:
350,206,120357,1,0,1:2:0:0:
400,200,120444,1,0,1:2:0:0:
192,288,120530,6,0,L|136:296,1,48,8|0,1:1|1:2,0:0:0:0:
368,128,120701,2,0,L|424:120,1,48,0|8,1:2|1:1,0:0:0:0:
64,168,120872,2,0,L|40:96,1,48,0|0,1:2|1:2,0:0:0:0:
464,288,121044,2,0,L|448:352,1,48,8|0,1:1|1:2,0:0:0:0:
224,224,121215,6,0,P|208:168|296:136,1,144,6|0,1:2|0:0,0:0:0:0:
328,128,121558,1,8,1:2:0:0:
80,344,121730,2,0,P|24:288|72:240,1,144,6|0,1:1|0:0,0:0:0:0:
104,232,122072,1,8,1:2:0:0:
336,224,122244,1,0,1:2:0:0:
40,64,122415,6,0,L|224:88,1,144,6|0,1:2|0:0,0:0:0:0:
248,96,122758,1,0,0:0:0:0:
136,304,122930,2,0,L|128:192,1,96,6|0,1:1|0:0,0:0:0:0:
408,64,123272,5,8,1:1:0:0:
452,78,123357,1,0,1:2:0:0:
472,120,123443,1,0,1:2:0:0:
456,163,123529,1,0,1:2:0:0:
200,288,123615,2,0,L|96:288,1,96,8|8,1:1|1:1,0:0:0:0:
272,232,123958,6,0,L|304:128,1,96,2|0,1:2|0:0,0:0:0:0:
208,112,124301,2,0,L|96:104,1,96,2|0,1:2|0:0,0:0:0:0:
304,32,124644,1,2,1:2:0:0:
335,67,124729,1,0,0:0:0:0:
344,113,124815,1,0,0:0:0:0:
327,158,124901,1,0,0:0:0:0:
152,256,124987,2,0,L|48:256,1,96,4|0,0:3|0:0,0:0:0:0:
208,192,125330,6,0,L|312:192,2,96,0|0|0,0:0|0:0|1:2,0:0:0:0:
88,192,125844,1,0,1:2:0:0:
248,192,126015,1,0,1:2:0:0:
416,192,126187,1,0,1:2:0:0:
160,136,126358,2,0,L|160:80,1,48,8|0,1:2|0:0,0:0:0:0:
360,72,126530,2,0,L|416:72,1,48,8|8,1:2|1:2,0:0:0:0:
144,344,126701,6,0,L|128:224,1,96,6|0,1:1|0:0,0:0:0:0:
232,208,127044,1,6,1:2:0:0:
112,160,127215,2,0,L|56:160,2,48,0|0|10,0:0|0:0|1:2,0:0:0:0:
248,96,127558,2,0,L|128:96,1,96,0|10,0:0|1:2,0:0:0:0:
424,344,127901,6,0,P|488:296|408:240,1,192,2|2,1:2|1:2,0:0:0:0:
312,240,128415,2,0,L|200:240,1,96,0|2,0:0|1:2,0:0:0:0:
264,240,128672,1,0,0:0:0:0:
408,56,128758,1,0,0:0:0:0:
450,76,128843,1,0,0:0:0:0:
465,120,128929,1,0,1:2:0:0:
444,162,129015,1,0,0:0:0:0:
96,344,129101,2,0,P|80:272|144:224,1,144,10|0,1:2|0:0,0:0:0:0:
312,232,129444,6,0,L|336:112,1,96,2|0,1:2|0:0,0:0:0:0:
200,120,129787,1,2,1:2:0:0:
328,136,129958,2,0,L|408:136,2,48,0|0|10,0:0|0:0|1:2,0:0:0:0:
200,232,130301,2,0,L|320:232,1,96,0|10,1:2|1:2,0:0:0:0:
64,352,130644,6,0,L|32:152,1,192,2|2,1:2|1:2,0:0:0:0:
184,168,131158,2,0,L|264:104,1,96,0|2,0:0|1:2,0:0:0:0:
136,360,131501,2,0,L|112:256,1,96,0|0,0:0|1:2,0:0:0:0:
168,232,131758,1,0,0:0:0:0:
352,232,131844,2,0,L|456:232,1,96,10|8,1:2|1:2,0:0:0:0:
176,72,132187,6,0,L|168:184,1,96,2|0,1:2|0:0,0:0:0:0:
272,240,132530,1,2,1:2:0:0:
168,376,132701,1,0,0:0:0:0:
164,328,132786,1,0,0:0:0:0:
160,280,132872,1,10,1:2:0:0:
272,240,133044,2,0,L|384:240,1,96,0|10,1:2|1:2,0:0:0:0:
112,96,133387,6,0,P|48:136|128:200,1,192,2|2,1:2|1:2,0:0:0:0:
224,208,133901,2,0,L|104:208,1,96,0|2,0:0|1:2,0:0:0:0:
176,208,134159,1,0,0:0:0:0:
368,216,134244,1,0,0:0:0:0:
406,189,134329,1,0,0:0:0:0:
414,143,134415,1,0,0:0:0:0:
387,105,134501,1,0,0:0:0:0:
160,96,134587,2,0,L|16:96,1,144,10|0,1:2|0:0,0:0:0:0:
288,336,134930,6,0,L|304:224,1,96,2|0,1:2|0:0,0:0:0:0:
184,192,135272,1,2,1:2:0:0:
304,144,135444,2,0,L|352:144,2,48,0|0|10,0:0|0:0|1:2,0:0:0:0:
168,144,135787,2,0,L|40:144,1,96,0|10,1:2|1:2,0:0:0:0:
384,80,136130,6,0,L|488:80,2,96,0|0|0,1:2|1:2|1:2,0:0:0:0:
248,168,136644,2,0,L|376:168,1,96,0|0,1:2|1:2,0:0:0:0:
112,336,136987,2,0,L|96:264,1,48,2|0,1:3|0:0,0:0:0:0:
176,280,137158,2,0,L|224:264,1,48,0|0,1:2|0:0,0:0:0:0:
32,224,137330,1,8,1:2:0:0:
21,178,137415,1,0,1:2:0:0:
44,137,137501,1,0,1:2:0:0:
89,122,137587,1,0,1:2:0:0:
328,128,137672,6,0,L|440:136,1,96,6|0,1:2|0:0,0:0:0:0:
128,216,138015,1,8,1:3:0:0:
240,336,138187,1,0,0:0:0:0:
246,288,138272,1,0,0:0:0:0:
253,240,138358,1,8,1:3:0:0:
128,216,138530,1,8,1:3:0:0:
448,168,138701,1,8,1:3:0:0:
312,80,138872,6,0,P|288:176|384:224,1,192,0|0,1:2|1:2,0:0:0:0:
88,352,139387,2,0,L|72:232,1,96,8|0,0:3|1:2,0:0:0:0:
136,224,139644,1,0,0:0:0:0:
304,208,139730,1,0,0:0:0:0:
344,187,139815,1,0,0:0:0:0:
347,141,139901,1,0,0:0:0:0:
309,116,139987,1,0,0:0:0:0:
56,80,140072,2,0,L|224:72,1,144,8|0,1:3|0:0,0:0:0:0:
448,280,140415,6,0,L|320:272,1,96,0|0,1:2|0:0,0:0:0:0:
56,240,140758,1,8,1:3:0:0:
160,216,140930,1,0,0:0:0:0:
207,208,141015,1,0,0:0:0:0:
254,200,141101,1,8,1:3:0:0:
88,120,141272,1,8,1:3:0:0:
464,64,141444,1,8,1:3:0:0:
344,112,141615,1,0,1:2:0:0:
464,176,141787,6,0,L|448:280,1,96,0|0,0:0|1:2,0:0:0:0:
120,336,142130,2,0,L|104:224,1,96,8|0,0:3|1:2,0:0:0:0:
248,224,142472,2,0,L|352:208,1,96,0|0,0:0|0:0,0:0:0:0:
184,160,142815,1,8,1:3:0:0:
148,129,142900,1,0,0:0:0:0:
148,82,142986,1,0,1:3:0:0:
182,51,143072,1,0,0:0:0:0:
408,80,143158,6,0,L|392:192,1,96,0|0,1:2|0:0,0:0:0:0:
144,264,143501,1,8,1:3:0:0:
256,336,143672,1,0,0:0:0:0:
208,341,143757,1,0,0:0:0:0:
160,347,143843,1,8,1:3:0:0:
304,256,144015,1,8,1:3:0:0:
32,144,144187,1,8,1:3:0:0:
360,56,144358,6,0,P|408:104|336:176,1,192,0|0,1:2|1:2,0:0:0:0:
48,248,144872,2,0,L|168:256,1,96,8|0,0:3|1:2,0:0:0:0:
192,256,145130,1,0,0:0:0:0:
400,272,145215,1,0,0:0:0:0:
428,234,145300,1,0,0:0:0:0:
430,187,145386,1,0,0:0:0:0:
406,146,145472,1,0,0:0:0:0:
192,72,145558,2,0,P|136:96|144:176,1,144,8|0,1:3|0:0,0:0:0:0:
312,208,145901,6,0,L|416:216,1,96,0|0,1:2|0:0,0:0:0:0:
112,320,146244,2,0,L|96:208,1,96,8|0,1:3|0:0,0:0:0:0:
368,272,146587,2,0,L|384:144,1,96,8|8,1:3|1:3,0:0:0:0:
312,144,146844,1,0,0:0:0:0:
120,120,146930,2,0,L|56:112,1,48,8|0,1:3|0:0,0:0:0:0:
392,96,147101,2,0,L|448:80,1,48,0|0,1:2|0:0,0:0:0:0:
176,336,147272,6,0,L|152:264,1,48,0|0,1:2|0:0,0:0:0:0:
248,272,147444,2,0,L|272:208,1,48,0|0,1:2|0:0,0:0:0:0:
64,208,147615,2,0,L|40:152,1,48,0|0,1:2|0:0,0:0:0:0:
400,232,147787,2,0,L|432:152,1,48,0|0,1:2|0:0,0:0:0:0:
168,56,147958,5,2,1:3:0:0:
132,85,148043,1,0,0:0:0:0:
130,132,148129,1,0,1:2:0:0:
163,164,148215,1,0,0:0:0:0:
448,288,148301,2,0,L|440:336,1,48,2|0,1:3|1:2,0:0:0:0:
136,320,148472,2,0,L|80:328,1,48,0|0,1:2|1:2,0:0:0:0:
432,144,148644,5,0,0:0:0:0:
256,192,148815,12,0,150015,0:0:0:0:
