osu file format v14

[General]
AudioFilename: audio.mp3
AudioLeadIn: 0
PreviewTime: 52479
Countdown: 0
SampleSet: Soft
StackLeniency: 0.7
Mode: 0
LetterboxInBreaks: 0
WidescreenStoryboard: 1

[Editor]
DistanceSpacing: 1
BeatDivisor: 4
GridSize: 4
TimelineZoom: 1

[Metadata]
Title:Still love you
TitleUnicode:Still love you
Artist:Kana Nishino
ArtistUnicode:西野カナ
Creator:Modem
Version:Normal
Source:
Tags:Darling
BeatmapID:1453192
BeatmapSetID:684712

[Difficulty]
HPDrainRate:4
CircleSize:3.5
OverallDifficulty:4
ApproachRate:5
SliderMultiplier:1.8
SliderTickRate:1

[Events]
//Background and Video events
0,0,"bg2.jpg",0,0
Video,0,"Video.avi"
//Break Periods
2,81542,90542
2,102742,104215
2,183742,191215
//Storyboard Layer 0 (Background)
//Storyboard Layer 1 (Fail)
//Storyboard Layer 2 (Pass)
//Storyboard Layer 3 (Foreground)
//Storyboard Sound Samples

[TimingPoints]
542,750,4,2,1,45,1,0
15542,-100,4,2,1,25,0,0
16104,-100,4,2,1,45,0,0
27354,-100,4,2,1,35,0,0
27542,-100,4,2,1,45,0,0
39542,-100,4,2,1,25,0,0
40104,-100,4,2,1,55,0,0
45354,-100,4,2,1,25,0,0
45542,-100,4,2,1,25,0,0
45917,-100,4,2,1,55,0,0
52854,-100,4,2,1,35,0,0
53042,-100,4,2,1,45,0,0
54542,-100,4,2,1,60,0,1
54917,-100,4,2,1,85,0,1
66167,-100,4,2,1,85,0,0
66354,-100,4,2,1,35,0,0
66542,-100,4,2,1,60,0,1
66917,-100,4,2,1,85,0,1
77417,-100,4,2,1,85,0,1
78542,-100,4,2,1,15,0,0
80792,-100,4,2,1,30,0,0
93542,-100,4,2,1,20,0,0
94104,-100,4,2,1,50,0,0
117354,-100,4,2,1,25,0,0
118104,-100,4,2,1,50,0,0
123354,-100,4,2,1,15,0,0
123542,-100,4,2,1,25,0,0
123917,-100,4,2,1,50,0,0
129542,-100,4,2,1,55,0,0
130667,-100,4,2,1,45,0,0
130854,-100,4,2,1,25,0,0
131042,-100,4,2,1,45,0,0
131792,-100,4,2,1,55,0,0
132542,-100,4,2,1,40,0,1
132917,-100,4,2,1,85,0,1
144167,-100,4,2,1,85,0,0
144354,-100,4,2,1,35,0,0
144542,-100,4,2,1,45,0,1
144917,-100,4,2,1,85,0,1
156542,-100,4,2,1,30,0,0
157104,-100,4,2,1,60,0,0
162354,-100,4,2,1,40,0,0
162542,-100,4,2,1,60,0,0
168542,-100,4,2,1,60,0,0
174354,-100,4,2,1,40,0,0
174542,-100,4,2,1,60,0,0
180542,-100,4,2,1,60,0,0
183542,-100,4,2,1,50,0,0
192542,-100,4,2,1,100,0,0
195542,-100,4,2,1,60,0,1
195917,-100,4,2,1,85,0,1
207167,-100,4,2,1,85,0,0
207354,-100,4,2,1,35,0,0
207542,-100,4,2,1,60,0,1
207917,-100,4,2,1,85,0,1
219542,-100,4,2,1,85,0,0
220292,-100,4,2,1,30,0,0
222542,-100,4,2,1,60,0,0
223292,-100,4,2,1,30,0,0
225542,-100,4,2,1,60,0,0
226292,-100,4,2,1,30,0,0
228542,-100,4,2,1,60,0,0
228917,-100,4,2,1,30,0,0
231542,769.230769230769,4,2,1,30,1,0
232311,731.707317073171,4,2,1,30,1,0
233042,794.701986754967,4,2,1,30,1,0
233836,666.666666666667,4,2,1,30,1,0
234669,-100,4,2,1,5,0,0

[Colours]
Combo1 : 128,0,64
Combo2 : 255,128,128
Combo3 : 255,112,43
Combo4 : 250,181,135
SliderBorder : 253,224,157

[HitObjects]
128,296,14792,6,0,L|144:192,1,90,2|0,3:0|0:0,0:0:0:0:
100,128,15542,2,0,P|168:120|232:196,1,135,4|4,0:1|0:0,0:0:0:0:
264,148,16292,2,0,B|249:241|249:241|313:224,1,135,8|0,0:0|1:3,0:0:0:0:
332,220,17042,1,4,0:0:0:0:
360,304,17417,1,4,0:0:0:0:
408,228,17792,2,0,P|397:178|352:146,1,90,8|0,0:0|0:0,0:0:0:0:
288,116,18542,6,0,L|304:12,1,90,4|0,0:0|0:0,0:0:0:0:
348,24,19104,1,4,0:0:0:0:
348,24,19292,2,0,P|400:64|496:48,1,135,8|0,0:0|1:0,0:0:0:0:
512,52,20042,1,4,0:0:0:0:
512,144,20417,1,4,0:0:0:0:
424,168,20792,1,8,0:0:0:0:
424,168,20979,2,0,L|411:257,1,90,4|0,0:0|1:0,0:0:0:0:
376,284,21542,6,0,B|327:304|280:280|280:280|304:336,1,135,4|4,0:0|0:0,0:0:0:0:
288,356,22292,2,0,P|224:340|142:366,1,135,8|0,0:0|1:0,0:0:0:0:
116,368,23042,1,4,0:0:0:0:
48,312,23417,1,4,0:0:0:0:
84,228,23792,2,0,L|40:128,1,90,8|0,0:0|0:0,0:0:0:0:
108,80,24542,5,4,0:0:0:0:
108,80,24729,2,0,L|144:162,1,90,0|0,1:0|0:0,0:0:0:0:
188,164,25292,2,0,B|224:136|224:136|268:156|320:132,1,135,8|0,0:0|1:0,0:0:0:0:
348,164,26042,2,0,P|336:212|357:263,2,90,4|4|2,0:0|0:0|3:0,0:0:0:0:
428,206,27167,2,0,L|460:279,1,45,0|0,0:0|1:0,0:0:0:0:
492,247,27542,6,0,P|508:183|482:101,1,135,4|4,0:0|0:0,0:0:0:0:
508,76,28292,2,0,B|412:96|412:96|424:52,1,135,8|0,0:0|1:0,0:0:0:0:
388,28,29042,2,0,L|276:52,2,90,4|4|8,0:0|0:0|0:0,0:0:0:0:
372,164,30354,1,4,0:0:0:0:
372,164,30542,6,0,P|336:224|240:216,1,135,4|4,0:0|0:0,0:0:0:0:
248,268,31292,2,0,P|260:316|239:367,1,90,8|0,0:0|0:0,0:0:0:0:
208,376,31854,1,0,1:0:0:0:
208,376,32042,2,0,L|132:300,1,90,4|4,0:0|0:0,0:0:0:0:
56,303,32792,1,8,0:0:0:0:
56,303,32979,2,0,P|72:259|148:227,1,90,4|0,0:0|1:0,0:0:0:0:
152,228,33542,6,0,B|132:184|132:184|152:76,1,135,4|4,0:0|0:0,0:0:0:0:
192,84,34292,2,0,B|236:111|288:96|288:96|277:153,1,135,8|0,0:0|1:0,0:0:0:0:
304,168,35042,2,0,L|284:275,2,90,4|4|8,0:0|0:0|0:0,0:0:0:0:
416,244,36354,1,4,0:0:0:0:
416,244,36542,6,0,P|444:200|412:104,1,135,4|0,0:0|0:0,0:0:0:0:
388,100,37292,2,0,B|344:120|344:120|236:100,1,135,8|0,0:0|1:0,0:0:0:0:
220,124,38042,1,4,0:0:0:0:
156,60,38417,1,4,0:0:0:0:
148,149,38792,2,0,P|181:190|236:197,1,90,2|0,3:0|0:0,0:0:0:0:
260,196,39354,1,0,1:0:0:0:
260,196,39542,6,0,L|233:346,1,135,4|4,0:1|0:0,0:0:0:0:
280,344,40292,2,0,B|324:324|368:340|368:340|382:263,1,135,8|0,0:0|1:0,0:0:0:0:
416,280,41042,2,0,P|458:291|504:279,2,90,4|4|8,0:0|0:0|0:0,0:0:0:0:
459,199,42167,2,0,L|447:127,1,45,0|4,0:0|0:0,0:0:0:0:
456,108,42542,6,0,L|324:128,1,90,4|0,0:0|0:0,0:0:0:0:
340,156,43104,1,4,0:0:0:0:
340,156,43292,2,0,L|216:112,1,90,8|0,0:0|0:0,0:0:0:0:
216,148,43854,1,0,1:0:0:0:
176,172,44042,1,4,0:0:0:0:
241,233,44417,1,4,0:0:0:0:
316,284,44792,1,8,0:0:0:0:
316,284,44979,2,0,L|405:271,1,90,4|0,0:0|1:0,0:0:0:0:
432,236,45542,6,0,P|420:192|431:149,2,90,4|0|8,0:1|0:0|0:0,0:0:0:0:
484,312,46667,1,0,0:0:0:0:
404,356,47042,2,0,L|315:369,1,90,4|4,0:0|0:0,0:0:0:0:
224,372,47792,1,8,0:0:0:0:
188,288,48167,1,0,0:0:0:0:
100,304,48542,5,4,0:0:0:0:
100,304,48729,2,0,P|108:248|163:207,1,90,0|4,1:0|0:0,0:0:0:0:
168,203,49292,2,0,P|216:203|260:235,1,90,8|0,0:0|0:0,0:0:0:0:
280,256,49854,1,0,1:0:0:0:
280,256,50042,2,0,L|369:243,2,90,4|4|8,0:0|0:0|0:0,0:0:0:0:
236,336,51167,1,8,0:0:0:0:
152,304,51542,6,0,P|68:280|52:192,1,180,2|0,0:1|0:0,0:0:0:0:
116,136,52667,2,0,L|189:125,1,45,4|0,0:0|1:0,0:0:0:0:
192,96,53042,1,4,0:0:0:0:
260,36,53417,1,4,0:3:0:0:
328,96,53792,2,0,L|320:216,1,90,2|0,3:0|0:0,0:0:0:0:
348,224,54354,1,0,0:0:0:0:
348,224,54542,6,0,L|259:237,1,90,4|8,0:1|0:1,0:0:0:0:
228,268,55104,1,4,0:0:0:0:
228,268,55292,2,0,L|128:204,2,90,0|8|2,3:0|0:1|0:1,0:0:0:0:
288,336,56417,1,4,0:0:0:0:
356,276,56792,2,0,P|400:264|443:276,1,90,0|8,3:0|0:1,0:0:0:0:
480,300,57354,1,4,0:0:0:0:
480,300,57542,6,0,P|456:236|514:155,1,135,2|4,0:0|0:0,0:0:0:0:
512,144,58292,1,0,3:0:0:0:
436,96,58667,1,8,0:1:0:0:
352,64,59042,2,0,L|232:88,2,90,2|4|0,0:1|0:0|3:0,0:0:0:0:
436,96,60167,2,0,L|430:175,1,45,8|8,0:1|0:1,0:0:0:0:
452,180,60542,6,0,L|332:204,1,90,2|8,0:0|0:1,0:0:0:0:
320,188,61104,1,4,0:0:0:0:
320,188,61292,2,0,P|332:232|320:275,1,90,0|8,3:0|0:1,0:0:0:0:
284,300,61854,1,0,0:0:0:0:
284,300,62042,2,0,B|252:292|252:292|155:312,2,90,2|4|2,0:1|0:0|3:1,0:0:0:0:
348,364,63167,1,8,0:1:0:0:
392,284,63542,6,0,B|424:292|424:292|521:272,1,90,2|8,0:1|0:1,0:0:0:0:
504,244,64104,1,4,0:0:0:0:
504,244,64292,2,0,L|511:154,1,90,8|2,3:1|0:1,0:0:0:0:
476,72,65042,1,2,0:1:0:0:
396,116,65417,1,4,0:0:0:0:
324,60,65792,1,2,3:1:0:0:
260,124,66167,2,0,L|254:203,1,45,8|0,0:1|1:0,0:0:0:0:
228,204,66542,6,0,P|263:242|266:306,1,90,4|8,0:1|0:1,0:0:0:0:
272,324,67104,1,4,0:0:0:0:
272,324,67292,2,0,P|316:312|359:324,2,90,0|8|2,3:0|0:1|2:1,0:0:0:0:
192,360,68417,1,4,0:0:0:0:
120,308,68792,2,0,L|104:196,1,90,0|8,3:0|0:1,0:0:0:0:
148,200,69354,1,4,0:0:0:0:
148,200,69542,6,0,P|212:224|293:166,1,135,6|4,0:0|0:0,0:0:0:0:
308,176,70292,1,0,3:0:0:0:
356,252,70667,1,8,0:1:0:0:
432,200,71042,2,0,L|416:88,2,90,2|4|2,0:1|0:0|3:1,0:0:0:0:
356,252,72167,1,8,0:1:0:0:
392,336,72542,6,0,B|360:344|360:344|263:324,1,90,6|8,0:0|0:1,0:0:0:0:
264,352,73104,1,4,0:0:0:0:
264,352,73292,2,0,L|248:240,1,90,0|8,3:0|0:1,0:0:0:0:
208,248,73854,1,0,0:0:0:0:
208,248,74042,2,0,L|248:152,1,90,4|8,0:0|0:1,0:0:0:0:
232,120,74604,1,0,0:0:0:0:
232,120,74792,2,0,P|276:132|319:120,1,90,0|8,3:0|0:1,0:0:0:0:
388,180,75542,6,0,L|353:263,2,90,2|8|2,0:1|0:1|3:1,0:0:0:0:
476,160,76667,1,2,0:1:0:0:
468,71,77042,2,0,B|412:59|412:59|380:67,1,90,2|0,0:1|0:0,0:0:0:0:
324,136,77792,1,0,3:0:0:0:
240,108,78167,1,0,0:0:0:0:
256,192,78542,12,2,80792,0:3:0:0:
144,32,93542,6,0,P|120:92|174:180,1,135,4|4,0:1|0:0,0:0:0:0:
120,196,94292,2,0,B|164:188|164:188|273:211,1,135,8|0,0:0|1:0,0:0:0:0:
280,244,95042,1,4,0:0:0:0:
360,204,95417,1,4,0:0:0:0:
342,292,95792,2,0,P|298:320|226:297,1,90,8|0,0:0|0:0,0:0:0:0:
188,372,96542,6,0,L|74:348,1,90,4|0,0:0|0:0,0:0:0:0:
60,372,97104,1,4,0:0:0:0:
60,372,97292,2,0,P|84:308|26:227,1,135,8|0,0:0|1:0,0:0:0:0:
28,216,98042,1,4,0:0:0:0:
56,132,98417,1,4,0:0:0:0:
144,144,98792,1,8,0:0:0:0:
144,144,98979,2,0,L|233:163,1,90,4|0,0:0|1:0,0:0:0:0:
268,192,99542,6,0,B|304:164|304:164|351:186|404:160,1,135,4|4,0:0|0:0,0:0:0:0:
428,140,100292,2,0,P|403:201|428:263,1,135,8|0,0:0|1:0,0:0:0:0:
456,296,101042,1,4,0:0:0:0:
408,372,101417,1,4,0:0:0:0:
344,312,101792,2,0,L|255:293,1,90,8|0,0:0|0:0,0:0:0:0:
224,324,102354,1,4,0:0:0:0:
192,356,102542,5,4,0:0:0:0:
192,356,105542,6,0,B|225:316|225:316|255:305|255:305|294:259,1,135,4|4,0:0|0:0,0:0:0:0:
332,268,106292,2,0,P|296:228|316:132,1,135,8|0,0:0|1:0,0:0:0:0:
264,124,107042,2,0,L|325:50,2,90,4|4|8,0:0|0:0|0:0,0:0:0:0:
208,196,108167,2,0,L|158:135,1,45,0|4,0:0|0:0,0:0:0:0:
180,116,108542,6,0,P|115:132|50:116,1,135,4|4,0:0|0:0,0:0:0:0:
12,140,109292,2,0,P|24:184|12:227,1,90,8|0,0:0|0:0,0:0:0:0:
12,272,109854,1,0,1:0:0:0:
12,272,110042,2,0,L|69:342,1,90,4|4,0:0|0:0,0:0:0:0:
152,308,110792,1,8,0:0:0:0:
152,308,110979,2,0,P|195:297|238:309,1,90,4|0,0:0|1:0,0:0:0:0:
276,332,111542,6,0,B|256:288|256:288|276:180,1,135,4|4,0:0|0:0,0:0:0:0:
312,184,112292,2,0,P|364:184|320:144,1,135,8|0,0:0|1:0,0:0:0:0:
300,108,113042,2,0,L|263:27,2,90,4|4|8,0:0|0:0|0:0,0:0:0:0:
164,116,114354,1,4,0:0:0:0:
164,116,114542,6,0,B|139:160|156:204|156:204|136:264,1,135,4|4,0:0|0:0,0:0:0:0:
128,288,115292,2,0,B|172:268|172:268|280:288,1,135,8|0,0:0|1:0,0:0:0:0:
300,292,116042,1,4,0:0:0:0:
372,240,116417,1,4,0:0:0:0:
340,156,116792,2,0,L|233:136,1,90,2|0,0:3|0:0,0:0:0:0:
216,168,117354,1,0,1:0:0:0:
216,168,117542,6,0,P|232:103|216:38,1,135,4|4,0:1|0:0,0:0:0:0:
172,24,118292,2,0,B|128:44|128:44|20:24,1,135,8|0,0:0|1:0,0:0:0:0:
0,44,119042,2,0,P|-11:86|1:132,1,90,4|4,0:0|0:0,0:0:0:0:
56,204,119792,1,8,0:0:0:0:
136,248,120167,2,0,L|148:176,1,45,0|4,0:0|0:0,0:0:0:0:
180,176,120542,6,0,B|212:184|212:184|309:164,1,90,4|0,0:0|0:0,0:0:0:0:
312,164,121104,1,4,0:0:0:0:
312,164,121292,2,0,L|296:255,1,90,8|0,0:0|0:0,0:0:0:0:
312,296,121854,1,0,1:0:0:0:
328,340,122042,1,4,0:0:0:0:
400,284,122417,1,4,0:0:0:0:
456,212,122792,1,8,0:0:0:0:
456,212,122979,2,0,P|468:169|457:126,1,90,4|0,0:0|1:0,0:0:0:0:
468,80,123542,6,0,L|364:92,1,90,4|0,0:1|0:0,0:0:0:0:
352,128,124104,1,4,0:0:0:0:
328,164,124292,1,8,0:0:0:0:
272,92,124667,1,0,0:0:0:0:
188,128,125042,2,0,P|144:138|102:126,2,90,4|4|8,0:0|0:0|0:0,0:0:0:0:
272,92,126167,1,0,0:0:0:0:
328,164,126542,5,4,0:0:0:0:
328,164,126729,2,0,L|312:255,1,90,0|4,1:0|0:0,0:0:0:0:
304,296,127292,2,0,P|248:264|172:280,1,135,8|0,0:0|1:0,0:0:0:0:
144,304,128042,1,4,0:0:0:0:
88,236,128417,2,0,L|99:172,1,45,4|0,0:0|0:0,0:0:0:0:
132,168,128792,2,0,P|175:181|219:171,1,90,8|8,0:0|0:0,0:0:0:0:
248,136,129354,1,8,0:0:0:0:
248,136,129542,6,0,B|227:101|247:80|247:80|307:107|391:68,1,180,2|0,0:1|0:0,0:0:0:0:
448,112,130667,2,0,L|455:156,1,45,4|0,0:0|1:0,0:0:0:0:
440,200,131042,1,4,0:0:0:0:
352,180,131417,1,4,0:3:0:0:
312,260,131792,2,0,L|330:374,1,90,2|0,0:3|0:0,0:0:0:0:
288,372,132354,1,0,0:0:0:0:
288,372,132542,6,0,P|245:361|200:373,1,90,4|8,0:1|0:1,0:0:0:0:
156,368,133104,1,4,0:0:0:0:
156,368,133292,2,0,L|142:280,2,90,0|8|2,3:0|0:1|0:1,0:0:0:0:
68,344,134417,1,4,0:0:0:0:
71,253,134792,2,0,P|99:216|165:209,1,90,0|8,3:0|0:1,0:0:0:0:
184,200,135354,1,4,0:0:0:0:
184,200,135542,6,0,B|228:220|228:220|332:204,1,135,2|4,0:0|0:0,0:0:0:0:
348,236,136292,1,0,3:0:0:0:
396,160,136667,1,8,0:1:0:0:
324,104,137042,2,0,L|235:117,2,90,2|4|0,0:1|0:0|3:0,0:0:0:0:
396,160,138167,2,0,L|432:232,1,45,8|8,0:1|0:1,0:0:0:0:
456,224,138542,6,0,P|420:260|416:316,1,90,2|8,0:0|0:1,0:0:0:0:
428,340,139104,1,4,0:0:0:0:
428,340,139292,2,0,P|384:328|341:340,1,90,0|8,3:0|0:1,0:0:0:0:
304,364,139854,1,0,0:0:0:0:
304,364,140042,2,0,L|257:270,2,90,2|4|2,0:1|0:0|3:1,0:0:0:0:
212,364,141167,1,8,0:1:0:0:
132,324,141542,6,0,P|120:280|132:237,1,90,2|8,0:1|0:1,0:0:0:0:
160,204,142104,1,4,0:0:0:0:
160,204,142292,2,0,P|172:160|160:117,1,90,0|2,3:0|0:1,0:0:0:0:
108,44,143042,1,2,0:1:0:0:
196,32,143417,1,4,0:0:0:0:
252,104,143792,1,2,3:1:0:0:
304,180,144167,2,0,L|300:264,1,45,8|0,0:1|1:0,0:0:0:0:
336,256,144542,6,0,B|368:248|368:248|465:268,1,90,4|8,0:1|0:1,0:0:0:0:
456,228,145104,1,4,0:0:0:0:
456,228,145292,2,0,P|444:184|456:141,2,90,0|8|2,3:0|0:1|0:1,0:0:0:0:
501,305,146417,1,4,0:0:0:0:
432,360,146792,2,0,B|400:368|400:368|303:348,1,90,0|8,3:0|0:1,0:0:0:0:
300,372,147354,1,4,0:0:0:0:
300,372,147542,6,0,B|328:313|328:313|300:208,1,135,6|4,0:0|0:0,0:0:0:0:
296,204,148292,1,0,3:0:0:0:
212,172,148667,1,8,0:1:0:0:
168,252,149042,2,0,L|191:338,2,90,2|4|2,0:1|0:0|3:1,0:0:0:0:
84,216,150167,1,8,0:1:0:0:
60,128,150542,6,0,P|104:124|156:156,1,90,6|8,0:0|0:1,0:0:0:0:
184,168,151104,1,4,0:0:0:0:
184,168,151292,2,0,B|216:176|216:176|313:156,1,90,0|8,3:0|0:1,0:0:0:0:
312,140,151854,1,0,0:0:0:0:
312,140,152042,2,0,L|335:226,1,90,4|8,0:0|0:1,0:0:0:0:
372,252,152604,1,0,0:0:0:0:
372,252,152792,2,0,L|320:356,1,90,0|8,3:0|0:1,0:0:0:0:
248,368,153542,6,0,B|216:360|216:360|119:380,2,90,2|8|2,0:1|0:1|3:1,0:0:0:0:
332,332,154667,1,2,0:1:0:0:
412,372,155042,2,0,P|420:320|380:257,1,90,2|4,0:1|0:0,0:0:0:0:
338,227,155792,1,0,3:0:0:0:
421,194,156167,1,0,0:0:0:0:
436,103,156542,6,0,B|404:67|404:67|352:87|292:51,1,135,4|4,0:1|0:0,0:0:0:0:
280,88,157292,2,0,B|288:132|288:132|236:232,1,135,0|0,3:0|1:0,0:0:0:0:
252,256,158042,2,0,P|208:246|163:257,2,90,4|4|0,0:0|0:0|3:0,0:0:0:0:
340,228,159167,2,0,L|373:162,1,45,0|4,0:0|0:0,0:0:0:0:
404,176,159542,6,0,P|392:140|432:176,1,135,4|4,0:0|0:0,0:0:0:0:
476,196,160292,1,0,3:0:0:0:
428,272,160667,1,0,0:0:0:0:
448,312,160854,1,0,1:0:0:0:
468,352,161042,2,0,L|364:368,2,90,4|4|0,0:0|0:0|3:0,0:0:0:0:
428,272,162167,2,0,L|354:283,1,45,0|0,0:0|1:0,0:0:0:0:
344,296,162542,6,0,L|348:188,1,90,4|0,0:0|0:0,0:0:0:0:
304,216,163104,1,4,0:0:0:0:
260,232,163292,1,0,3:0:0:0:
256,144,163667,1,0,0:0:0:0:
187,202,164042,2,0,P|183:254|216:298,1,90,4|4,0:0|0:0,0:0:0:0:
196,332,164604,1,0,0:0:0:0:
196,332,164792,2,0,P|260:308|341:366,1,135,0|4,3:0|0:0,0:0:0:0:
356,312,165542,6,0,B|339:267|339:267|347:230|347:230|328:177,1,135,4|4,0:0|0:0,0:0:0:0:
356,148,166292,1,0,3:0:0:0:
296,80,166667,1,0,0:0:0:0:
384,72,167042,2,0,P|428:112|434:168,1,90,4|4,0:0|0:0,0:0:0:0:
432,184,167604,1,0,0:0:0:0:
432,184,167792,2,0,L|462:268,1,90,2|0,0:3|0:0,0:0:0:0:
432,300,168354,1,0,0:0:0:0:
432,300,168542,6,0,B|400:336|400:336|348:316|288:352,1,135,2|4,0:0|0:0,0:0:0:0:
280,308,169292,2,0,P|292:264|281:221,1,90,0|0,3:0|0:0,0:0:0:0:
228,148,170042,2,0,L|315:51,2,90,2|4|0,0:0|0:0|3:0,0:0:0:0:
144,176,171167,2,0,L|184:232,1,45,0|4,0:0|0:0,0:0:0:0:
212,232,171542,6,0,P|172:264|180:360,1,135,6|4,0:0|0:0,0:0:0:0:
212,360,172292,2,0,L|299:263,1,90,0|4,3:0|0:0,0:0:0:0:
297,206,173042,1,4,0:0:0:0:
380,239,173417,1,4,0:0:0:0:
356,152,173792,2,0,P|312:128|252:141,1,90,0|0,3:0|0:0,0:0:0:0:
232,152,174354,1,0,1:0:0:0:
232,152,174542,6,0,P|244:116|204:152,1,135,4|4,0:0|0:0,0:0:0:0:
156,168,175292,1,0,3:0:0:0:
100,240,175667,1,0,0:0:0:0:
128,276,175854,1,0,1:0:0:0:
160,308,176042,2,0,L|284:328,2,90,4|4|0,0:0|0:0|3:0,0:0:0:0:
84,360,177167,2,0,L|40:372,1,45,0|4,0:0|0:0,0:0:0:0:
4,344,177542,6,0,P|29:283|5:222,1,135,4|4,0:0|0:0,0:0:0:0:
24,180,178292,1,0,3:0:0:0:
88,116,178667,1,0,0:0:0:0:
156,172,179042,2,0,L|260:143,1,90,4|4,0:0|0:0,0:0:0:0:
276,180,179604,1,0,0:0:0:0:
276,180,179792,2,0,B|308:188|308:188|382:168,1,90,0|0,3:0|0:0,0:0:0:0:
400,196,180354,1,8,0:0:0:0:
400,196,180542,38,0,B|518:106|520:55|475:5|441:7|401:15|385:69|385:69|371:13|333:9|287:6|270:20|171:167|428:136|403:294,1,720,2|4,0:1|0:1,0:0:0:0:
276,180,192542,6,0,B|308:188|308:188|382:168,1,90,4|0,0:0|0:0,0:0:0:0:
404,160,193104,2,0,L|404:288,1,90,4|0,0:0|0:0,0:0:0:0:
432,284,193667,1,0,0:0:0:0:
492,216,194042,2,0,B|492:164|492:164|508:137|508:137|508:80,1,135,2|0,0:1|0:0,0:0:0:0:
472,56,194792,2,0,B|428:45|428:45|326:73,1,135,2|0,0:1|0:0,0:0:0:0:
312,104,195542,6,0,L|212:84,1,90,4|8,0:1|0:1,0:0:0:0:
188,112,196104,1,4,0:0:0:0:
188,112,196292,2,0,P|176:156|188:199,2,90,0|8|2,3:0|0:1|0:1,0:0:0:0:
124,48,197417,1,4,0:0:0:0:
56,107,197792,2,0,P|68:151|56:194,1,90,0|8,3:0|0:1,0:0:0:0:
32,232,198354,1,4,0:0:0:0:
32,232,198542,6,0,P|88:244|124:336,1,135,6|4,0:0|0:0,0:0:0:0:
128,352,199292,1,0,3:0:0:0:
208,312,199667,1,8,0:1:0:0:
284,356,200042,2,0,L|376:320,2,90,2|4|0,0:1|0:0|3:0,0:0:0:0:
280,268,201167,2,0,L|352:239,1,45,8|8,0:1|0:1,0:0:0:0:
364,236,201542,6,0,P|353:193|365:151,1,90,6|8,0:0|0:1,0:0:0:0:
348,108,202104,1,4,0:0:0:0:
348,108,202292,2,0,L|265:141,1,90,0|8,3:0|0:1,0:0:0:0:
224,120,202854,1,0,0:0:0:0:
224,120,203042,2,0,L|184:240,2,90,2|4|2,0:1|0:0|3:1,0:0:0:0:
184,40,204167,1,0,0:0:0:0:
104,80,204542,6,0,L|64:200,1,90,2|8,0:1|0:1,0:0:0:0:
36,184,205104,1,4,0:0:0:0:
36,184,205292,2,0,L|72:296,1,90,0|8,3:0|0:1,0:0:0:0:
56,360,206042,1,2,0:1:0:0:
136,324,206417,1,4,0:0:0:0:
212,372,206792,1,2,3:1:0:0:
284,320,207167,2,0,L|270:277,1,45,8|0,0:1|1:0,0:0:0:0:
236,248,207542,6,0,L|344:196,1,90,4|8,0:1|0:1,0:0:0:0:
360,220,208104,1,4,0:0:0:0:
360,220,208292,2,0,P|349:177|361:135,2,90,0|8|2,3:0|0:1|0:1,0:0:0:0:
440,178,209417,1,4,0:0:0:0:
468,92,209792,2,0,L|364:36,1,90,0|8,3:0|0:1,0:0:0:0:
344,36,210354,1,4,0:0:0:0:
344,36,210542,6,0,P|280:60|199:2,1,135,6|4,0:0|0:0,0:0:0:0:
176,36,211292,1,0,3:0:0:0:
124,112,211667,1,8,0:1:0:0:
56,168,212042,2,0,P|36:120|56:60,2,90,2|4|2,0:1|0:0|3:1,0:0:0:0:
124,112,213167,1,8,0:1:0:0:
176,184,213542,6,0,L|160:292,1,90,6|8,0:0|0:1,0:0:0:0:
148,316,214104,1,4,0:0:0:0:
148,316,214292,2,0,P|191:305|233:317,1,90,0|8,3:0|0:1,0:0:0:0:
276,336,214854,1,0,0:0:0:0:
276,336,215042,2,0,P|265:293|277:251,1,90,4|8,0:0|0:1,0:0:0:0:
304,212,215604,1,0,0:0:0:0:
304,212,215792,2,0,L|318:123,1,90,0|8,3:0|0:1,0:0:0:0:
408,120,216542,6,0,B|389:69|389:69|395:30,2,90,2|8|2,0:1|0:1|3:1,0:0:0:0:
392,208,217667,1,2,0:1:0:0:
391,297,218042,2,0,P|438:287|469:251,1,90,2|4,0:1|0:0,0:0:0:0:
392,208,218792,1,0,3:0:0:0:
312,248,219167,1,8,0:1:0:0:
236,296,219542,6,0,P|232:224|184:296,1,180,2|2,0:1|0:3,0:0:0:0:
20,372,221042,1,8,0:1:0:0:
68,200,221792,2,0,L|56:104,1,90,2|0,0:3|0:0,0:0:0:0:
148,100,222542,6,0,B|155:157|155:157|221:127|305:171,1,180,2|2,0:1|0:3,0:0:0:0:
212,328,224042,1,8,0:1:0:0:
368,236,224792,2,0,L|466:218,1,90,2|0,0:3|0:0,0:0:0:0:
436,132,225542,6,0,B|375:143|375:143|320:126|320:126|246:140,1,180,2|2,0:1|0:3,0:0:0:0:
136,268,227042,1,8,0:1:0:0:
304,336,227792,2,0,L|402:318,1,90,2|8,0:3|0:1,0:0:0:0:
452,252,228542,6,0,P|440:208|452:165,1,90,2|8,0:1|0:1,0:0:0:0:
472,124,229104,2,0,B|437:130|437:130|386:111,1,90,0|8,0:0|0:1,0:0:0:0:
344,92,229667,2,0,B|344:188|344:188|256:148,1,180
184,120,230792,1,2,0:3:0:0:
164,208,231167,1,0,0:0:0:0:
108,140,231542,6,0,P|116:82|233:58,1,180,2|8,0:1|0:1,0:0:0:0:
344,160,233042,1,0,0:0:0:0:
216,332,233836,1,0,0:0:0:0:
380,256,234502,5,0,0:0:0:0:
256,192,234669,12,0,240502,0:0:0:0:
