osu file format v14

[General]
AudioFilename: audio.mp3
AudioLeadIn: 0
PreviewTime: 52479
Countdown: 0
SampleSet: Soft
StackLeniency: 0.3
Mode: 0
LetterboxInBreaks: 0
WidescreenStoryboard: 1

[Editor]
DistanceSpacing: 1.2
BeatDivisor: 8
GridSize: 4
TimelineZoom: 1

[Metadata]
Title:Still love you
TitleUnicode:Still love you
Artist:Kana Nishino
ArtistUnicode:西野カナ
Creator:Modem
Version:Hard
Source:
Tags:Darling
BeatmapID:1467283
BeatmapSetID:684712

[Difficulty]
HPDrainRate:5.5
CircleSize:4
OverallDifficulty:6
ApproachRate:7
SliderMultiplier:2.3
SliderTickRate:1

[Events]
//Background and Video events
Video,0,"Video.avi"
0,0,"bg4.jpg",0,0
//Break Periods
2,81542,90542
2,183742,191297
//Storyboard Layer 0 (Background)
//Storyboard Layer 1 (Fail)
//Storyboard Layer 2 (Pass)
//Storyboard Layer 3 (Foreground)
//Storyboard Sound Samples

[TimingPoints]
542,750,4,2,1,45,1,0
14604,-100,4,2,1,25,0,0
14792,-100,4,2,1,45,0,0
15354,-100,4,2,1,25,0,0
15542,-111.111111111111,4,2,1,25,0,0
15917,-111.111111111111,4,2,1,45,0,0
26792,-83.3333333333333,4,2,1,45,0,0
27354,-100,4,2,1,35,0,0
27542,-111.111111111111,4,2,1,45,0,0
38698,-111.111111111111,4,2,1,5,0,0
38792,-83.3333333333333,4,2,1,45,0,0
39354,-111.111111111111,4,2,1,45,0,0
39542,-100,4,2,1,25,0,0
39917,-100,4,2,1,55,0,0
45354,-100,4,2,1,25,0,0
45917,-100,4,2,1,55,0,0
51542,-142.857142857143,4,2,1,55,0,0
52667,-100,4,2,1,55,0,0
52854,-100,4,2,1,35,0,0
53042,-100,4,2,1,45,0,0
54542,-83.3333333333333,4,2,1,60,0,1
54917,-83.3333333333333,4,2,1,85,0,1
66167,-83.3333333333333,4,2,1,85,0,0
66354,-100,4,2,1,35,0,0
66542,-83.3333333333333,4,2,1,60,0,1
66917,-83.3333333333333,4,2,1,85,0,1
77417,-83.3333333333333,4,2,1,85,0,1
78354,-100,4,2,1,30,0,1
78542,-83.3333333333333,4,2,1,85,0,0
78729,-100,4,2,1,15,0,0
80792,-100,4,2,1,30,0,0
92604,-100,4,2,1,25,0,0
92792,-100,4,2,1,45,0,0
93167,-100,4,2,1,35,0,0
93542,-111.111111111111,4,2,1,20,0,0
93917,-111.111111111111,4,2,1,50,0,0
116698,-111.111111111111,4,2,1,5,0,0
116792,-83.3333333333333,4,2,1,50,0,0
117354,-100,4,2,1,25,0,0
117542,-100,4,2,1,25,0,0
117917,-100,4,2,1,50,0,0
123354,-100,4,2,1,15,0,0
123542,-100,4,2,1,25,0,0
123917,-100,4,2,1,50,0,0
129542,-142.857142857143,4,2,1,55,0,0
130667,-100,4,2,1,45,0,0
130854,-100,4,2,1,25,0,0
131042,-100,4,2,1,45,0,0
131792,-100,4,2,1,55,0,0
132542,-83.3333333333333,4,2,1,40,0,1
132917,-83.3333333333333,4,2,1,85,0,1
144167,-83.3333333333333,4,2,1,85,0,0
144354,-100,4,2,1,35,0,0
144542,-83.3333333333333,4,2,1,45,0,1
144917,-83.3333333333333,4,2,1,85,0,1
156354,-100,4,2,1,35,0,1
156542,-111.111111111111,4,2,1,30,0,0
157104,-111.111111111111,4,2,1,60,0,0
162354,-111.111111111111,4,2,1,40,0,0
162542,-111.111111111111,4,2,1,60,0,0
168542,-83.3333333333333,4,2,1,60,0,0
174354,-83.3333333333333,4,2,1,40,0,0
174542,-83.3333333333333,4,2,1,60,0,0
180542,-125,4,2,1,60,0,0
183542,-100,4,2,1,50,0,0
192542,-111.111111111111,4,2,1,100,0,0
194042,-142.857142857143,4,2,1,100,0,0
194698,-142.857142857143,4,2,1,5,0,0
194792,-200,4,2,1,100,0,0
195448,-200,4,2,1,5,0,0
195542,-71.4285714285714,4,2,1,60,0,1
195917,-71.4285714285714,4,2,1,85,0,1
207167,-71.4285714285714,4,2,1,85,0,0
207354,-100,4,2,1,35,0,0
207542,-71.4285714285714,4,2,1,60,0,1
207917,-71.4285714285714,4,2,1,85,0,1
219542,-142.857142857143,4,2,1,85,0,0
220292,-142.857142857143,4,2,1,30,0,0
222542,-142.857142857143,4,2,1,60,0,0
223292,-142.857142857143,4,2,1,30,0,0
225542,-142.857142857143,4,2,1,60,0,0
226292,-142.857142857143,4,2,1,30,0,0
228542,-142.857142857143,4,2,1,60,0,0
228917,-142.857142857143,4,2,1,30,0,0
231542,769.230769230769,4,2,1,30,1,0
231542,-200,4,2,1,30,0,0
232311,731.707317073171,4,2,1,30,1,0
233042,794.701986754967,4,2,1,30,1,0
233836,666.666666666667,4,2,1,30,1,0
234669,-200,4,2,1,5,0,0

[Colours]
Combo1 : 128,0,64
Combo2 : 255,128,128
Combo3 : 255,112,43
Combo4 : 250,181,135
SliderBorder : 253,224,157

[HitObjects]
104,280,14604,5,0,1:0:0:0:
104,280,14698,1,0,1:0:0:0:
104,280,14792,2,0,P|88:225|103:170,1,115,2|0,3:0|0:0,0:0:0:0:
160,108,15354,1,0,1:0:0:0:
330,142,15542,6,0,P|281:154|215:132,1,103.499996841431,4|0,0:1|0:0,0:0:0:0:
160,108,16104,1,4,0:0:0:0:
96,64,16292,2,0,P|137:33|194:39,1,103.499996841431,8|0,0:0|0:0,0:0:0:0:
160,108,16854,1,0,1:3:0:0:
108,164,17042,2,0,L|116:232,1,51.7499984207154,4|0,0:0|1:0,0:0:0:0:
172,268,17417,2,0,L|136:380,1,103.499996841431,4|8,0:0|0:0,0:0:0:0:
12,276,18167,2,0,L|27:226,1,51.7499984207154,0|4,0:0|0:0,0:0:0:0:
101,113,18542,6,0,L|114:216,1,103.499996841431,4|0,0:0|0:0,0:0:0:0:
172,268,19104,1,4,0:0:0:0:
228,324,19292,2,0,P|249:278|226:212,1,103.499996841431,8|0,0:0|0:0,0:0:0:0:
194,164,19854,1,0,1:0:0:0:
250,110,20042,1,4,0:0:0:0:
176,86,20229,1,0,1:0:0:0:
237,38,20417,2,0,P|287:46|323:105,1,103.499996841431,4|8,0:0|0:0,0:0:0:0:
332,161,20979,2,0,P|356:109|416:93,1,103.499996841431,4|0,0:0|1:0,0:0:0:0:
412,92,21448,1,0,1:0:0:0:
428,92,21542,6,0,L|420:216,1,103.499996841431,4|0,0:0|0:0,0:0:0:0:
380,260,22104,1,4,0:0:0:0:
384,336,22292,2,0,P|337:325|306:257,1,103.499996841431,8|0,0:0|0:0,0:0:0:0:
324,204,22854,1,0,1:0:0:0:
252,172,23042,2,0,L|184:200,1,51.7499984207154,4|0,0:0|1:0,0:0:0:0:
172,264,23417,2,0,L|52:228,1,103.499996841431,4|8,0:0|0:0,0:0:0:0:
60,80,24167,2,0,L|109:94,1,51.7499984207154,0|4,0:0|0:0,0:0:0:0:
204,192,24542,5,4,0:0:0:0:
280,208,24729,2,0,P|268:144|217:115,1,103.499996841431,0|0,1:0|0:0,0:0:0:0:
204,192,25292,2,0,P|209:246|257:282,1,103.499996841431,8|0,0:0|0:0,0:0:0:0:
308,320,25854,1,0,1:0:0:0:
372,276,26042,2,0,L|419:256,1,51.7499984207154,4|0,0:0|1:0,0:0:0:0:
388,184,26417,2,0,L|416:116,1,51.7499984207154,4|8,0:0|0:0,0:0:0:0:
269,138,26792,6,0,P|320:183|388:184,1,137.999995788574,2|0,3:0|0:0,0:0:0:0:
204,68,27354,1,0,1:0:0:0:
204,68,27448,1,0,1:0:0:0:
204,68,27542,6,0,L|180:188,1,103.499996841431,4|0,0:0|0:0,0:0:0:0:
244,224,28104,1,4,0:0:0:0:
296,166,28292,2,0,P|320:216|309:266,1,103.499996841431,8|0,0:0|0:0,0:0:0:0:
248,308,28854,1,0,1:0:0:0:
248,308,29042,1,4,0:0:0:0:
244,224,29229,1,0,1:0:0:0:
176,264,29417,2,0,B|140:276|140:276|64:260,1,103.499996841431,4|8,0:0|0:0,0:0:0:0:
175,183,29979,1,0,0:0:0:0:
175,183,30354,1,4,0:0:0:0:
244,224,30542,6,0,P|254:168|217:115,1,103.499996841431,4|0,0:0|0:0,0:0:0:0:
168,84,31104,1,4,0:0:0:0:
96,116,31292,2,0,L|48:212,1,103.499996841431,8|0,0:0|0:0,0:0:0:0:
94,280,31854,1,0,1:0:0:0:
94,280,32042,1,4,0:0:0:0:
140,344,32229,1,0,1:0:0:0:
216,359,32417,2,0,P|210:307|160:268,1,103.499996841431,4|8,0:0|0:0,0:0:0:0:
29,314,32979,2,0,P|25:254|70:210,1,103.499996841431,4|0,0:0|1:0,0:0:0:0:
52,204,33448,1,0,1:0:0:0:
52,188,33542,6,0,P|48:128|93:84,1,103.499996841431,4|0,0:0|0:0,0:0:0:0:
129,42,34104,1,4,0:0:0:0:
192,86,34292,2,0,L|296:90,1,103.499996841431,8|0,0:0|0:0,0:0:0:0:
352,144,34854,1,0,1:0:0:0:
284,180,35042,2,0,L|221:177,1,51.7499984207154,4|0,0:0|1:0,0:0:0:0:
176,232,35417,2,0,L|124:230,1,51.7499984207154,4|0,0:0|0:0,0:0:0:0:
172,306,35792,2,0,P|216:295|250:233,1,103.499996841431,8|0,0:0|0:0,0:0:0:0:
284,180,36354,1,4,0:0:0:0:
176,232,36542,5,4,0:0:0:0:
132,168,36729,2,0,L|144:64,1,103.499996841431,0|0,1:0|0:0,0:0:0:0:
212,32,37292,2,0,P|261:44|311:32,1,103.499996841431,8|0,0:0|0:0,0:0:0:0:
389,56,37854,1,0,1:0:0:0:
389,56,38042,1,4,0:0:0:0:
332,112,38229,1,0,1:0:0:0:
408,132,38417,2,0,L|392:220,1,77.6249976310731,4|0,0:0|0:0,0:0:0:0:
420,236,38792,6,0,P|360:260|344:332,1,137.999995788574,2|0,3:0|0:0,0:0:0:0:
480,376,39354,1,0,1:0:0:0:
480,376,39448,1,0,1:0:0:0:
480,376,39542,6,0,L|500:262,1,115,4|0,0:1|0:0,0:0:0:0:
420,236,40104,1,4,0:0:0:0:
390,157,40292,2,0,P|341:205|338:256,1,115,8|0,0:0|0:0,0:0:0:0:
356,332,40854,1,0,1:0:0:0:
272,308,41042,2,0,L|192:292,1,57.5,4|0,0:0|1:0,0:0:0:0:
132,316,41417,2,0,B|132:276|132:276|176:200,1,115,4|8,0:0|0:0,0:0:0:0:
244,168,41979,1,0,0:0:0:0:
188,104,42167,1,0,0:0:0:0:
248,44,42354,1,4,0:0:0:0:
128,147,42542,6,0,P|115:98|152:39,1,115,4|0,0:0|0:0,0:0:0:0:
60,28,43104,1,4,0:0:0:0:
12,101,43292,2,0,B|24:137|24:137|8:233,1,115,8|0,0:0|0:0,0:0:0:0:
32,296,43854,1,0,1:0:0:0:
116,280,44042,2,0,L|129:203,1,57.5,4|0,0:0|1:0,0:0:0:0:
212,224,44417,2,0,L|187:150,1,57.5,4|0,0:0|0:0,0:0:0:0:
260,112,44792,1,8,0:0:0:0:
335,40,44979,2,0,P|283:61|260:113,1,115,4|0,0:0|1:0,0:0:0:0:
268,128,45448,1,0,1:0:0:0:
276,144,45542,6,0,B|299:212|299:212|356:248,1,115,4|0,0:1|0:0,0:0:0:0:
412,272,46104,1,4,0:0:0:0:
436,188,46292,2,0,B|372:148|372:148|418:100,1,115,8|0,0:0|0:0,0:0:0:0:
436,40,46854,1,0,1:0:0:0:
352,64,47042,2,0,L|297:122,1,57.5,4|0,0:0|1:0,0:0:0:0:
232,140,47417,2,0,P|272:184|264:256,2,115,4|8|0,0:0|0:0|0:0,0:0:0:0:
232,140,48542,5,4,0:0:0:0:
152,168,48729,2,0,P|152:111|194:64,1,115,0|4,1:0|0:0,0:0:0:0:
276,68,49292,2,0,B|316:84|316:84|396:72,1,115,8|0,0:0|0:0,0:0:0:0:
456,124,49854,1,0,1:0:0:0:
380,164,50042,2,0,B|303:176|303:176|333:233,1,115,4|4,0:0|0:0,0:0:0:0:
392,252,50604,1,0,0:0:0:0:
449,188,50792,2,0,P|444:127|393:91,1,115,8|8,0:0|0:0,0:0:0:0:
320,96,51354,1,0,0:0:0:0:
200,33,51542,6,0,P|242:97|320:96,1,160.99999508667,2|0,0:1|0:0,0:0:0:0:
412,244,52667,6,0,L|368:308,1,57.5,4|0,0:0|1:0,0:0:0:0:
300,324,53042,2,0,L|224:304,1,57.5,4|8,0:0|0:3,0:0:0:0:
314,240,53417,1,4,0:3:0:0:
314,240,53604,1,4,0:0:0:0:
418,170,53792,2,0,P|465:192|484:258,1,115,2|0,3:0|0:0,0:0:0:0:
456,328,54354,1,0,0:0:0:0:
333,357,54542,6,0,L|412:244,1,137.999995788574,4|8,0:1|0:1,0:0:0:0:
324,192,55104,1,4,0:0:0:0:
418,170,55292,2,0,P|465:192|477:279,2,137.999995788574,0|8|2,3:0|0:1|0:1,0:0:0:0:
236,72,56417,1,4,0:0:0:0:
100,228,56792,2,0,B|80:188|80:188|96:88,1,137.999995788574,0|8,3:0|0:1,0:0:0:0:
176,155,57354,1,4,0:0:0:0:
52,284,57542,6,0,P|125:298|173:235,1,137.999995788574,2|8,0:0|0:1,0:0:0:0:
176,155,58104,1,4,0:0:0:0:
204,56,58292,2,0,P|260:92|270:185,2,137.999995788574,0|8|2,3:0|0:1|0:1,0:0:0:0:
200,264,59417,1,4,0:0:0:0:
388,352,59792,2,0,B|368:312|368:312|383:220,1,137.999995788574,0|8,3:0|0:1,0:0:0:0:
436,132,60354,1,8,0:1:0:0:
436,132,60448,1,0,0:0:0:0:
436,132,60542,6,0,B|396:116|396:116|344:136|288:104,1,137.999995788574,2|8,0:0|0:1,0:0:0:0:
232,40,61104,1,4,0:0:0:0:
152,108,61292,2,0,L|168:176,1,68.9999978942872,0|0,3:0|0:0,0:0:0:0:
244,244,61667,2,0,L|228:312,1,68.9999978942872,8|0,0:1|0:0,0:0:0:0:
332,292,62042,2,0,P|398:300|450:257,2,137.999995788574,2|4|2,0:1|0:0|3:1,0:0:0:0:
244,244,62979,1,8,0:1:0:0:
272,144,63167,1,8,0:1:0:0:
364,192,63354,1,4,0:0:0:0:
204,172,63542,6,0,P|206:111|270:70,1,137.999995788574,2|8,0:1|0:1,0:0:0:0:
364,100,64104,1,4,0:0:0:0:
272,144,64292,2,0,P|203:112|203:33,1,137.999995788574,8|2,3:1|0:1,0:0:0:0:
92,32,64854,1,0,0:0:0:0:
52,128,65042,2,0,B|64:224|64:224|112:184,1,137.999995788574,2|4,0:1|0:0,0:0:0:0:
296,248,65792,2,0,B|327:221|327:221|339:317,1,137.999995788574,2|8,3:1|0:1,0:0:0:0:
236,336,66354,1,0,1:0:0:0:
252,178,66542,6,0,B|284:152|284:152|296:248,1,137.999995788574,4|8,0:1|0:1,0:0:0:0:
192,260,67104,1,4,0:0:0:0:
296,248,67292,2,0,B|348:205|348:205|421:205,2,137.999995788574,0|8|2,3:0|0:1|2:1,0:0:0:0:
116,352,68417,1,4,0:0:0:0:
36,288,68604,1,0,0:0:0:0:
88,196,68792,2,0,B|121:156|121:156|151:145|151:145|187:102,1,137.999995788574,0|8,3:0|0:1,0:0:0:0:
274,160,69354,1,4,0:0:0:0:
178,236,69542,6,0,P|242:220|274:144,1,137.999995788574,6|8,0:0|0:1,0:0:0:0:
272,56,70104,1,4,0:0:0:0:
185,103,70292,2,0,B|151:145|151:145|121:156|121:156|88:196,2,137.999995788574,0|8|2,3:0|0:1|0:1,0:0:0:0:
380,32,71417,1,4,0:0:0:0:
476,216,71792,2,0,L|419:284,1,68.9999978942872,2|0,3:1|0:0,0:0:0:0:
408,368,72167,2,0,P|356:336|344:312,1,68.9999978942872,8|0,0:1|0:0,0:0:0:0:
344,316,72448,1,0,0:0:0:0:
336,301,72542,6,0,P|362:240|328:170,1,137.999995788574,6|8,0:0|0:1,0:0:0:0:
268,100,73104,1,4,0:0:0:0:
172,140,73292,2,0,B|124:156|124:156|40:128,1,137.999995788574,0|8,3:0|0:1,0:0:0:0:
124,54,73854,1,0,0:0:0:0:
172,140,74042,2,0,B|188:188|188:188|160:272,1,137.999995788574,4|8,0:0|0:1,0:0:0:0:
88,186,74604,1,0,0:0:0:0:
172,140,74792,2,0,B|220:124|220:124|304:152,1,137.999995788574,0|8,3:0|0:1,0:0:0:0:
400,112,75354,1,4,0:0:0:0:
280,67,75542,6,0,B|220:47|220:47|130:78,2,137.999995788574,2|8|2,0:1|0:1|3:1,0:0:0:0:
424,216,76667,1,2,0:1:0:0:
280,317,77042,2,0,B|220:337|220:337|130:306,1,137.999995788574,2|0,0:1|0:0,0:0:0:0:
36,140,77792,2,0,L|128:173,1,68.9999978942872,0|0,3:0|0:0,0:0:0:0:
168,84,78167,2,0,L|264:56,1,68.9999978942872,0|0,0:0|1:0,0:0:0:0:
200,183,78542,5,2,0:1:0:0:
256,192,78729,12,2,80792,0:3:0:0:
200,183,92604,5,0,1:0:0:0:
200,183,92698,1,0,1:0:0:0:
200,183,92792,2,0,P|180:235|209:297,1,115,2|0,3:0|1:0,0:0:0:0:
260,348,93354,1,0,1:0:0:0:
354,193,93542,6,0,L|322:292,1,103.499996841431,4|0,0:1|0:0,0:0:0:0:
260,348,94104,1,4,0:0:0:0:
200,288,94292,2,0,P|151:275|84:299,1,103.499996841431,8|0,0:0|0:0,0:0:0:0:
32,324,94854,1,0,1:0:0:0:
4,252,95042,2,0,L|19:202,1,51.7499984207154,4|0,0:0|1:0,0:0:0:0:
96,180,95417,2,0,L|64:60,1,103.499996841431,4|8,0:0|0:0,0:0:0:0:
224,60,96167,2,0,L|237:110,1,51.7499984207154,0|4,0:0|0:0,0:0:0:0:
332,192,96542,6,0,P|316:144|346:80,1,103.499996841431,4|0,0:0|0:0,0:0:0:0:
392,44,97104,1,4,0:0:0:0:
432,112,97292,2,0,L|405:212,1,103.499996841431,8|0,0:0|0:0,0:0:0:0:
351,270,97854,1,0,1:0:0:0:
273,259,98042,1,4,0:0:0:0:
252,336,98229,1,0,1:0:0:0:
203,279,98417,2,0,P|207:227|258:187,1,103.499996841431,4|8,0:0|0:0,0:0:0:0:
320,180,98979,2,0,P|284:160|328:160,1,103.499996841431,4|0,0:0|1:0,0:0:0:0:
340,148,99448,1,0,1:0:0:0:
356,148,99542,6,0,B|368:112|368:112|356:36,1,103.499996841431,4|0,0:0|0:0,0:0:0:0:
284,20,100104,1,4,0:0:0:0:
224,72,100292,2,0,L|243:193,1,103.499996841431,8|0,0:0|0:0,0:0:0:0:
208,244,100854,1,0,1:0:0:0:
136,216,101042,2,0,L|127:164,1,51.7499984207154,4|0,0:0|1:0,0:0:0:0:
60,128,101417,2,0,B|72:92|72:92|60:16,1,103.499996841431,4|8,0:0|0:0,0:0:0:0:
216,28,102167,2,0,L|224:79,1,51.7499984207154,0|4,0:0|0:0,0:0:0:0:
336,164,102542,6,0,B|344:108|388:96|447:102|444:168|440:208|373:206|369:206|369:206|389:247|366:294|366:294|389:247|416:260|468:243|484:333|432:364|372:368|372:368|336:370|309:342|309:342|256:372|196:340,1,724.499977890015,4|0,0:0|0:0,0:0:0:0:
242,225,105542,6,0,P|262:225|230:257,1,103.499996841431,4|0,0:0|0:0,0:0:0:0:
165,231,106104,1,4,0:0:0:0:
124,164,106292,2,0,B|112:128|112:128|128:52,1,103.499996841431,8|0,0:0|0:0,0:0:0:0:
197,32,106854,1,0,1:0:0:0:
197,32,107042,1,4,0:0:0:0:
241,96,107229,1,0,1:0:0:0:
232,172,107417,2,0,P|280:164|316:100,1,103.499996841431,4|8,0:0|0:0,0:0:0:0:
313,123,108167,1,0,0:0:0:0:
384,147,108354,1,4,0:0:0:0:
241,96,108542,6,0,B|205:84|205:84|129:100,1,103.499996841431,4|0,0:0|0:0,0:0:0:0:
96,160,109104,1,4,0:0:0:0:
108,236,109292,2,0,P|57:228|21:168,1,103.499996841431,8|0,0:0|0:0,0:0:0:0:
30,112,109854,1,0,1:0:0:0:
30,112,110042,1,4,0:0:0:0:
96,160,110229,1,0,1:0:0:0:
156,108,110417,2,0,B|192:120|192:120|268:104,1,103.499996841431,4|8,0:0|0:0,0:0:0:0:
96,160,110979,2,0,P|76:112|106:48,1,103.499996841431,4|0,0:0|1:0,0:0:0:0:
100,52,111448,1,0,1:0:0:0:
112,40,111542,6,0,L|240:40,1,103.499996841431,4|0,0:0|0:0,0:0:0:0:
256,106,112104,1,4,0:0:0:0:
308,48,112292,2,0,P|333:95|312:160,1,103.499996841431,8|0,0:0|0:0,0:0:0:0:
260,184,112854,1,0,1:0:0:0:
196,228,113042,2,0,L|136:216,1,51.7499984207154,4|0,0:0|1:0,0:0:0:0:
92,276,113417,2,0,L|24:296,1,51.7499984207154,4|0,0:0|0:0,0:0:0:0:
160,324,113792,2,0,L|271:291,1,103.499996841431,8|0,0:0|0:0,0:0:0:0:
331,267,114354,1,4,0:0:0:0:
368,200,114542,5,4,0:0:0:0:
432,156,114729,2,0,P|396:128|321:140,1,103.499996841431,0|4,1:0|0:0,0:0:0:0:
296,64,115292,2,0,P|263:110|277:173,1,103.499996841431,8|0,0:0|0:0,0:0:0:0:
297,232,115854,1,0,1:0:0:0:
297,232,116042,1,4,0:0:0:0:
368,200,116229,1,0,1:0:0:0:
400,273,116417,2,0,L|384:357,1,77.6249976310731,4|0,0:0|0:0,0:0:0:0:
424,372,116792,6,0,P|476:344|468:248,1,137.999995788574,2|0,0:3|0:0,0:0:0:0:
368,200,117354,1,0,1:0:0:0:
368,200,117448,1,0,1:0:0:0:
368,200,117542,6,0,B|300:224|300:224|232:212,1,115,4|0,0:1|0:0,0:0:0:0:
224,136,118104,1,4,0:0:0:0:
235,50,118292,2,0,P|171:66|141:131,1,115,8|0,0:0|0:0,0:0:0:0:
157,189,118854,1,0,1:0:0:0:
224,136,119042,2,0,L|298:109,1,57.5,4|0,0:0|1:0,0:0:0:0:
348,64,119417,2,0,P|327:120|366:181,1,115,4|8,0:0|0:0,0:0:0:0:
428,200,119979,1,0,0:0:0:0:
404,115,120167,1,0,0:0:0:0:
488,136,120354,1,4,0:0:0:0:
464,264,120542,6,0,P|408:271|357:220,1,115,4|0,0:0|0:0,0:0:0:0:
296,292,121104,1,4,0:0:0:0:
232,236,121292,2,0,L|248:156,1,57.5,8|0,0:0|0:0,0:0:0:0:
156,83,121667,2,0,L|168:140,1,57.5,0|0,0:0|1:0,0:0:0:0:
152,224,122042,1,4,0:0:0:0:
152,224,122229,1,0,1:0:0:0:
67,239,122417,2,0,P|98:292|169:301,1,115,4|8,0:0|0:0,0:0:0:0:
229,241,122979,2,0,P|175:257|147:305,1,115,4|0,0:0|1:0,0:0:0:0:
152,324,123448,1,0,1:0:0:0:
157,340,123542,6,0,L|273:328,1,115,4|0,0:1|0:0,0:0:0:0:
312,252,124104,1,4,0:0:0:0:
229,241,124292,2,0,P|252:192|320:168,1,115,8|0,0:0|0:0,0:0:0:0:
384,204,124854,1,0,1:0:0:0:
432,132,125042,2,0,L|424:52,1,57.5,4|0,0:0|1:0,0:0:0:0:
340,60,125417,2,0,B|284:76|284:76|220:56,2,115,4|8|0,0:0|0:0|0:0,0:0:0:0:
340,60,126542,5,4,0:0:0:0:
404,120,126729,2,0,P|424:172|392:236,1,115,0|4,1:0|0:0,0:0:0:0:
351,294,127292,2,0,P|403:274|467:306,1,115,8|0,0:0|0:0,0:0:0:0:
508,360,127854,1,0,1:0:0:0:
424,372,128042,2,0,L|292:372,1,115,4|4,0:0|0:0,0:0:0:0:
240,324,128604,1,0,0:0:0:0:
160,360,128792,2,0,P|152:312|192:252,1,115,8|8,0:0|0:0,0:0:0:0:
260,212,129354,1,8,0:0:0:0:
337,78,129542,6,0,B|301:120|301:120|296:169|296:169|255:218,1,160.99999508667,2|0,0:1|0:0,0:0:0:0:
92,176,130667,6,0,L|97:118,1,57.5,4|0,0:0|1:0,0:0:0:0:
184,128,131042,2,0,L|178:185,1,57.5,4|8,0:0|0:3,0:0:0:0:
132,260,131417,1,4,0:3:0:0:
132,260,131604,1,4,0:0:0:0:
262,257,131792,2,0,B|221:242|221:242|173:178,1,115,2|0,0:3|0:0,0:0:0:0:
256,144,132354,1,0,0:0:0:0:
336,256,132542,6,0,P|322:300|214:313,1,137.999995788574,4|8,0:1|0:1,0:0:0:0:
140,316,133104,1,4,0:0:0:0:
108,219,133292,2,0,P|78:159|13:147,2,137.999995788574,0|8|2,3:0|0:1|0:1,0:0:0:0:
256,76,134417,1,4,0:0:0:0:
340,264,134792,2,0,B|304:232|304:232|256:256|196:224,1,137.999995788574,0|8,3:0|0:1,0:0:0:0:
144,160,135354,1,4,0:0:0:0:
256,76,135542,6,0,B|292:44|292:44|340:68|400:36,1,137.999995788574,2|8,0:0|0:1,0:0:0:0:
484,36,136104,1,4,0:0:0:0:
464,140,136292,2,0,L|398:200,1,68.9999978942872,0|0,3:0|0:0,0:0:0:0:
404,288,136667,2,0,L|312:244,1,68.9999978942872,8|0,0:1|0:0,0:0:0:0:
256,320,137042,2,0,P|236:273|268:188,2,137.999995788574,2|4|0,0:1|0:0|3:0,0:0:0:0:
329,164,138167,2,0,P|306:135|247:124,1,68.9999978942872,8|8,0:1|0:1,0:0:0:0:
256,119,138448,1,0,0:0:0:0:
236,116,138542,6,0,P|176:76|172:12,1,137.999995788574,2|8,0:0|0:1,0:0:0:0:
88,76,139104,1,4,0:0:0:0:
128,172,139292,2,0,L|100:268,1,68.9999978942872,0|0,3:0|0:0,0:0:0:0:
192,300,139667,2,0,P|200:336|186:378,1,68.9999978942872,8|0,0:1|0:0,0:0:0:0:
96,332,140042,2,0,P|37:306|16:232,2,137.999995788574,2|4|2,0:1|0:0|3:1,0:0:0:0:
192,300,140979,1,8,0:1:0:0:
109,238,141167,1,8,0:1:0:0:
204,196,141354,1,4,0:0:0:0:
115,312,141542,6,0,P|49:282|49:196,1,137.999995788574,2|8,0:1|0:1,0:0:0:0:
96,136,142104,1,4,0:0:0:0:
109,238,142292,2,0,P|54:272|59:360,1,137.999995788574,0|2,3:0|0:1,0:0:0:0:
144,376,142854,1,0,0:0:0:0:
228,312,143042,2,0,B|216:268|216:268|244:160,1,137.999995788574,2|4,0:1|0:0,0:0:0:0:
92,32,143792,2,0,B|104:76|104:76|76:184,1,137.999995788574,2|8,3:1|0:1,0:0:0:0:
140,248,144354,1,0,1:0:0:0:
183,97,144542,6,0,B|170:141|170:141|54:173,1,137.999995788574,4|8,0:1|0:1,0:0:0:0:
44,260,145104,1,4,0:0:0:0:
140,248,145292,2,0,B|187:235|187:235|223:251|223:251|283:235,2,137.999995788574,0|8|2,3:0|0:1|0:1,0:0:0:0:
320,144,146417,1,4,0:0:0:0:
248,72,146604,1,0,0:0:0:0:
351,77,146792,2,0,P|388:116|353:210,1,137.999995788574,0|8,3:0|0:1,0:0:0:0:
288,252,147354,1,4,0:0:0:0:
169,196,147542,6,0,B|217:196|217:196|293:256,1,137.999995788574,6|8,0:0|0:1,0:0:0:0:
185,281,148104,1,4,0:0:0:0:
100,223,148292,2,0,P|103:162|190:124,2,137.999995788574,0|8|2,3:0|0:1|0:1,0:0:0:0:
260,352,149417,1,4,0:0:0:0:
408,208,149792,2,0,L|396:124,1,68.9999978942872,2|0,3:1|0:0,0:0:0:0:
313,27,150167,2,0,L|304:96,1,68.9999978942872,8|0,0:1|0:0,0:0:0:0:
288,108,150448,1,0,0:0:0:0:
272,120,150542,6,0,B|285:215|285:215|332:184,1,137.999995788574,6|8,0:0|0:1,0:0:0:0:
380,276,151104,1,4,0:0:0:0:
280,308,151292,2,0,P|216:280|193:204,1,137.999995788574,0|8,3:0|0:1,0:0:0:0:
192,116,151854,1,0,0:0:0:0:
192,220,152042,2,0,P|128:200|92:120,1,137.999995788574,4|8,0:0|0:1,0:0:0:0:
124,44,152604,1,0,0:0:0:0:
93,142,152792,2,0,P|25:78|32:10,1,137.999995788574,0|8,3:0|0:1,0:0:0:0:
124,44,153354,1,4,0:0:0:0:
224,68,153542,6,0,B|272:92|320:72|320:72|300:108,2,137.999995788574,2|8|2,0:1|0:1|3:1,0:0:0:0:
56,192,154667,1,2,0:1:0:0:
224,316,155042,2,0,B|272:292|320:312|320:312|300:276,1,137.999995788574,2|4,0:1|0:0,0:0:0:0:
364,196,155604,1,0,0:0:0:0:
452,252,155792,2,0,L|486:311,1,68.9999978942872,0|0,3:0|0:0,0:0:0:0:
364,196,156167,2,0,P|356:160|370:118,1,68.9999978942872,0|0,0:0|1:0,0:0:0:0:
512,58,156542,6,0,P|508:122|428:162,1,155.249995262146,4|4,0:1|0:0,0:0:0:0:
363,129,157292,2,0,L|251:153,1,103.499996841431,0|0,3:0|0:0,0:0:0:0:
228,220,157854,1,0,1:0:0:0:
304,228,158042,2,0,L|378:212,1,51.7499984207154,4|0,0:0|1:0,0:0:0:0:
404,276,158417,2,0,L|388:350,1,51.7499984207154,4|0,0:0|0:0,0:0:0:0:
468,352,158792,2,0,B|484:275|484:275|528:301,1,103.499996841431,0|0,3:0|0:0,0:0:0:0:
443,208,159354,1,4,0:0:0:0:
366,66,159542,6,0,B|354:122|354:122|366:162|366:162|350:238,1,155.249995262146,4|4,0:0|0:0,0:0:0:0:
285,166,160292,2,0,P|221:186|201:262,1,103.499996841431,0|0,3:0|0:0,0:0:0:0:
220,296,160854,1,0,1:0:0:0:
220,296,161042,1,4,0:0:0:0:
298,291,161229,1,0,1:0:0:0:
358,240,161417,2,0,P|376:292|337:360,2,103.499996841431,4|0|0,0:0|3:0|0:0,0:0:0:0:
292,200,162354,1,0,1:0:0:0:
292,200,162448,1,0,1:0:0:0:
292,200,162542,6,0,B|340:173|339:116|339:116|397:78,1,155.249995262146,4|4,0:0|0:0,0:0:0:0:
364,12,163292,2,0,L|265:76,1,103.499996841431,0|0,3:0|0:0,0:0:0:0:
200,84,163854,1,0,1:0:0:0:
152,148,164042,2,0,L|91:187,2,51.7499984207154,4|0|4,0:0|1:0|0:0,0:0:0:0:
224,172,164604,1,0,0:0:0:0:
176,232,164792,1,0,3:0:0:0:
128,292,164979,2,0,P|164:308|239:274,1,103.499996841431,0|4,0:0|0:0,0:0:0:0:
352,256,165542,6,0,B|316:260|292:240|292:240|274:292|208:292,1,155.249995262146,4|4,0:0|0:0,0:0:0:0:
164,344,166292,2,0,L|56:312,1,103.499996841431,0|0,3:0|0:0,0:0:0:0:
40,240,166854,1,0,1:0:0:0:
108,204,167042,2,0,L|157:218,1,51.7499984207154,4|0,0:0|1:0,0:0:0:0:
208,160,167417,2,0,L|257:174,1,51.7499984207154,4|0,0:0|0:0,0:0:0:0:
323,133,167792,1,2,0:3:0:0:
387,177,167979,1,0,0:0:0:0:
451,133,168167,1,0,0:0:0:0:
431,57,168354,1,0,0:0:0:0:
296,60,168542,6,0,P|247:117|260:178,1,137.999995788574,2|0,0:0|0:0,0:0:0:0:
299,245,169104,1,4,0:0:0:0:
238,301,169292,2,0,L|171:282,1,68.9999978942872,0|0,3:0|0:0,0:0:0:0:
88,289,169667,2,0,L|52:213,1,68.9999978942872
107,159,170042,2,0,B|143:63|143:63|167:119,2,137.999995788574,2|4|0,0:0|0:0|3:0,0:0:0:0:
58,227,170979,1,0,0:0:0:0:
93,302,171167,1,0,0:0:0:0:
168,269,171354,1,4,0:0:0:0:
250,179,171542,6,0,P|188:206|168:270,1,137.999995788574,6|0,0:0|0:0,0:0:0:0:
209,340,172104,1,4,0:0:0:0:
209,340,172292,1,0,3:0:0:0:
360,272,172667,2,0,L|344:176,1,68.9999978942872,4|0,0:0|1:0,0:0:0:0:
411,149,173042,2,0,L|427:53,1,68.9999978942872,4|0,0:0|1:0,0:0:0:0:
375,12,173417,1,4,0:0:0:0:
375,12,173792,2,0,B|335:44|335:44|283:24|227:56,1,137.999995788574,0|0,3:0|0:0,0:0:0:0:
228,128,174354,1,0,1:0:0:0:
228,128,174448,1,0,1:0:0:0:
228,128,174542,6,0,P|228:180|84:224,1,206.999993682861,4|4,0:0|0:0,0:0:0:0:
48,148,175292,2,0,P|68:92|148:64,1,137.999995788574,0|0,3:0|0:0,0:0:0:0:
236,36,175854,1,0,1:0:0:0:
236,36,176042,2,0,L|324:52,1,68.9999978942872,4|0,0:0|1:0,0:0:0:0:
380,120,176417,2,0,L|292:136,1,68.9999978942872,4|0,0:0|0:0,0:0:0:0:
300,236,176792,1,0,3:0:0:0:
300,236,176979,2,0,B|344:252|344:252|452:232,1,137.999995788574,0|4,0:0|0:0,0:0:0:0:
442,76,177542,6,0,B|402:82|402:82|424:119|424:119|390:189|447:251,1,206.999993682861,4|4,0:0|0:0,0:0:0:0:
432,340,178292,2,0,B|342:356|342:356|298:340,1,137.999995788574,0|0,3:0|0:0,0:0:0:0:
208,292,178854,1,0,1:0:0:0:
208,292,179042,2,0,L|192:372,1,68.9999978942872,4|0,0:0|1:0,0:0:0:0:
92,372,179417,2,0,L|105:304,1,68.9999978942872,4|0,0:0|0:0,0:0:0:0:
48,216,179792,1,0,3:0:0:0:
48,216,179979,2,0,P|40:144|99:96,1,137.999995788574,0|8,0:0|0:0,0:0:0:0:
204,208,180542,38,0,B|100:244|93:345|154:365|194:362|219:319|219:319|245:364|300:379|372:308|302:217|216:205|216:205|216:131|216:131|148:136|100:186,1,736,2|4,0:1|0:1,0:0:0:0:
113,173,192354,5,4,0:0:0:0:
176,128,192542,6,0,B|216:144|216:144|292:128,1,103.499996841431,4|0,0:0|0:0,0:0:0:0:
320,68,193104,2,0,B|280:52|280:52|204:68,1,103.499996841431,4|0,0:0|0:0,0:0:0:0:
144,56,193667,1,0,0:0:0:0:
144,56,194042,6,0,P|112:112|32:124,1,140.874995700836,2|0,0:1|0:0,0:0:0:0:
20,124,194792,6,0,L|56:228,1,100.625,2|0,0:1|0:0,0:0:0:0:
39,236,195542,6,0,P|95:232|163:320,1,160.99999508667,4|8,0:1|0:1,0:0:0:0:
260,344,196104,1,4,0:0:0:0:
320,256,196292,2,0,L|287:160,1,80.499997543335,0|0,3:0|0:0,0:0:0:0:
426,107,196667,2,0,L|400:184,1,80.499997543335,8|0,0:1|0:0,0:0:0:0:
464,268,197042,1,2,0:1:0:0:
321,104,197417,2,0,L|294:180,1,80.499997543335,4|0,0:0|0:0,0:0:0:0:
312,284,197792,2,0,B|268:256|268:256|212:280|152:252,1,160.99999508667,0|8,3:0|0:1,0:0:0:0:
64,220,198354,1,4,0:0:0:0:
167,72,198542,6,0,L|140:148,1,80.499997543335,6|0,0:0|0:0,0:0:0:0:
68,224,198917,1,8,0:1:0:0:
68,224,199104,1,4,0:0:0:0:
162,256,199292,2,0,B|206:228|206:228|262:252|322:224,2,160.99999508667,0|8|2,3:0|0:1|0:1,0:0:0:0:
256,68,200417,1,4,0:0:0:0:
416,204,200792,1,0,3:0:0:0:
236,312,201167,2,0,L|156:364,1,80.499997543335,8|8,0:1|0:1,0:0:0:0:
144,352,201448,1,0,0:0:0:0:
120,348,201542,6,0,P|144:292|88:204,1,160.99999508667,6|8,0:0|0:1,0:0:0:0:
12,148,202104,1,4,0:0:0:0:
12,148,202292,2,0,L|79:104,1,80.499997543335,0|0,3:0|0:0,0:0:0:0:
176,140,202667,2,0,P|212:149|263:133,1,80.499997543335,8|0,0:1|0:0,0:0:0:0:
336,76,203042,2,0,B|314:130|340:176|340:176|296:244,2,160.99999508667,2|4|2,0:1|0:0|3:1,0:0:0:0:
232,56,203979,2,0,B|188:28|188:28|188:92|188:92|152:147,1,160.99999508667,8|4,0:1|0:0,0:0:0:0:
152,276,204542,6,0,B|196:304|196:304|196:240|196:240|232:185,1,160.99999508667,2|8,0:1|0:1,0:0:0:0:
115,198,205104,1,4,0:0:0:0:
12,184,205292,2,0,L|56:116,1,80.499997543335,0|0,3:0|0:0,0:0:0:0:
49,280,205667,2,0,L|4:347,1,80.499997543335,8|0,0:1|0:0,0:0:0:0:
108,360,206042,2,0,B|135:320|135:320|192:352|276:316,1,160.99999508667,2|4,0:1|0:0,0:0:0:0:
452,360,206792,2,0,B|425:320|425:320|368:352|284:316,1,160.99999508667,2|8,3:1|0:1,0:0:0:0:
300,224,207354,1,0,1:0:0:0:
300,224,207448,1,0,1:0:0:0:
300,224,207542,6,0,P|291:168|268:231,1,160.99999508667,4|8,0:1|0:1,0:0:0:0:
212,320,208104,1,4,0:0:0:0:
116,276,208292,2,0,L|32:212,1,80.499997543335,0|0,3:0|0:0,0:0:0:0:
140,172,208667,2,0,P|129:133|139:94,1,80.499997543335,8|0,0:1|0:0,0:0:0:0:
236,131,209042,2,0,P|304:139|336:231,1,160.99999508667,2|4,0:1|0:0,0:0:0:0:
168,336,209792,2,0,B|104:308|104:308|88:252|88:252|132:272,1,160.99999508667,0|8,3:0|0:1,0:0:0:0:
216,228,210354,1,4,0:0:0:0:
265,334,210542,6,0,B|329:306|329:306|345:250|345:250|316:264,1,160.99999508667,6|8,0:0|0:1,0:0:0:0:
216,228,211104,1,4,0:0:0:0:
284,148,211292,2,0,L|382:103,1,80.499997543335,0|0,3:0|0:0,0:0:0:0:
436,44,211667,2,0,P|475:33|514:43,1,80.499997543335,8|0,0:1|0:0,0:0:0:0:
475,140,212042,2,0,P|467:208|375:240,1,160.99999508667,2|4,0:1|0:0,0:0:0:0:
208,344,212792,2,0,B|176:324|176:324|152:272,1,80.499997543335,2|0,3:1|0:0,0:0:0:0:
264,292,213167,2,0,B|246:258|246:258|253:201,1,80.499997543335,8|0,0:1|0:0,0:0:0:0:
272,204,213448,1,0,0:0:0:0:
296,196,213542,6,0,P|288:168|376:72,1,160.99999508667,6|8,0:0|0:1,0:0:0:0:
464,52,214104,1,4,0:0:0:0:
452,156,214292,2,0,B|428:216|456:260|456:260|424:280|424:328,1,160.99999508667,0|8,3:0|0:1,0:0:0:0:
350,232,214854,1,0,0:0:0:0:
427,302,215042,2,0,B|350:330|350:330|268:298,1,160.99999508667,4|8,0:0|0:1,0:0:0:0:
350,232,215604,1,0,0:0:0:0:
276,301,215792,2,0,B|272:275|246:258|246:258|274:210|250:154,1,160.99999508667,0|8,3:0|0:1,0:0:0:0:
156,200,216354,1,4,0:0:0:0:
24,283,216542,6,0,P|60:341|96:284,2,160.99999508667,2|8|2,0:1|0:1|3:1,0:0:0:0:
60,76,217667,1,2,0:1:0:0:
264,128,218042,2,0,P|321:92|264:56,1,160.99999508667,2|4,0:1|0:0,0:0:0:0:
164,88,218604,1,0,0:0:0:0:
172,192,218792,2,0,L|188:304,1,80.499997543335,0|0,3:0|0:0,0:0:0:0:
72,156,219167,2,0,L|84:236,1,80.499997543335,8|0,0:1|0:0,0:0:0:0:
188,360,219542,6,0,B|240:336|240:336|292:360|352:332,1,160.99999508667,2|2,0:1|0:3,0:0:0:0:
480,180,221042,1,8,0:1:0:0:
300,76,221792,2,0,L|212:116,1,80.499997543335,2|0,0:3|0:0,0:0:0:0:
124,124,222542,6,0,B|84:108|84:108|124:232,1,160.99999508667,2|2,0:1|0:3,0:0:0:0:
292,340,224042,1,8,0:1:0:0:
440,192,224792,2,0,L|411:105,1,80.499997543335,2|0,0:3|0:0,0:0:0:0:
324,68,225542,6,0,B|280:80|280:80|248:72|248:72|208:92|152:68,1,160.99999508667,2|2,0:1|0:3,0:0:0:0:
36,236,227042,1,8,0:1:0:0:
224,326,227792,1,2,0:3:0:0:
248,228,228167,1,8,0:1:0:0:
342,262,228542,6,0,L|426:230,1,80.499997543335,2|8,0:1|0:1,0:0:0:0:
390,163,229104,2,0,L|314:191,1,80.499997543335,0|8,0:0|0:1,0:0:0:0:
248,228,229667,2,0,B|232:192|248:156|248:156|228:132|228:132|294:101,1,160.99999508667,0|0,0:0|0:0,0:0:0:0:
152,180,230792,1,2,0:3:0:0:
60,68,231167,1,0,0:0:0:0:
82,200,231542,6,0,P|116:244|179:247,1,115,2|8,0:1|0:1,0:0:0:0:
392,124,233042,1,0,0:0:0:0:
160,360,233836,1,0,0:0:0:0:
254,101,234502,5,0,0:0:0:0:
256,192,234669,12,0,240502,0:0:0:0:
