osu file format v14

[General]
AudioFilename: audio.mp3
AudioLeadIn: 0
PreviewTime: 52479
Countdown: 0
SampleSet: Soft
StackLeniency: 0.3
Mode: 0
LetterboxInBreaks: 0
WidescreenStoryboard: 1

[Editor]
DistanceSpacing: 1.5
BeatDivisor: 8
GridSize: 4
TimelineZoom: 0.6999999

[Metadata]
Title:Still love you
TitleUnicode:Still love you
Artist:Kana Nishino
ArtistUnicode:西野カナ
Creator:Modem
Version:Goodbye
Source:
Tags:Darling
BeatmapID:1482857
BeatmapSetID:684712

[Difficulty]
HPDrainRate:6
CircleSize:4
OverallDifficulty:7
ApproachRate:8
SliderMultiplier:2.6
SliderTickRate:1

[Events]
//Background and Video events
Video,0,"Video.avi"
0,0,"bg5.jpg",0,0
//Break Periods
2,81542,90542
2,183742,191604
//Storyboard Layer 0 (Background)
//Storyboard Layer 1 (Fail)
//Storyboard Layer 2 (Pass)
//Storyboard Layer 3 (Foreground)
//Storyboard Sound Samples

[TimingPoints]
542,750,4,2,1,45,1,0
14604,-100,4,2,1,25,0,0
14792,-100,4,2,1,45,0,0
15354,-100,4,2,1,25,0,0
15542,-111.111111111111,4,2,1,25,0,0
15917,-111.111111111111,4,2,1,45,0,0
20698,-111.111111111111,4,2,1,5,0,0
20792,-111.111111111111,4,2,1,45,0,0
26792,-66.6666666666667,4,2,1,45,0,0
27354,-111.111111111111,4,2,1,35,0,0
27542,-111.111111111111,4,2,1,45,0,0
32698,-111.111111111111,4,2,1,5,0,0
32792,-111.111111111111,4,2,1,45,0,0
35698,-111.111111111111,4,2,1,5,0,0
35792,-111.111111111111,4,2,1,45,0,0
38698,-111.111111111111,4,2,1,5,0,0
38792,-66.6666666666667,4,2,1,45,0,0
39354,-111.111111111111,4,2,1,45,0,0
39542,-100,4,2,1,25,0,0
39917,-100,4,2,1,55,0,0
44698,-100,4,2,1,5,0,0
44792,-100,4,2,1,55,0,0
45354,-100,4,2,1,25,0,0
45542,-100,4,2,1,25,0,0
45917,-100,4,2,1,55,0,0
49010,-100,4,2,1,5,0,0
49104,-100,4,2,1,55,0,0
51542,-142.857142857143,4,2,1,55,0,0
52667,-100,4,2,1,55,0,0
52854,-100,4,2,1,35,0,0
53042,-100,4,2,1,45,0,0
54542,-83.3333333333333,4,2,1,60,0,1
54917,-83.3333333333333,4,2,1,85,0,1
66167,-83.3333333333333,4,2,1,85,0,0
66354,-83.3333333333333,4,2,1,35,0,0
66542,-83.3333333333333,4,2,1,60,0,1
66917,-83.3333333333333,4,2,1,85,0,1
77417,-83.3333333333333,4,2,1,85,0,1
78354,-83.3333333333333,4,2,1,30,0,1
78542,-83.3333333333333,4,2,1,85,0,1
78729,-83.3333333333333,4,2,1,15,0,0
80792,-100,4,2,1,30,0,0
92604,-100,4,2,1,25,0,0
92792,-100,4,2,1,45,0,0
93167,-100,4,2,1,35,0,0
93542,-111.111111111111,4,2,1,20,0,0
93917,-111.111111111111,4,2,1,50,0,0
98698,-111.111111111111,4,2,1,5,0,0
98792,-111.111111111111,4,2,1,50,0,0
110698,-111.111111111111,4,2,1,5,0,0
110792,-111.111111111111,4,2,1,50,0,0
113698,-111.111111111111,4,2,1,5,0,0
113792,-111.111111111111,4,2,1,50,0,0
116698,-111.111111111111,4,2,1,5,0,0
116792,-66.6666666666667,4,2,1,50,0,0
117354,-50,4,2,1,25,0,0
117542,-100,4,2,1,25,0,0
117917,-100,4,2,1,50,0,0
122698,-100,4,2,1,5,0,0
122792,-100,4,2,1,50,0,0
123354,-100,4,2,1,15,0,0
123542,-100,4,2,1,25,0,0
123917,-100,4,2,1,50,0,0
127010,-100,4,2,1,5,0,0
127104,-100,4,2,1,50,0,0
129542,-142.857142857143,4,2,1,55,0,0
130667,-100,4,2,1,45,0,0
130854,-100,4,2,1,25,0,0
131042,-100,4,2,1,45,0,0
131792,-100,4,2,1,55,0,0
132542,-83.3333333333333,4,2,1,40,0,1
132917,-83.3333333333333,4,2,1,85,0,1
144167,-83.3333333333333,4,2,1,85,0,0
144354,-83.3333333333333,4,2,1,35,0,0
144542,-83.3333333333333,4,2,1,45,0,1
144917,-83.3333333333333,4,2,1,85,0,1
156354,-83.3333333333333,4,2,1,35,0,1
156542,-111.111111111111,4,2,1,30,0,0
157104,-111.111111111111,4,2,1,60,0,0
162354,-111.111111111111,4,2,1,40,0,0
162542,-111.111111111111,4,2,1,60,0,0
168542,-83.3333333333333,4,2,1,60,0,0
174354,-83.3333333333333,4,2,1,40,0,0
174542,-83.3333333333333,4,2,1,60,0,0
180542,-125,4,2,1,60,0,0
183542,-125,4,2,1,50,0,0
192542,-111.111111111111,4,2,1,100,0,0
194042,-142.857142857143,4,2,1,100,0,0
194698,-142.857142857143,4,2,1,5,0,0
194792,-200,4,2,1,100,0,0
195448,-200,4,2,1,5,0,0
195542,-71.4285714285714,4,2,1,60,0,1
195917,-71.4285714285714,4,2,1,85,0,1
207167,-71.4285714285714,4,2,1,85,0,0
207354,-71.4285714285714,4,2,1,35,0,0
207542,-71.4285714285714,4,2,1,60,0,1
207917,-71.4285714285714,4,2,1,85,0,1
219542,-142.857142857143,4,2,1,85,0,0
220292,-142.857142857143,4,2,1,30,0,0
222542,-142.857142857143,4,2,1,60,0,0
223292,-142.857142857143,4,2,1,30,0,0
225542,-142.857142857143,4,2,1,60,0,0
226292,-142.857142857143,4,2,1,30,0,0
228542,-142.857142857143,4,2,1,60,0,0
228917,-142.857142857143,4,2,1,30,0,0
231542,769.230769230769,4,2,1,30,1,0
231542,-200,4,2,1,30,0,0
232311,731.707317073171,4,2,1,30,1,0
233042,794.701986754967,4,2,1,30,1,0
233836,666.666666666667,4,2,1,30,1,0
234502,-200,4,2,1,30,0,0
234669,-200,4,2,1,5,0,0

[Colours]
Combo1 : 128,0,64
Combo2 : 255,128,128
Combo3 : 255,112,43
Combo4 : 250,181,135
SliderBorder : 253,224,157

[HitObjects]
148,88,14604,5,0,1:0:0:0:
148,88,14698,1,0,1:0:0:0:
148,88,14792,2,0,B|128:132|128:132|148:236,1,130,2|0,3:0|0:0,0:0:0:0:
224,268,15354,1,0,1:0:0:0:
287,115,15542,6,0,B|251:109|251:109|267:189,1,116.999996429443,4|0,0:1|0:0,0:0:0:0:
224,268,16104,1,4,0:0:0:0:
308,300,16292,2,0,P|280:340|191:350,1,116.999996429443,8|0,0:0|0:0,0:0:0:0:
144,312,16854,1,0,1:3:0:0:
148,224,17042,5,4,0:0:0:0:
224,268,17229,1,0,1:0:0:0:
72,264,17417,2,0,P|64:203|115:145,1,116.999996429443,4|8,0:0|0:0,0:0:0:0:
148,224,17979,1,0,0:0:0:0:
184,144,18167,2,0,L|264:152,1,58.4999982147217,0|4,0:0|0:0,0:0:0:0:
480,76,18542,6,0,B|440:96|440:96|344:86,1,116.999996429443,4|0,0:0|0:0,0:0:0:0:
283,72,19104,1,4,0:0:0:0:
242,150,19292,2,0,P|226:210|259:282,1,116.999996429443,8|0,0:0|0:0,0:0:0:0:
304,324,19854,1,0,1:0:0:0:
384,288,20042,6,0,L|452:236,1,58.4999982147217,4|0,0:0|1:0,0:0:0:0:
360,64,20417,2,0,P|347:107|367:155,1,87.7499973220826,4|0,0:0|0:0,0:0:0:0:
384,184,20792,1,8,0:0:0:0:
248,100,20979,2,0,B|208:84|208:84|116:104,1,116.999996429443,4|0,0:0|1:0,0:0:0:0:
116,92,21448,1,0,1:0:0:0:
96,84,21542,6,0,L|108:228,1,116.999996429443,4|0,0:0|0:0,0:0:0:0:
160,268,22104,1,4,0:0:0:0:
200,347,22292,2,0,P|236:315|232:227,1,116.999996429443,8|0,0:0|0:0,0:0:0:0:
216,168,22854,1,0,1:0:0:0:
296,128,23042,6,0,L|376:148,1,58.4999982147217,4|0,0:0|1:0,0:0:0:0:
204,94,23417,2,0,P|160:118|148:197,1,116.999996429443,4|8,0:0|0:0,0:0:0:0:
196,248,23979,1,0,0:0:0:0:
196,248,24167,2,0,L|184:332,1,58.4999982147217,0|4,0:0|0:0,0:0:0:0:
216,168,24542,5,4,0:0:0:0:
204,94,24729,2,0,P|160:118|148:197,1,116.999996429443,0|0,1:0|0:0,0:0:0:0:
80,92,25292,2,0,P|95:147|143:179,1,116.999996429443,8|0,0:0|0:0,0:0:0:0:
196,248,25854,1,0,1:0:0:0:
280,220,26042,5,4,0:0:0:0:
180,336,26229,1,0,1:0:0:0:
216,164,26417,2,0,L|232:80,1,58.4999982147217,4|8,0:0|0:0,0:0:0:0:
351,268,26792,6,0,P|424:260|363:201,1,195.00000743866,2|0,0:3|0:0,0:0:0:0:
292,156,27354,1,0,1:0:0:0:
292,156,27448,1,0,1:0:0:0:
292,156,27542,6,0,L|270:270,1,116.999996429443,4|0,0:0|0:0,0:0:0:0:
208,340,28104,1,4,0:0:0:0:
144,276,28292,2,0,B|112:252|112:252|72:268|24:248,1,116.999996429443,8|0,0:0|0:0,0:0:0:0:
74,169,28854,1,0,1:0:0:0:
160,160,29042,6,0,L|221:206,1,58.4999982147217,4|0,0:0|1:0,0:0:0:0:
301,149,29417,2,0,P|245:152|207:195,1,116.999996429443,4|8,0:0|0:0,0:0:0:0:
200,36,29979,1,0,0:0:0:0:
204,40,30354,1,4,0:0:0:0:
204,40,30542,6,0,B|175:73|175:73|170:100|170:100|131:146,1,116.999996429443,4|0,0:0|0:0,0:0:0:0:
156,220,31104,1,4,0:0:0:0:
87,275,31292,2,0,B|63:302|63:302|123:371,1,116.999996429443,8|0,0:0|0:0,0:0:0:0:
212,364,31854,1,0,1:0:0:0:
212,364,32042,5,4,0:0:0:0:
292,324,32229,1,0,1:0:0:0:
284,236,32417,2,0,L|332:160,1,87.7499973220826,4|0,0:0|0:0,0:0:0:0:
320,120,32792,1,8,0:0:0:0:
224,144,32979,2,0,B|224:104|224:104|276:22,1,116.999996429443,4|0,0:0|1:0,0:0:0:0:
284,32,33448,1,0,1:0:0:0:
304,28,33542,6,0,P|368:36|408:88,1,116.999996429443,4|0,0:0|0:0,0:0:0:0:
320,120,34104,1,4,0:0:0:0:
376,196,34292,2,0,B|376:236|376:236|324:318,1,116.999996429443,8|0,0:0|0:0,0:0:0:0:
252,332,34854,1,0,1:0:0:0:
240,244,35042,6,0,L|277:184,1,58.4999982147217,4|0,0:0|1:0,0:0:0:0:
408,36,35417,2,0,L|361:110,1,87.7499973220826,4|0,0:0|0:0,0:0:0:0:
320,120,35792,1,8,0:0:0:0:
232,112,35979,1,0,0:0:0:0:
271,194,36167,1,0,0:0:0:0:
284,40,36354,1,4,0:0:0:0:
184,192,36542,5,4,0:0:0:0:
144,112,36729,2,0,P|102:153|102:224,1,116.999996429443,0|0,1:0|0:0,0:0:0:0:
257,241,37292,2,0,P|213:277|156:276,1,116.999996429443,8|0,0:0|0:0,0:0:0:0:
184,192,37854,1,0,1:0:0:0:
268,160,38042,2,0,L|328:188,1,58.4999982147217,4|0,0:0|1:0,0:0:0:0:
184,192,38417,2,0,L|98:152,1,87.7499973220826,4|0,0:0|0:0,0:0:0:0:
24,184,38792,6,0,B|64:155|64:155|18:155|18:155|35:126|35:83|6:51,1,195.00000743866,2|0,0:3|0:0,0:0:0:0:
192,96,39354,1,0,1:0:0:0:
192,96,39448,1,0,1:0:0:0:
192,96,39542,6,0,P|264:96|304:40,1,130,4|0,0:1|0:0,0:0:0:0:
396,44,40104,1,4,0:0:0:0:
436,132,40292,2,0,P|364:132|324:188,1,130,8|0,0:0|0:0,0:0:0:0:
308,268,40854,1,0,1:0:0:0:
212,248,41042,5,4,0:0:0:0:
320,288,41229,1,0,1:0:0:0:
232,152,41417,2,0,P|154:167|122:226,1,130,4|8,0:0|0:0,0:0:0:0:
212,248,41979,1,0,0:0:0:0:
200,344,42167,2,0,L|116:304,1,65,0|4,0:0|0:0,0:0:0:0:
320,288,42542,6,0,B|364:212|364:212|384:248,1,130,4|0,0:0|0:0,0:0:0:0:
432,332,43104,1,4,0:0:0:0:
464,240,43292,2,0,L|394:111,1,130,8|0,0:0|0:0,0:0:0:0:
396,28,43854,1,0,1:0:0:0:
396,28,44042,6,0,L|324:64,1,65,4|0,0:0|1:0,0:0:0:0:
172,108,44417,2,0,P|219:94|276:117,1,97.5,4|0,0:0|0:0,0:0:0:0:
300,140,44792,1,8,0:0:0:0:
136,173,44979,2,0,P|98:115|133:46,1,130,4|0,0:0|1:0,0:0:0:0:
132,48,45448,1,0,1:0:0:0:
147,37,45542,6,0,L|8:24,1,130,4|0,0:1|0:0,0:0:0:0:
16,124,46104,1,4,0:0:0:0:
20,220,46292,2,0,L|4:300,1,65,8|0,0:0|0:0,0:0:0:0:
104,304,46667,2,0,L|116:240,1,65,0|0,0:0|1:0,0:0:0:0:
184,168,47042,5,4,0:0:0:0:
184,168,47229,1,0,1:0:0:0:
180,72,47417,2,0,P|232:80|276:156,2,130,4|8|0,0:0|0:0|0:0,0:0:0:0:
84,72,48354,1,4,0:0:0:0:
184,168,48542,5,4,0:0:0:0:
88,168,48729,2,0,L|60:272,1,97.5,0|0,1:0|0:0,0:0:0:0:
84,304,49104,1,4,0:0:0:0:
196,372,49292,2,0,L|172:284,1,65,8|0,0:0|0:0,0:0:0:0:
250,242,49667,1,0,0:0:0:0:
184,168,49854,1,0,1:0:0:0:
250,242,50042,6,0,L|266:304,1,65,4|0,0:0|1:0,0:0:0:0:
364,320,50417,1,4,0:0:0:0:
396,228,50604,1,0,0:0:0:0:
333,109,50792,2,0,L|317:172,2,65,8|8|8,0:0|0:0|0:0,0:0:0:0:
236,104,51354,1,0,0:0:0:0:
130,79,51542,6,0,B|102:88|102:88|130:119|130:119|166:103|166:103|201:119|250:99,1,181.999994445801,2|0,0:1|0:0,0:0:0:0:
420,36,52667,1,4,0:0:0:0:
379,176,52854,1,0,1:0:0:0:
391,196,52948,1,0,1:0:0:0:
403,216,53042,5,4,0:0:0:0:
236,104,53229,1,8,0:3:0:0:
200,260,53417,1,4,0:3:0:0:
312,80,53604,1,4,0:0:0:0:
176,188,53792,6,0,P|132:227|143:309,1,130,2|0,3:0|0:0,0:0:0:0:
299,260,54354,1,0,0:0:0:0:
251,260,54448,1,0,0:0:0:0:
200,260,54542,6,0,B|167:214|167:214|166:170|166:170|130:118,1,155.999995239258,4|8,0:1|0:1,0:0:0:0:
244,88,55104,1,4,0:0:0:0:
336,160,55292,2,0,L|389:236,1,77.999997619629,0|0,3:0|0:0,0:0:0:0:
432,120,55667,2,0,P|440:80|424:32,1,77.999997619629,8|0,0:1|0:0,0:0:0:0:
272,248,56042,6,0,P|264:288|279:336,1,77.999997619629,2|0,0:1|0:0,0:0:0:0:
380,372,56417,1,4,0:0:0:0:
380,372,56792,2,0,B|366:325|388:292|388:292|372:268|372:268|372:196,1,155.999995239258,0|8,3:0|0:1,0:0:0:0:
488,232,57354,1,4,0:0:0:0:
288,96,57542,6,0,B|274:142|296:176|296:176|280:200|280:200|280:272,1,155.999995239258,2|8,0:0|0:1,0:0:0:0:
384,124,58104,1,4,0:0:0:0:
320,28,58292,2,0,P|280:22|225:55,1,77.999997619629,0|0,3:0|0:0,0:0:0:0:
246,152,58667,2,0,P|282:164|320:158,1,77.999997619629,8|0,0:1|0:0,0:0:0:0:
180,88,59042,6,0,P|155:160|212:240,2,155.999995239258,2|4|0,0:1|0:0|3:0,0:0:0:0:
412,52,60167,2,0,L|404:148,1,77.999997619629,8|8,0:1|0:1,0:0:0:0:
388,144,60448,1,0,0:0:0:0:
368,160,60542,6,0,B|360:266|360:266|416:220,1,155.999995239258,2|8,0:0|0:1,0:0:0:0:
284,212,61104,1,4,0:0:0:0:
172,244,61292,2,0,L|178:166,1,77.999997619629,0|0,3:0|0:0,0:0:0:0:
260,32,61667,2,0,L|266:109,1,77.999997619629,8|0,0:1|0:0,0:0:0:0:
243,273,62042,6,0,P|312:280|356:198,2,155.999995239258,2|4|2,0:1|0:0|3:1,0:0:0:0:
172,180,62979,1,8,0:1:0:0:
284,212,63167,1,8,0:1:0:0:
174,297,63354,1,4,0:0:0:0:
232,135,63542,6,0,P|178:106|100:160,1,155.999995239258,2|8,0:1|0:1,0:0:0:0:
284,212,64104,1,4,0:0:0:0:
117,250,64292,2,0,P|107:328|185:371,1,155.999995239258,8|2,3:1|0:1,0:0:0:0:
172,180,64854,1,0,0:0:0:0:
174,297,65042,6,0,L|262:285,1,77.999997619629,2|0,0:1|0:0,0:0:0:0:
361,222,65417,2,0,L|273:210,1,77.999997619629,4|0,0:0|0:0,0:0:0:0:
103,150,65792,2,0,P|163:106|232:135,1,155.999995239258,2|8,3:1|0:1,0:0:0:0:
32,256,66354,1,0,1:0:0:0:
32,256,66448,1,0,1:0:0:0:
32,256,66542,6,0,B|12:144|12:144|32:88,1,155.999995239258,4|8,0:1|0:1,0:0:0:0:
120,32,67104,1,4,0:0:0:0:
224,88,67292,2,0,L|237:164,1,77.999997619629,0|0,3:0|0:0,0:0:0:0:
400,100,67667,2,0,P|360:92|310:108,1,77.999997619629,8|0,0:1|0:0,0:0:0:0:
487,165,68042,6,0,L|500:88,1,77.999997619629,2|0,2:1|0:0,0:0:0:0:
362,200,68417,2,0,P|354:240|370:288,1,77.999997619629,4|0,0:0|0:0,0:0:0:0:
400,100,68792,2,0,B|407:55|407:55|344:82|276:40,1,155.999995239258,0|8,3:0|0:1,0:0:0:0:
184,32,69354,1,4,0:0:0:0:
16,192,69542,6,0,P|92:196|144:128,1,155.999995239258,6|8,0:0|0:1,0:0:0:0:
184,32,70104,1,4,0:0:0:0:
300,53,70292,2,0,B|327:79|327:79|338:131,1,77.999997619629,0|0,3:0|0:0,0:0:0:0:
372,229,70667,2,0,B|379:189|379:189|407:163,1,77.999997619629,8|0,0:1|0:0,0:0:0:0:
485,79,71042,6,0,B|447:88|447:88|397:72,1,77.999997619629,2|0,0:1|0:0,0:0:0:0:
236,125,71417,1,4,0:0:0:0:
236,125,71792,2,0,P|244:162|236:200,1,77.999997619629,2|0,3:1|0:0,0:0:0:0:
312,336,72167,2,0,P|303:298|311:260,1,77.999997619629,8|0,0:1|0:0,0:0:0:0:
328,244,72448,1,0,0:0:0:0:
347,231,72542,6,0,P|363:155|439:135,1,155.999995239258,6|8,0:0|0:1,0:0:0:0:
404,297,73104,1,4,0:0:0:0:
270,198,73292,2,0,P|291:131|375:65,1,155.999995239258,0|8,3:0|0:1,0:0:0:0:
464,32,73854,1,0,0:0:0:0:
512,140,74042,6,0,L|460:208,1,77.999997619629,4|0,0:0|0:0,0:0:0:0:
376,372,74417,2,0,P|385:334|377:296,1,77.999997619629,8|0,0:1|0:0,0:0:0:0:
208,230,74792,2,0,P|232:310|328:322,1,155.999995239258,0|8,3:0|0:1,0:0:0:0:
264,144,75354,1,4,0:0:0:0:
421,66,75542,6,0,L|344:60,1,77.999997619629,2|0,0:1|0:0,0:0:0:0:
186,138,75917,2,0,L|263:144,1,77.999997619629,8|4,0:1|0:0,0:0:0:0:
104,288,76292,2,0,P|95:250|103:212,1,77.999997619629,2|0,3:1|0:0,0:0:0:0:
185,62,76667,2,0,P|194:100|186:138,1,77.999997619629,2|0,0:1|0:0,0:0:0:0:
220,249,77042,5,2,0:1:0:0:
304,168,77229,1,0,0:0:0:0:
380,256,77417,2,0,L|372:344,1,77.999997619629
304,168,77792,2,0,L|296:80,1,77.999997619629,0|0,3:0|0:0,0:0:0:0:
220,249,78167,2,0,P|211:287|219:325,1,77.999997619629,0|0,0:0|1:0,0:0:0:0:
232,344,78448,1,0,1:0:0:0:
245,363,78542,5,2,0:1:0:0:
256,192,78729,12,2,80792,0:3:0:0:
245,363,92604,5,0,1:0:0:0:
245,363,92698,1,0,1:0:0:0:
245,363,92792,2,0,B|289:343|289:343|332:363|377:339,1,130,2|0,3:0|1:0,0:0:0:0:
420,260,93354,1,0,1:0:0:0:
328,152,93542,6,0,B|312:192|312:192|332:284,1,116.999996429443,4|0,0:1|0:0,0:0:0:0:
420,260,94104,1,4,0:0:0:0:
500,299,94292,2,0,P|508:247|459:181,1,116.999996429443,8|0,0:0|0:0,0:0:0:0:
412,136,94854,1,0,1:0:0:0:
354,202,95042,5,4,0:0:0:0:
420,260,95229,1,0,1:0:0:0:
475,96,95417,2,0,P|431:64|352:93,1,116.999996429443,4|8,0:0|0:0,0:0:0:0:
372,74,96167,2,0,L|320:101,1,58.4999982147217,0|4,0:0|0:0,0:0:0:0:
180,219,96542,6,0,B|224:219|224:219|288:184,1,116.999996429443,4|0,0:0|0:0,0:0:0:0:
368,220,97104,1,4,0:0:0:0:
316,292,97292,2,0,P|256:304|228:372,1,116.999996429443,8|0,0:0|0:0,0:0:0:0:
156,300,97854,1,0,1:0:0:0:
80,348,98042,6,0,L|28:321,1,58.4999982147217,4|0,0:0|1:0,0:0:0:0:
108,120,98417,2,0,P|121:163|101:211,1,87.7499973220826,4|0,0:0|0:0,0:0:0:0:
84,240,98792,1,8,0:0:0:0:
40,88,98979,2,0,P|76:52|157:64,1,116.999996429443,4|0,0:0|1:0,0:0:0:0:
156,64,99448,1,0,1:0:0:0:
172,76,99542,6,0,B|212:92|212:92|304:72,1,116.999996429443,4|0,0:0|0:0,0:0:0:0:
372,96,100104,1,4,0:0:0:0:
428,28,100292,2,0,P|460:84|444:148,1,116.999996429443,8|0,0:0|0:0,0:0:0:0:
372,96,100854,1,0,1:0:0:0:
328,172,101042,6,0,L|332:248,1,58.4999982147217,4|0,0:0|1:0,0:0:0:0:
300,312,101417,1,4,0:0:0:0:
228,264,101604,1,0,0:0:0:0:
148,300,101792,2,0,L|144:241,1,58.4999982147217,8|0,0:0|0:0,0:0:0:0:
204,176,102167,1,0,0:0:0:0:
228,264,102354,1,4,0:0:0:0:
382,285,102542,6,0,B|445:270|474:218|449:146|411:117|360:129|308:143|291:171|287:213|287:213|371:213|371:213|297:232|304:298|310:315|337:343|337:343|264:318|208:358,1,701.999978576661,4|8,0:0|0:1,0:0:0:0:
144,176,105167,1,0,0:0:0:0:
84,240,105354,1,0,0:0:0:0:
60,44,105542,6,0,B|76:84|76:84|56:176,1,116.999996429443,4|0,0:0|0:0,0:0:0:0:
84,240,106104,1,4,0:0:0:0:
144,176,106292,2,0,B|160:103|160:103|191:74,1,116.999996429443,8|0,0:0|0:0,0:0:0:0:
272,40,106854,1,0,1:0:0:0:
312,120,107042,6,0,L|298:187,1,58.4999982147217,4|0,0:0|1:0,0:0:0:0:
253,279,107417,2,0,B|269:206|269:206|300:177,1,116.999996429443,4|8,0:0|0:0,0:0:0:0:
300,177,108167,1,0,0:0:0:0:
344,252,108354,1,4,0:0:0:0:
192,196,108542,6,0,B|176:269|176:269|188:328,1,116.999996429443,4|0,0:0|0:0,0:0:0:0:
252,368,109104,1,4,0:0:0:0:
253,279,109292,2,0,B|269:206|269:206|300:177,1,116.999996429443,8|0,0:0|0:0,0:0:0:0:
384,156,109854,1,0,1:0:0:0:
384,156,110042,5,4,0:0:0:0:
384,68,110229,1,0,1:0:0:0:
296,64,110417,2,0,L|227:128,1,87.7499973220826,4|0,0:0|0:0,0:0:0:0:
188,120,110792,1,8,0:0:0:0:
148,41,110979,2,0,P|107:82|106:153,1,116.999996429443,4|0,0:0|1:0,0:0:0:0:
112,156,111448,1,0,1:0:0:0:
123,173,111542,6,0,P|59:177|19:237,1,116.999996429443,4|0,0:0|0:0,0:0:0:0:
101,257,112104,1,4,0:0:0:0:
188,264,112292,2,0,P|227:224|232:160,1,116.999996429443,8|0,0:0|0:0,0:0:0:0:
192,88,112854,1,0,1:0:0:0:
268,48,113042,6,0,L|352:56,1,58.4999982147217,4|0,0:0|1:0,0:0:0:0:
480,159,113417,2,0,P|436:169|382:149,1,87.7499973220826,4|0,0:0|0:0,0:0:0:0:
360,136,113792,1,8,0:0:0:0:
252,52,113979,1,0,0:0:0:0:
316,204,114167,1,0,0:0:0:0:
332,60,114354,1,4,0:0:0:0:
396,208,114542,5,4,0:0:0:0:
360,136,114729,2,0,P|427:133|474:184,1,116.999996429443,0|4,1:0|0:0,0:0:0:0:
316,204,115292,2,0,P|249:207|202:156,1,116.999996429443,8|0,0:0|0:0,0:0:0:0:
280,132,115854,1,0,1:0:0:0:
236,56,116042,6,0,L|177:50,1,58.4999982147217,4|0,0:0|1:0,0:0:0:0:
280,132,116417,2,0,L|367:140,1,87.7499973220826,4|0,0:0|0:0,0:0:0:0:
468,139,116792,6,0,B|438:118|438:118|447:158|426:186|426:186|444:207|444:207|423:236|435:281,1,195.00000743866,2|0,0:3|0:0,0:0:0:0:
303,310,117354,1,0,1:0:0:0:
303,310,117448,1,0,1:0:0:0:
303,310,117542,6,0,B|282:280|282:280|239:298|187:278,1,130,4|0,0:1|0:0,0:0:0:0:
108,224,118104,1,4,0:0:0:0:
12,212,118292,2,0,P|32:160|100:128,1,130,8|0,0:0|0:0,0:0:0:0:
188,160,118854,1,0,1:0:0:0:
248,84,119042,5,4,0:0:0:0:
96,128,119229,1,0,1:0:0:0:
300,30,119417,2,0,P|322:80|284:150,1,130,4|8,0:0|0:0,0:0:0:0:
188,160,119979,1,0,0:0:0:0:
186,65,120167,2,0,L|249:84,1,65,0|4,0:0|0:0,0:0:0:0:
168,232,120542,6,0,P|128:204|137:107,1,130,4|0,0:0|0:0,0:0:0:0:
96,32,121104,1,4,0:0:0:0:
186,65,121292,2,0,L|249:84,1,65,8|0,0:0|0:0,0:0:0:0:
324,24,121667,2,0,L|404:0,1,65,0|0,0:0|1:0,0:0:0:0:
380,104,122042,5,4,0:0:0:0:
380,104,122229,1,0,1:0:0:0:
216,212,122417,2,0,P|202:165|225:108,1,97.5,4|0,0:0|0:0,0:0:0:0:
248,84,122792,1,8,0:0:0:0:
368,30,122979,2,0,P|428:46|448:134,1,130,4|0,0:0|1:0,0:0:0:0:
448,124,123448,1,0,1:0:0:0:
440,142,123542,6,0,P|383:168|367:229,1,130,4|0,0:1|0:0,0:0:0:0:
412,312,124104,1,4,0:0:0:0:
440,216,124292,2,0,L|524:244,1,65,8|0,0:0|0:0,0:0:0:0:
412,312,124667,2,0,L|328:340,1,65,0|0,0:0|1:0,0:0:0:0:
280,264,125042,5,4,0:0:0:0:
280,264,125229,1,0,1:0:0:0:
208,200,125417,2,0,B|128:228|128:228|76:216,2,130,4|8|0,0:0|0:0|0:0,0:0:0:0:
264,120,126354,1,4,0:0:0:0:
280,264,126542,5,4,0:0:0:0:
316,174,126729,2,0,P|338:122|312:62,1,97.5,0|0,1:0|0:0,0:0:0:0:
308,40,127104,1,4,0:0:0:0:
155,82,127292,2,0,P|187:118|275:114,1,130,8|0,0:0|0:0,0:0:0:0:
384,30,127854,1,0,1:0:0:0:
448,104,128042,6,0,L|436:172,1,65,4|0,0:0|1:0,0:0:0:0:
375,296,128417,2,0,L|364:232,1,65,4|0,0:0|0:0,0:0:0:0:
215,279,128792,2,0,P|247:286|279:280,2,65,8|8|8,0:0|0:0|0:0,0:0:0:0:
247,187,129354,1,8,0:0:0:0:
220,88,129542,6,0,B|184:68|184:68|204:124|204:124|160:160|177:215,1,181.999994445801,2|0,0:1|0:0,0:0:0:0:
300,340,130667,1,4,0:0:0:0:
247,187,130854,1,0,1:0:0:0:
259,207,130948,1,0,1:0:0:0:
271,227,131042,5,4,0:0:0:0:
328,104,131229,1,8,0:3:0:0:
172,264,131417,1,4,0:3:0:0:
256,72,131604,1,4,0:0:0:0:
344,217,131792,6,0,P|333:268|248:298,1,130,2|0,0:3|0:0,0:0:0:0:
224,144,132354,1,0,0:0:0:0:
247,187,132448,1,0,0:0:0:0:
271,227,132542,6,0,P|301:157|400:169,1,155.999995239258,4|8,0:1|0:1,0:0:0:0:
476,208,133104,1,4,0:0:0:0:
381,285,133292,2,0,L|344:217,1,77.999997619629,0|0,3:0|0:0,0:0:0:0:
493,56,133667,2,0,L|456:124,1,77.999997619629,8|0,0:1|0:0,0:0:0:0:
344,292,134042,6,0,P|335:254|344:217,1,77.999997619629,2|0,0:1|0:0,0:0:0:0:
456,124,134417,1,4,0:0:0:0:
456,124,134792,2,0,B|411:144|364:124|364:124|364:144|364:144|324:192,1,155.999995239258,0|8,3:0|0:1,0:0:0:0:
256,92,135354,1,4,0:0:0:0:
226,268,135542,6,0,B|271:248|318:268|318:268|318:248|318:248|358:200,1,155.999995239258,2|8,0:0|0:1,0:0:0:0:
272,368,136104,1,4,0:0:0:0:
384,340,136292,2,0,L|448:263,1,77.999997619629,0|0,3:0|0:0,0:0:0:0:
345,142,136667,2,0,P|335:180|345:218,1,77.999997619629,8|0,0:1|0:0,0:0:0:0:
500,84,137042,6,0,B|452:64|408:80|408:80|340:44,2,155.999995239258,2|4|0,0:1|0:0|3:0,0:0:0:0:
344,216,138167,2,0,P|335:179|345:142,1,77.999997619629,8|8,0:1|0:1,0:0:0:0:
320,128,138448,1,0,0:0:0:0:
296,113,138542,6,0,B|248:88|248:88|192:113|124:77,1,155.999995239258,2|8,0:0|0:1,0:0:0:0:
239,172,139104,1,4,0:0:0:0:
345,291,139292,2,0,P|354:254|344:217,1,77.999997619629,0|0,3:0|0:0,0:0:0:0:
201,255,139667,2,0,P|238:246|276:254,1,77.999997619629,8|0,0:1|0:0,0:0:0:0:
166,182,140042,6,0,P|174:138|289:117,2,155.999995239258,2|4|2,0:1|0:0|3:1,0:0:0:0:
240,324,140979,1,8,0:1:0:0:
239,172,141167,1,8,0:1:0:0:
380,208,141354,1,4,0:0:0:0:
170,344,141542,6,0,P|187:273|269:256,1,155.999995239258,2|8,0:1|0:1,0:0:0:0:
372,288,142104,1,4,0:0:0:0:
240,324,142292,2,0,P|194:286|217:194,1,155.999995239258,0|2,3:0|0:1,0:0:0:0:
322,361,142854,1,0,0:0:0:0:
260,253,143042,6,0,L|340:197,1,77.999997619629,2|0,0:1|0:0,0:0:0:0:
447,287,143417,2,0,P|409:296|372:288,1,77.999997619629,4|0,0:0|0:0,0:0:0:0:
210,199,143792,2,0,P|188:270|240:324,1,155.999995239258,2|8,3:1|0:1,0:0:0:0:
304,152,144354,1,0,1:0:0:0:
304,152,144448,1,0,1:0:0:0:
304,152,144542,6,0,P|326:81|274:27,1,155.999995239258,4|8,0:1|0:1,0:0:0:0:
156,28,145104,1,4,0:0:0:0:
190,142,145292,2,0,L|254:98,1,77.999997619629,0|0,3:0|0:0,0:0:0:0:
116,244,145667,2,0,L|32:208,1,77.999997619629,8|0,0:1|0:0,0:0:0:0:
216,332,146042,6,0,L|280:288,1,77.999997619629,2|0,0:1|0:0,0:0:0:0:
480,284,146417,2,0,L|416:328,1,77.999997619629,4|0,0:0|0:0,0:0:0:0:
216,332,146792,2,0,P|208:260|296:212,1,155.999995239258,0|8,3:0|0:1,0:0:0:0:
328,112,147354,1,4,0:0:0:0:
280,288,147542,6,0,B|240:305|200:288|200:288|155:270|112:292,1,155.999995239258,6|8,0:0|0:1,0:0:0:0:
48,200,148104,1,4,0:0:0:0:
160,160,148292,2,0,P|200:168|256:136,1,77.999997619629,0|0,3:0|0:0,0:0:0:0:
193,16,148667,2,0,P|185:64|201:100,1,77.999997619629,8|0,0:1|0:0,0:0:0:0:
328,19,149042,6,0,P|276:35|256:59,1,77.999997619629,2|0,0:1|0:0,0:0:0:0:
324,169,149417,1,4,0:0:0:0:
324,169,149792,2,0,P|332:121|316:85,1,77.999997619629,2|0,3:1|0:0,0:0:0:0:
189,165,150167,2,0,P|241:149|261:125,1,77.999997619629,8|0,0:1|0:0,0:0:0:0:
249,110,150448,1,0,0:0:0:0:
242,87,150542,6,0,P|268:35|381:40,1,155.999995239258,6|8,0:0|0:1,0:0:0:0:
456,84,151104,1,4,0:0:0:0:
388,230,151292,2,0,B|355:184|355:184|354:140|354:140|323:95,1,155.999995239258,0|8,3:0|0:1,0:0:0:0:
236,176,151854,1,0,0:0:0:0:
276,288,152042,6,0,L|334:369,1,77.999997619629,4|0,0:0|0:0,0:0:0:0:
172,260,152417,2,0,P|134:250|96:260,1,77.999997619629,8|0,0:1|0:0,0:0:0:0:
236,176,152792,2,0,P|268:100|219:29,1,155.999995239258,0|8,3:0|0:1,0:0:0:0:
172,260,153354,1,4,0:0:0:0:
106,105,153542,6,0,P|143:95|180:105,1,77.999997619629,2|0,0:1|0:0,0:0:0:0:
76,192,153917,2,0,P|38:201|1:192,1,77.999997619629,8|4,0:1|0:0,0:0:0:0:
172,260,154292,2,0,L|164:360,1,77.999997619629,2|0,3:1|0:0,0:0:0:0:
264,240,154667,2,0,L|256:140,1,77.999997619629,2|0,0:1|0:0,0:0:0:0:
336,76,155042,5,2,0:1:0:0:
436,136,155229,1,0,0:0:0:0:
392,244,155417,2,0,P|382:281|392:318,1,77.999997619629,4|0,0:0|0:0,0:0:0:0:
503,173,155792,2,0,P|512:135|502:98,1,77.999997619629,0|0,3:0|0:0,0:0:0:0:
403,21,156167,2,0,L|409:98,1,77.999997619629,0|0,0:0|1:0,0:0:0:0:
423,117,156448,1,0,1:0:0:0:
436,136,156542,6,0,P|376:176|376:282,1,175.499994644165,4|4,0:1|0:0,0:0:0:0:
440,325,157292,2,0,P|364:325|324:369,1,116.999996429443,0|0,3:0|0:0,0:0:0:0:
252,328,157854,1,0,1:0:0:0:
252,328,158042,2,0,L|246:251,1,58.4999982147217,4|0,0:0|1:0,0:0:0:0:
184,157,158417,2,0,L|180:216,1,58.4999982147217,4|0,0:0|0:0,0:0:0:0:
128,110,158792,2,0,P|188:84|250:124,1,116.999996429443,0|0,3:0|0:0,0:0:0:0:
304,204,159354,1,4,0:0:0:0:
201,326,159542,6,0,B|183:263|183:263|199:215|199:215|183:154,1,175.499994644165,4|4,0:0|0:0,0:0:0:0:
112,208,160292,2,0,B|95:263|95:263|116:338,1,116.999996429443,0|0,3:0|0:0,0:0:0:0:
24,308,160854,1,0,1:0:0:0:
24,308,161042,1,4,0:0:0:0:
24,220,161229,1,0,1:0:0:0:
72,147,161417,2,0,P|125:136|184:194,2,116.999996429443,4|0|0,0:0|3:0|0:0,0:0:0:0:
160,27,162354,1,0,1:0:0:0:
160,27,162448,1,0,1:0:0:0:
160,27,162542,6,0,P|100:47|72:147,1,175.499994644165,4|4,0:0|0:0,0:0:0:0:
120,220,163292,1,0,3:0:0:0:
120,220,163479,2,0,B|156:204|156:204|260:216,1,116.999996429443,8|0,0:1|1:0,0:0:0:0:
304,160,164042,1,4,0:0:0:0:
252,88,164229,1,0,1:0:0:0:
252,88,164417,2,0,L|176:79,1,58.4999982147217,4|0,0:0|0:0,0:0:0:0:
336,80,164792,1,0,3:0:0:0:
372,241,164979,2,0,P|322:215|304:161,1,116.999996429443,0|4,0:0|0:0,0:0:0:0:
352,311,165542,6,0,P|266:260|231:168,1,175.499994644165,4|4,0:0|0:0,0:0:0:0:
148,212,166292,2,0,B|164:176|144:164|144:164|105:182|57:158,1,116.999996429443,0|0,3:0|0:0,0:0:0:0:
107,83,166854,1,0,1:0:0:0:
196,76,167042,2,0,L|256:132,1,58.4999982147217,4|0,0:0|1:0,0:0:0:0:
320,84,167417,2,0,L|380:140,1,58.4999982147217,4|0,0:0|0:0,0:0:0:0:
424,188,167792,1,2,0:3:0:0:
264,184,167979,1,0,0:0:0:0:
482,243,168167,1,0,0:0:0:0:
252,204,168354,1,0,0:0:0:0:
380,333,168542,6,0,P|453:312|482:243,1,155.999995239258,2|0,0:0|0:0,0:0:0:0:
468,128,169104,1,4,0:0:0:0:
356,96,169292,2,0,L|280:128,1,77.999997619629,0|0,3:0|0:0,0:0:0:0:
192,56,169667,2,0,P|153:43|95:42,1,77.999997619629
64,124,170042,2,0,P|144:116|224:188,2,155.999995239258,2|4|0,0:0|0:0|3:0,0:0:0:0:
12,228,170979,1,0,0:0:0:0:
96,312,171167,2,0,L|167:281,1,77.999997619629,0|4,0:0|0:0,0:0:0:0:
344,220,171542,6,0,B|290:241|240:220|240:220|272:276,1,155.999995239258,6|0,0:0|0:0,0:0:0:0:
352,340,172104,1,4,0:0:0:0:
168,281,172292,1,0,3:0:0:0:
168,281,172667,2,0,L|129:214,1,77.999997619629,4|0,0:0|1:0,0:0:0:0:
207,92,173042,2,0,P|200:131|208:168,1,77.999997619629,4|0,0:0|1:0,0:0:0:0:
355,115,173417,1,4,0:0:0:0:
355,115,173792,2,0,P|323:87|299:167,1,155.999995239258,0|0,3:0|0:0,0:0:0:0:
422,148,174354,1,0,1:0:0:0:
428,125,174448,1,0,1:0:0:0:
432,101,174542,6,0,P|370:23|239:36,1,233.999992858887,4|4,0:0|0:0,0:0:0:0:
289,161,175292,2,0,P|291:93|355:115,1,155.999995239258,0|0,3:0|0:0,0:0:0:0:
384,228,175854,1,0,1:0:0:0:
292,300,176042,2,0,L|220:264,1,77.999997619629,4|0,0:0|1:0,0:0:0:0:
289,161,176417,2,0,B|279:124|279:124|289:73,1,77.999997619629,4|0,0:0|0:0,0:0:0:0:
493,147,176792,1,0,3:0:0:0:
492,147,176979,2,0,P|459:214|385:228,1,155.999995239258,0|4,0:0|0:0,0:0:0:0:
169,24,177542,6,0,B|213:42|249:24|249:24|249:80|249:80|293:104|289:172,1,233.999992858887,4|4,0:0|0:0,0:0:0:0:
76,188,178292,2,0,P|104:152|220:160,1,155.999995239258,0|0,3:0|0:0,0:0:0:0:
167,256,178854,1,0,1:0:0:0:
167,256,179042,2,0,L|235:312,1,77.999997619629,4|0,0:0|1:0,0:0:0:0:
332,212,179417,6,0,P|294:221|257:212,1,77.999997619629,4|0,0:0|0:0,0:0:0:0:
216,88,179792,1,0,3:0:0:0:
216,88,179979,2,0,B|270:109|320:88|320:88|288:144,1,155.999995239258,0|8,0:0|0:0,0:0:0:0:
208,280,180542,22,0,B|280:236|300:176|279:118|208:104|176:152|176:152|152:132|92:104|8:204|120:332|200:224|232:348|232:348|294:318|326:264|326:264|368:300|424:280|432:272,1,832,2|4,0:1|0:1,0:0:0:0:
116,200,192354,5,4,0:0:0:0:
40,244,192542,6,0,P|28:187|71:128,1,116.999996429443,4|0,0:0|0:0,0:0:0:0:
222,216,193104,2,0,P|165:228|106:185,1,116.999996429443,4|0,0:0|0:0,0:0:0:0:
236,143,193667,1,0,0:0:0:0:
236,143,194042,6,0,P|292:193|266:276,1,159.249995140076,2|0,0:1|0:0,0:0:0:0:
222,216,194792,6,0,P|165:228|112:196,1,113.75,2|0,0:1|0:0,0:0:0:0:
177,152,195542,6,0,P|188:238|81:273,1,181.999994445801,4|8,0:1|0:1,0:0:0:0:
56,160,196104,1,4,0:0:0:0:
168,80,196292,2,0,P|228:100|252:152,1,90.9999972229005,0|0,3:0|0:0,0:0:0:0:
304,224,196667,2,0,P|328:165|381:145,1,90.9999972229005,8|0,0:1|0:0,0:0:0:0:
360,0,197042,6,0,P|335:58|282:78,1,90.9999972229005,2|0,0:1|0:0,0:0:0:0:
177,152,197417,1,4,0:0:0:0:
177,152,197792,2,0,B|121:176|69:152|69:152|109:172|117:224,1,181.999994445801,0|8,3:0|0:1,0:0:0:0:
236,268,198354,1,4,0:0:0:0:
220,40,198542,6,0,B|276:64|328:40|328:40|288:60|280:112,1,181.999994445801,6|8,0:0|0:1,0:0:0:0:
412,136,199104,1,4,0:0:0:0:
408,272,199292,2,0,L|309:308,1,90.9999972229005,0|0,3:0|0:0,0:0:0:0:
150,268,199667,2,0,P|192:255|236:268,1,90.9999972229005,8|0,0:1|0:0,0:0:0:0:
320,97,200042,6,0,B|300:145|324:185|324:185|304:233|304:233|360:213,2,181.999994445801,2|4|0,0:1|0:0|3:0,0:0:0:0:
408,272,201167,2,0,L|309:308,1,90.9999972229005,8|8,0:1|0:1,0:0:0:0:
312,328,201448,1,0,0:0:0:0:
302,353,201542,6,0,P|270:297|158:325,1,181.999994445801,6|8,0:0|0:1,0:0:0:0:
40,368,202104,1,4,0:0:0:0:
226,358,202292,2,0,P|240:308|208:248,1,90.9999972229005,0|0,3:0|0:0,0:0:0:0:
164,151,202667,2,0,P|149:193|160:237,1,90.9999972229005,8|0,0:1|0:0,0:0:0:0:
372,238,203042,6,0,P|352:194|224:210,2,181.999994445801,2|4|2,0:1|0:0|3:1,0:0:0:0:
472,121,203979,2,0,B|424:141|376:121|376:121|425:153|439:208,1,181.999994445801,8|4,0:1|0:0,0:0:0:0:
115,121,204542,6,0,B|163:141|211:121|211:121|162:153|148:208,1,181.999994445801,2|8,0:1|0:1,0:0:0:0:
32,236,205104,1,4,0:0:0:0:
148,308,205292,2,0,B|184:312|184:312|252:280,1,90.9999972229005,0|0,3:0|0:0,0:0:0:0:
414,175,205667,2,0,P|369:172|331:195,1,90.9999972229005,8|0,0:1|0:0,0:0:0:0:
407,331,206042,6,0,P|410:286|387:247,1,90.9999972229005,2|0,0:1|0:0,0:0:0:0:
256,211,206417,2,0,B|220:207|220:207|170:230,1,90.9999972229005,4|0,0:0|0:0,0:0:0:0:
252,58,206792,2,0,P|296:133|257:211,1,181.999994445801,2|8,3:1|0:1,0:0:0:0:
405,62,207354,1,0,1:0:0:0:
405,62,207448,1,0,1:0:0:0:
405,62,207542,6,0,P|330:18|252:57,1,181.999994445801,4|8,0:1|0:1,0:0:0:0:
180,176,208104,1,4,0:0:0:0:
268,280,208292,2,0,L|252:396,1,90.9999972229005,0|0,3:0|0:0,0:0:0:0:
250,209,208667,2,0,P|306:217|339:265,1,90.9999972229005,8|0,0:1|0:0,0:0:0:0:
180,176,209042,6,0,P|124:168|91:120,1,90.9999972229005,2|0,0:1|0:0,0:0:0:0:
159,17,209417,2,0,B|171:49|171:49|159:131,1,90.9999972229005,4|0,0:0|0:0,0:0:0:0:
96,286,209792,2,0,B|70:274|40:280|40:280|47:235|107:229|146:251|157:303,1,181.999994445801,0|8,3:0|0:1,0:0:0:0:
59,376,210354,1,4,0:0:0:0:
46,176,210542,6,0,P|92:169|142:180,1,90.9999972229005,6|0,0:0|0:0,0:0:0:0:
252,252,210917,1,8,0:1:0:0:
252,252,211104,1,4,0:0:0:0:
304,76,211292,2,0,B|334:111|334:111|344:172,1,90.9999972229005,0|0,3:0|0:0,0:0:0:0:
252,252,211667,2,0,P|296:268|324:312,1,90.9999972229005,8|0,0:1|0:0,0:0:0:0:
444,364,212042,6,0,L|428:271,1,90.9999972229005,2|0,0:1|0:0,0:0:0:0:
252,252,212417,1,4,0:0:0:0:
252,252,212792,2,0,P|296:268|324:312,1,90.9999972229005,2|0,3:1|0:0,0:0:0:0:
157,322,213167,2,0,B|193:322|193:322|213:330|213:330|249:330,1,90.9999972229005,8|0,0:1|0:0,0:0:0:0:
260,348,213448,1,0,0:0:0:0:
272,366,213542,6,0,B|320:346|360:370|360:370|392:350|392:350|464:350,1,181.999994445801,6|8,0:0|0:1,0:0:0:0:
400,220,214104,1,4,0:0:0:0:
368,88,214292,2,0,P|324:104|296:148,1,90.9999972229005,0|0,3:0|0:0,0:0:0:0:
404,224,214667,1,8,0:1:0:0:
404,224,214854,1,0,0:0:0:0:
492,120,215042,6,0,L|476:12,1,90.9999972229005,4|0,0:0|0:0,0:0:0:0:
400,220,215417,2,0,L|413:310,1,90.9999972229005,8|0,0:1|0:0,0:0:0:0:
368,88,215792,2,0,P|324:104|296:148,1,90.9999972229005,0|0,3:0|0:0,0:0:0:0:
312,336,216167,2,0,B|320:304|320:304|308:226,1,90.9999972229005,8|4,0:1|0:0,0:0:0:0:
148,244,216542,6,0,P|192:260|220:304,1,90.9999972229005,2|0,0:1|0:0,0:0:0:0:
224,192,216917,2,0,B|215:134|215:134|223:102,1,90.9999972229005,8|4,0:1|0:0,0:0:0:0:
146,67,217292,2,0,P|178:98|223:103,1,90.9999972229005,2|0,3:1|0:0,0:0:0:0:
44,164,217667,2,0,B|80:164|80:164|100:172|100:172|136:172,1,90.9999972229005,2|0,0:1|0:0,0:0:0:0:
288,67,218042,6,0,P|256:36|211:31,1,90.9999972229005,2|0,0:1|0:0,0:0:0:0:
224,192,218417,1,4,0:0:0:0:
224,192,218604,1,0,0:0:0:0:
320,136,218792,2,0,P|356:100|356:36,1,90.9999972229005,0|0,3:0|0:0,0:0:0:0:
224,192,219167,2,0,B|216:224|216:224|225:282,1,90.9999972229005,8|0,0:1|0:0,0:0:0:0:
236,300,219448,1,0,0:0:0:0:
247,318,219542,6,0,P|287:294|363:378,1,181.999994445801,2|2,0:1|0:3,0:0:0:0:
96,324,221042,1,8,0:1:0:0:
296,140,221792,2,0,P|339:151|392:134,1,90.9999972229005,2|0,0:3|0:0,0:0:0:0:
259,76,222542,6,0,P|223:128|296:215,1,181.999994445801,2|2,0:1|0:3,0:0:0:0:
44,348,224042,1,8,0:1:0:0:
296,140,224792,2,0,P|339:151|392:134,1,90.9999972229005,2|0,0:3|0:0,0:0:0:0:
296,247,225542,6,0,B|254:229|216:244|216:244|188:237|188:237|153:253|108:234,1,181.999994445801,2|2,0:1|0:3,0:0:0:0:
308,40,227042,1,8,0:1:0:0:
432,284,227792,1,2,0:3:0:0:
320,360,228167,1,8,0:1:0:0:
228,260,228542,6,0,L|124:244,1,90.9999972229005,2|8,0:1|0:1,0:0:0:0:
84,201,229104,2,0,P|68:248|90:298,1,90.9999972229005,0|8,0:0|0:1,0:0:0:0:
60,356,229667,2,0,P|128:328|236:368,1,181.999994445801
360,332,230792,1,2,0:3:0:0:
236,252,231167,1,0,0:0:0:0:
367,258,231542,6,0,P|410:278|426:364,1,130,2|8,0:1|0:1,0:0:0:0:
72,356,233042,1,0,0:0:0:0:
424,52,233836,1,0,0:0:0:0:
64,196,234502,6,0,L|80:172,2,16.25,0|0|2,0:0|0:0|0:1,0:0:0:0:
256,192,234836,12,0,240669,0:0:0:0:
