osu file format v14

[General]
AudioFilename: audio.mp3
AudioLeadIn: 0
PreviewTime: 52479
Countdown: 0
SampleSet: Soft
StackLeniency: 0.4
Mode: 0
LetterboxInBreaks: 0
WidescreenStoryboard: 1

[Editor]
DistanceSpacing: 1.5
BeatDivisor: 8
GridSize: 4
TimelineZoom: 1

[Metadata]
Title:Still love you
TitleUnicode:Still love you
Artist:Kana Nishino
ArtistUnicode:西野カナ
Creator:Modem
Version:Advanced
Source:
Tags:Darling
BeatmapID:1459128
BeatmapSetID:684712

[Difficulty]
HPDrainRate:5
CircleSize:3.8
OverallDifficulty:5
ApproachRate:6
SliderMultiplier:2
SliderTickRate:1

[Events]
//Background and Video events
Video,0,"Video.avi"
0,0,"bg3.jpg",0,0
//Break Periods
2,81542,90542
2,102742,104492
2,183741,191492
//Storyboard Layer 0 (Background)
//Storyboard Layer 1 (Fail)
//Storyboard Layer 2 (Pass)
//Storyboard Layer 3 (Foreground)
//Storyboard Sound Samples

[TimingPoints]
542,750,4,2,1,45,1,0
15354,-100,4,2,1,25,0,0
16104,-100,4,2,1,45,0,0
27354,-100,4,2,1,35,0,0
27542,-100,4,2,1,45,0,0
39542,-100,4,2,1,25,0,0
40104,-100,4,2,1,55,0,0
45354,-100,4,2,1,25,0,0
45917,-100,4,2,1,55,0,0
52854,-100,4,2,1,35,0,0
53042,-100,4,2,1,45,0,0
54542,-100,4,2,1,60,0,1
54917,-100,4,2,1,85,0,1
66167,-100,4,2,1,85,0,0
66354,-100,4,2,1,35,0,0
66542,-100,4,2,1,60,0,1
66917,-100,4,2,1,85,0,1
77417,-100,4,2,1,85,0,1
78542,-100,4,2,1,15,0,0
80792,-100,4,2,1,30,0,0
92792,-100,4,2,1,45,0,0
93167,-100,4,2,1,35,0,0
93542,-100,4,2,1,20,0,0
94104,-100,4,2,1,50,0,0
117354,-100,4,2,1,25,0,0
118104,-100,4,2,1,50,0,0
123354,-100,4,2,1,15,0,0
123542,-100,4,2,1,25,0,0
123917,-100,4,2,1,50,0,0
129542,-100,4,2,1,55,0,0
130667,-100,4,2,1,45,0,0
130854,-100,4,2,1,25,0,0
131042,-100,4,2,1,45,0,0
131792,-100,4,2,1,55,0,0
132542,-100,4,2,1,40,0,1
132917,-100,4,2,1,85,0,1
144167,-100,4,2,1,85,0,0
144354,-100,4,2,1,35,0,0
144542,-100,4,2,1,45,0,1
144917,-100,4,2,1,85,0,1
156542,-100,4,2,1,30,0,0
157104,-100,4,2,1,60,0,0
162354,-100,4,2,1,40,0,0
162542,-100,4,2,1,60,0,0
168542,-100,4,2,1,60,0,0
174354,-100,4,2,1,40,0,0
174542,-100,4,2,1,60,0,0
180542,-100,4,2,1,60,0,0
183542,-100,4,2,1,50,0,0
192542,-100,4,2,1,100,0,0
195542,-100,4,2,1,60,0,1
195917,-100,4,2,1,85,0,1
207167,-100,4,2,1,85,0,0
207354,-100,4,2,1,35,0,0
207542,-100,4,2,1,60,0,1
207917,-100,4,2,1,85,0,1
219542,-100,4,2,1,85,0,0
220292,-100,4,2,1,30,0,0
222542,-100,4,2,1,60,0,0
223292,-100,4,2,1,30,0,0
225542,-100,4,2,1,60,0,0
226292,-100,4,2,1,30,0,0
228542,-100,4,2,1,60,0,0
228917,-100,4,2,1,30,0,0
231542,769.230769230769,4,2,1,30,1,0
232311,731.707317073171,4,2,1,30,1,0
233042,794.701986754967,4,2,1,30,1,0
233836,666.666666666667,4,2,1,30,1,0
234669,-100,4,2,1,5,0,0

[Colours]
Combo1 : 128,0,64
Combo2 : 255,128,128
Combo3 : 255,112,43
Combo4 : 250,181,135
SliderBorder : 253,224,157

[HitObjects]
152,304,14792,6,0,L|188:196,1,100,2|0,3:0|0:0,0:0:0:0:
164,136,15354,1,0,1:0:0:0:
89,125,15542,6,0,P|136:66|228:95,1,150,4|4,0:1|0:0,0:0:0:0:
276,44,16292,2,0,B|244:144|244:144|312:132,1,150,8|0,0:0|1:3,0:0:0:0:
360,112,17042,2,0,L|387:26,2,50,4|0|4,0:0|1:0|0:0,0:0:0:0:
432,244,17792,2,0,B|396:228|396:228|356:244|304:216,1,100,8|0,0:0|0:0,0:0:0:0:
264,208,18354,1,4,0:0:0:0:
232,277,18542,6,0,P|189:214|221:146,1,150,4|4,0:0|0:0,0:0:0:0:
288,136,19292,2,0,P|237:80|159:102,1,150,8|0,0:0|1:0,0:0:0:0:
100,116,20042,2,0,L|16:96,1,50,4|0,0:0|1:0,0:0:0:0:
32,32,20417,1,4,0:0:0:0:
32,180,20792,2,0,L|80:191,1,50,8|4,0:0|0:0,0:0:0:0:
168,316,21354,1,0,1:0:0:0:
163,240,21542,6,0,P|230:272|236:349,1,150,4|4,0:0|0:0,0:0:0:0:
168,316,22292,2,0,B|128:332|128:332|20:308,1,150,8|0,0:0|1:0,0:0:0:0:
40,236,23042,2,0,L|117:253,2,50,4|0|4,0:0|1:0|0:0,0:0:0:0:
132,116,23792,2,0,P|108:92|156:112,1,150,8|4,0:0|0:0,0:0:0:0:
187,165,24542,5,4,0:0:0:0:
183,239,24729,2,0,P|232:224|260:157,1,100,0|0,1:0|0:0,0:0:0:0:
316,136,25292,2,0,B|372:136|372:136|408:120|408:120|476:120,1,150,8|0,0:0|1:0,0:0:0:0:
504,184,26042,1,4,0:0:0:0:
444,228,26229,1,0,1:0:0:0:
476,296,26417,1,4,0:0:0:0:
476,296,26792,2,0,P|422:300|370:243,1,100,2|0,3:0|0:0,0:0:0:0:
336,216,27354,1,0,1:0:0:0:
280,268,27542,6,0,P|260:216|331:140,1,150,4|4,0:0|0:0,0:0:0:0:
386,155,28292,2,0,P|365:91|264:86,1,150,8|0,0:0|1:0,0:0:0:0:
224,108,29042,2,0,L|140:68,1,50,4|0,0:0|1:0,0:0:0:0:
112,124,29417,1,4,0:0:0:0:
112,124,29792,2,0,P|108:56|194:12,1,150,8|4,0:0|0:0,0:0:0:0:
244,28,30542,6,0,B|328:68|328:68|404:36,1,150,4|4,0:0|0:0,0:0:0:0:
408,116,31292,2,0,B|363:135|363:135|396:184|364:260,1,150,8|0,0:0|1:0,0:0:0:0:
304,260,32042,2,0,L|220:220,1,50,4|0,0:0|1:0,0:0:0:0:
204,289,32417,1,4,0:0:0:0:
204,289,32792,2,0,B|144:321|144:321,1,50,8|4,0:0|0:0,0:0:0:0:
40,220,33354,1,0,1:0:0:0:
47,296,33542,6,0,P|110:248|91:165,1,150,4|4,0:0|0:0,0:0:0:0:
40,144,34292,2,0,P|107:108|175:152,1,150,8|0,0:0|1:0,0:0:0:0:
214,198,35042,1,4,0:0:0:0:
288,201,35229,1,0,1:0:0:0:
248,264,35417,1,4,0:0:0:0:
248,264,35792,2,0,P|322:268|361:186,1,150,8|4,0:0|0:0,0:0:0:0:
288,201,36542,5,4,0:0:0:0:
252,136,36729,2,0,L|340:68,1,100,0|0,1:0|0:0,0:0:0:0:
308,4,37292,2,0,P|390:27|401:102,1,150,8|0,0:0|1:0,0:0:0:0:
472,120,38042,2,0,L|511:89,2,50,4|0|4,0:0|1:0|0:0,0:0:0:0:
400,252,38792,2,0,L|288:208,1,100,2|0,3:0|0:0,0:0:0:0:
239,244,39354,1,0,1:0:0:0:
212,316,39542,6,0,P|167:267|186:190,1,150,4|4,0:1|0:0,0:0:0:0:
256,168,40292,2,0,P|197:124|222:33,1,150,8|0,0:0|1:0,0:0:0:0:
266,93,41042,1,4,0:0:0:0:
320,40,41229,1,0,1:0:0:0:
388,76,41417,1,4,0:0:0:0:
388,76,41792,2,0,B|368:176|368:176|432:148,1,150,8|4,0:0|0:0,0:0:0:0:
471,205,42542,6,0,B|460:262|460:262|467:293|467:293|452:369,1,150,4|4,0:0|0:0,0:0:0:0:
383,368,43292,2,0,P|327:332|319:240,1,150,8|0,0:0|1:0,0:0:0:0:
264,199,44042,2,0,L|275:142,1,50,4|0,0:0|1:0,0:0:0:0:
224,95,44417,1,4,0:0:0:0:
224,95,44792,2,0,L|200:40,1,50,8|4,0:0|0:0,0:0:0:0:
56,32,45354,1,0,1:0:0:0:
20,100,45542,6,0,L|64:200,1,100,4|0,0:1|0:0,0:0:0:0:
60,268,46104,1,4,0:0:0:0:
56,344,46292,2,0,P|108:328|134:263,1,100,8|0,0:0|0:0,0:0:0:0:
156,220,46854,1,0,1:0:0:0:
136,148,47042,2,0,P|188:152|231:214,2,100,4|4|8,0:0|0:0|0:0,0:0:0:0:
212,276,48167,1,0,0:0:0:0:
360,248,48542,5,4,0:0:0:0:
360,322,48729,2,0,P|416:298|428:224,1,100,0|4,1:0|0:0,0:0:0:0:
411,192,49292,2,0,P|363:173|301:200,1,100,8|0,0:0|0:0,0:0:0:0:
360,248,49854,1,0,1:0:0:0:
286,263,50042,2,0,L|216:208,1,50,4|0,0:0|1:0,0:0:0:0:
176,260,50417,1,4,0:0:0:0:
176,260,50792,2,0,P|127:246|73:266,1,100,8|8,0:0|0:0,0:0:0:0:
28,312,51354,1,0,0:0:0:0:
92,352,51542,6,0,B|136:372|136:372|184:352|236:372|236:372|292:347,1,200,2|0,0:1|0:0,0:0:0:0:
428,316,52667,1,4,0:0:0:0:
384,256,52854,1,0,1:0:0:0:
452,224,53042,2,0,L|522:169,1,50,4|8,0:0|0:3,0:0:0:0:
440,136,53417,2,0,L|448:68,1,50,4|4,0:3|0:0,0:0:0:0:
372,68,53792,2,0,L|359:176,1,100,2|0,3:0|0:0,0:0:0:0:
316,228,54354,1,0,0:0:0:0:
326,302,54542,6,0,P|261:280|244:218,1,100,4|8,0:1|0:1,0:0:0:0:
258,181,55104,1,4,0:0:0:0:
304,120,55292,2,0,P|246:106|196:136,2,100,0|8|2,3:0|0:1|0:1,0:0:0:0:
400,236,56417,1,4,0:0:0:0:
284,332,56792,2,0,B|248:320|248:320|160:332,1,100,0|8,3:0|0:1,0:0:0:0:
120,292,57354,1,4,0:0:0:0:
185,254,57542,6,0,L|295:239,1,100,2|8,0:0|0:1,0:0:0:0:
338,188,58104,1,4,0:0:0:0:
346,113,58292,2,0,P|402:147|405:219,2,100,0|8|2,3:0|0:1|0:1,0:0:0:0:
208,172,59417,1,4,0:0:0:0:
60,204,59792,2,0,B|36:148|36:148|44:88,1,100,0|8,3:0|0:1,0:0:0:0:
72,40,60354,1,8,0:1:0:0:
144,64,60542,6,0,P|193:78|247:58,1,100,2|8,0:0|0:1,0:0:0:0:
308,36,61104,1,4,0:0:0:0:
356,95,61292,2,0,L|340:204,1,100,0|8,3:0|0:1,0:0:0:0:
276,228,61854,1,0,0:0:0:0:
207,200,62042,2,0,B|201:238|201:238|225:294,2,100,2|4|2,0:1|0:0|3:1,0:0:0:0:
276,228,62979,1,8,0:1:0:0:
342,194,63167,1,8,0:1:0:0:
409,228,63354,1,4,0:0:0:0:
404,152,63542,6,0,P|364:123|285:147,1,100,2|8,0:1|0:1,0:0:0:0:
242,132,64104,1,4,0:0:0:0:
196,72,64292,2,0,P|168:118|185:180,1,100,8|2,3:1|0:1,0:0:0:0:
233,206,64854,1,0,0:0:0:0:
242,132,65042,2,0,P|292:161|299:239,1,100,2|4,0:1|0:0,0:0:0:0:
222,305,65792,2,0,L|234:197,1,100,2|8,3:1|0:1,0:0:0:0:
173,162,66354,1,0,1:0:0:0:
128,101,66542,6,0,P|99:146|112:206,1,100,4|8,0:1|0:1,0:0:0:0:
132,260,67104,1,4,0:0:0:0:
57,265,67292,2,0,P|82:317|150:331,2,100,0|8|2,3:0|0:1|2:1,0:0:0:0:
196,208,68417,1,4,0:0:0:0:
258,249,68604,1,0,0:0:0:0:
321,208,68792,2,0,B|333:176|333:176|317:88,1,100,0|8,3:0|0:1,0:0:0:0:
259,68,69354,1,4,0:0:0:0:
196,111,69542,6,0,B|184:175|184:175|196:207,1,100,6|8,0:0|0:1,0:0:0:0:
258,249,70104,1,4,0:0:0:0:
240,321,70292,2,0,P|296:314|332:258,2,100,0|8|2,3:0|0:1|0:1,0:0:0:0:
124,224,71417,1,4,0:0:0:0:
188,88,71792,1,2,3:1:0:0:
64,178,72167,1,8,0:1:0:0:
21,320,72542,6,0,L|2:221,1,100,6|8,0:0|0:1,0:0:0:0:
64,178,73104,1,4,0:0:0:0:
64,102,73292,2,0,P|118:124|139:180,1,100,0|8,3:0|0:1,0:0:0:0:
164,228,73854,1,0,0:0:0:0:
210,168,74042,2,0,P|239:222|212:286,1,100,4|8,0:0|0:1,0:0:0:0:
172,304,74604,1,0,0:0:0:0:
141,372,74792,2,0,P|108:344|113:260,1,100,0|8,3:0|0:1,0:0:0:0:
92,216,75354,1,4,0:0:0:0:
148,168,75542,6,0,B|180:156|180:156|280:176,2,100,2|8|2,0:1|0:1|3:1,0:0:0:0:
16,96,76667,1,2,0:1:0:0:
152,32,77042,2,0,B|184:44|184:44|284:24,1,100,2|0,0:1|0:0,0:0:0:0:
380,100,77792,1,0,3:0:0:0:
292,220,78167,1,0,0:0:0:0:
256,192,78542,12,2,80792,0:3:0:0:
364,124,92792,6,0,L|348:256,1,100,2|0,3:0|1:0,0:0:0:0:
396,284,93354,1,0,1:0:0:0:
353,346,93542,6,0,P|425:354|471:273,1,150,4|4,0:1|0:0,0:0:0:0:
396,284,94292,2,0,P|370:208|429:151,1,150,8|0,0:0|1:0,0:0:0:0:
444,225,95042,2,0,L|512:229,2,50,4|0|4,0:0|1:0|0:0,0:0:0:0:
432,76,95792,2,0,L|327:69,1,100,8|0,0:0|0:0,0:0:0:0:
280,124,96354,1,4,0:0:0:0:
210,100,96542,6,0,P|220:169|317:188,1,150,4|4,0:0|0:0,0:0:0:0:
360,176,97292,2,0,B|396:160|396:160|452:184|520:156,1,150,8|0,0:0|1:0,0:0:0:0:
512,86,98042,2,0,L|484:10,1,50,4|0,0:0|1:0,0:0:0:0:
420,28,98417,1,4,0:0:0:0:
420,28,98792,2,0,L|337:64,1,50,8|4,0:0|0:0,0:0:0:0:
308,184,99354,1,0,1:0:0:0:
280,256,99542,6,0,P|232:192|258:127,1,150,4|4,0:0|0:0,0:0:0:0:
197,80,100292,2,0,P|278:60|330:131,1,150,8|0,0:0|1:0,0:0:0:0:
396,120,101042,2,0,L|441:100,2,50,4|0|4,0:0|1:0|0:0,0:0:0:0:
356,264,101792,2,0,P|437:284|488:208,1,150,8|4,0:0|0:0,0:0:0:0:
412,212,102542,5,4,0:0:0:0:
368,240,105542,6,0,B|350:191|350:191|355:146|355:146|333:86,1,150,4|4,0:0|0:0,0:0:0:0:
360,24,106292,2,0,P|308:56|196:4,1,150,8|0,0:0|1:0,0:0:0:0:
164,84,107042,2,0,L|191:159,1,50,4|0,0:0|1:0,0:0:0:0:
132,189,107417,1,4,0:0:0:0:
132,189,107792,2,0,B|108:289|108:289|160:265,1,150,8|4,0:0|0:0,0:0:0:0:
204,324,108542,6,0,P|208:256|304:268,1,150,4|4,0:0|0:0,0:0:0:0:
344,280,109292,2,0,P|320:208|372:116,1,150,8|0,0:0|1:0,0:0:0:0:
392,80,110042,2,0,L|374:33,1,50,4|0,0:0|1:0,0:0:0:0:
298,32,110417,1,4,0:0:0:0:
298,32,110792,2,0,L|280:78,1,50,8|4,0:0|0:0,0:0:0:0:
144,140,111354,1,0,1:0:0:0:
104,204,111542,6,0,P|69:135|117:69,1,150,4|4,0:0|0:0,0:0:0:0:
144,140,112292,2,0,B|184:164|184:164|312:144,1,150,8|0,0:0|1:0,0:0:0:0:
343,99,113042,1,4,0:0:0:0:
408,137,113229,1,0,1:0:0:0:
391,210,113417,1,4,0:0:0:0:
391,210,113792,2,0,P|464:188|477:109,1,150,8|4,0:0|0:0,0:0:0:0:
408,137,114542,5,4,0:0:0:0:
343,99,114729,2,0,L|215:143,1,100,0|4,1:0|0:0,0:0:0:0:
188,84,115292,2,0,B|212:184|212:184|160:160,1,150,8|0,0:0|1:0,0:0:0:0:
104,124,116042,2,0,L|92:75,2,50,4|0|4,0:0|1:0|0:0,0:0:0:0:
48,264,116792,2,0,P|33:316|59:371,1,100,2|0,0:3|0:0,0:0:0:0:
124,372,117354,1,0,1:0:0:0:
133,297,117542,6,0,B|109:197|109:197|161:221,1,150,4|4,0:1|0:0,0:0:0:0:
220,248,118292,2,0,P|190:170|241:101,1,150,8|0,0:0|1:0,0:0:0:0:
282,76,119042,1,4,0:0:0:0:
346,115,119229,1,0,1:0:0:0:
347,40,119417,1,4,0:0:0:0:
347,40,119792,2,0,P|411:77|398:168,1,150,8|4,0:0|0:0,0:0:0:0:
346,115,120542,6,0,P|284:151|212:103,1,150,4|4,0:0|0:0,0:0:0:0:
282,76,121292,2,0,P|206:45|146:104,1,150,8|0,0:0|1:0,0:0:0:0:
110,142,122042,2,0,L|62:74,1,50,4|0,0:0|1:0,0:0:0:0:
59,26,122417,1,4,0:0:0:0:
59,26,122792,2,0,L|18:54,1,50,8|4,0:0|0:0,0:0:0:0:
60,200,123354,1,0,1:0:0:0:
133,213,123542,6,0,P|172:183|183:133,1,100,4|0,0:1|0:0,0:0:0:0:
110,142,124104,1,4,0:0:0:0:
60,200,124292,2,0,P|67:248|126:288,1,100,8|0,0:0|0:0,0:0:0:0:
177,273,124854,1,0,1:0:0:0:
133,213,125042,2,0,P|184:199|250:256,2,100,4|4|8,0:0|0:0|0:0,0:0:0:0:
44,332,126167,1,0,0:0:0:0:
177,273,126542,5,4,0:0:0:0:
250,287,126729,2,0,P|290:255|286:175,1,100,0|4,1:0|0:0,0:0:0:0:
225,216,127292,2,0,P|179:198|133:213,1,100,8|0,0:0|0:0,0:0:0:0:
177,273,127854,1,0,1:0:0:0:
160,349,128042,2,0,L|100:313,1,50,4|0,0:0|1:0,0:0:0:0:
56,368,128417,1,4,0:0:0:0:
56,368,128792,2,0,P|41:318|81:257,1,100,8|8,0:0|0:0,0:0:0:0:
117,323,129354,1,8,0:0:0:0:
129,248,129542,6,0,B|117:216|139:201|139:201|185:219|231:201|231:201|261:215|237:273,1,200,2|0,0:1|0:0,0:0:0:0:
360,344,130667,1,4,0:0:0:0:
417,295,130854,1,0,1:0:0:0:
346,270,131042,2,0,L|330:194,1,50,4|8,0:0|0:3,0:0:0:0:
404,188,131417,2,0,L|420:112,1,50,4|4,0:3|0:0,0:0:0:0:
489,143,131792,2,0,P|470:89|391:67,1,100,2|0,0:3|0:0,0:0:0:0:
362,84,132354,1,0,0:0:0:0:
325,150,132542,6,0,P|290:106|302:40,1,100,4|8,0:1|0:1,0:0:0:0:
362,84,133104,1,4,0:0:0:0:
414,139,133292,2,0,L|386:268,2,100,0|8|2,3:0|0:1|0:1,0:0:0:0:
344,8,134417,1,4,0:0:0:0:
212,80,134792,2,0,B|188:108|188:108|172:183,1,100,0|8,3:0|0:1,0:0:0:0:
216,232,135354,1,4,0:0:0:0:
269,180,135542,6,0,P|290:237|246:300,1,100,2|8,0:0|0:1,0:0:0:0:
212,308,136104,1,4,0:0:0:0:
216,232,136292,2,0,P|155:258|137:314,2,100,0|8|2,3:0|0:1|0:1,0:0:0:0:
332,324,137417,1,4,0:0:0:0:
456,240,137792,2,0,L|444:112,1,100,0|8,3:0|0:1,0:0:0:0:
388,92,138354,1,8,0:1:0:0:
384,16,138542,6,0,P|332:40|314:104,1,100,2|8,0:0|0:1,0:0:0:0:
338,147,139104,1,4,0:0:0:0:
403,183,139292,2,0,P|412:134|388:92,1,100,0|8,3:0|0:1,0:0:0:0:
314,77,139854,1,0,0:0:0:0:
251,117,140042,2,0,P|289:148|338:147,2,100,2|4|2,0:1|0:0|3:1,0:0:0:0:
246,41,140979,1,8,0:1:0:0:
314,77,141167,1,8,0:1:0:0:
364,20,141354,1,4,0:0:0:0:
388,92,141542,6,0,P|412:134|403:183,1,100,2|8,0:1|0:1,0:0:0:0:
338,147,142104,1,4,0:0:0:0:
285,200,142292,2,0,L|294:299,1,100,0|2,3:0|0:1,0:0:0:0:
228,336,142854,1,0,0:0:0:0:
162,299,143042,2,0,L|171:199,1,100,2|4,0:1|0:0,0:0:0:0:
287,105,143792,2,0,P|300:152|286:199,1,100,2|8,3:1|0:1,0:0:0:0:
241,260,144354,1,0,1:0:0:0:
305,297,144542,6,0,P|352:311|399:298,1,100,4|8,0:1|0:1,0:0:0:0:
460,252,145104,1,4,0:0:0:0:
500,188,145292,2,0,P|447:177|389:231,2,100,0|8|2,3:0|0:1|0:1,0:0:0:0:
465,334,146417,1,4,0:0:0:0:
400,297,146604,1,0,0:0:0:0:
460,252,146792,2,0,L|469:152,1,100,0|8,3:0|0:1,0:0:0:0:
436,84,147354,1,4,0:0:0:0:
421,10,147542,6,0,P|375:38|367:111,1,100,6|8,0:0|0:1,0:0:0:0:
394,148,148104,1,4,0:0:0:0:
325,178,148292,2,0,L|209:142,2,100,0|8|2,3:0|0:1|0:1,0:0:0:0:
364,324,149417,1,4,0:0:0:0:
220,280,149792,1,2,3:1:0:0:
240,132,150167,1,8,0:1:0:0:
376,208,150542,6,0,P|424:221|472:208,1,100,6|8,0:0|0:1,0:0:0:0:
510,144,151104,1,4,0:0:0:0:
456,92,151292,2,0,L|360:121,1,100,0|8,3:0|0:1,0:0:0:0:
310,65,151854,1,0,0:0:0:0:
247,105,152042,2,0,L|191:225,1,100,4|8,0:0|0:1,0:0:0:0:
245,259,152604,1,0,0:0:0:0:
316,236,152792,2,0,L|356:352,1,100,0|8,3:0|0:1,0:0:0:0:
416,364,153354,1,4,0:0:0:0:
490,371,153542,6,0,P|477:320|394:293,2,100,2|8|2,0:1|0:1|3:1,0:0:0:0:
349,331,154667,1,2,0:1:0:0:
207,371,155042,2,0,P|220:320|302:293,1,100,2|4,0:1|0:0,0:0:0:0:
281,364,155604,1,0,0:0:0:0:
349,331,155792,2,0,L|316:236,1,100,0|0,3:0|0:0,0:0:0:0:
432,140,156542,6,0,P|364:168|291:134,1,150,4|4,0:1|0:0,0:0:0:0:
332,72,157292,2,0,B|288:92|288:92|160:72,1,150,0|0,3:0|1:0,0:0:0:0:
176,152,158042,2,0,L|251:165,1,50,4|0,0:0|1:0,0:0:0:0:
273,218,158417,1,4,0:0:0:0:
273,218,158792,2,0,B|261:254|261:254|273:334,1,100,0|0,3:0|0:0,0:0:0:0:
328,364,159354,1,4,0:0:0:0:
376,304,159542,6,0,B|360:201|360:201|416:240,1,150,4|4,0:0|0:0,0:0:0:0:
453,280,160292,2,0,P|471:210|417:152,1,150,0|0,3:0|1:0,0:0:0:0:
355,126,161042,1,4,0:0:0:0:
386,57,161229,1,0,1:0:0:0:
316,29,161417,2,0,B|280:41|280:41|200:29,2,100,4|0|0,0:0|3:0|0:0,0:0:0:0:
386,57,162354,1,0,1:0:0:0:
355,126,162542,6,0,L|363:238,1,100,4|0,0:0|0:0,0:0:0:0:
324,291,163104,1,4,0:0:0:0:
267,339,163292,2,0,P|251:275|287:226,1,100,0|0,3:0|0:0,0:0:0:0:
283,174,163854,1,0,1:0:0:0:
209,167,164042,2,0,P|228:123|301:103,1,100,4|4,0:0|0:0,0:0:0:0:
343,127,164604,1,0,0:0:0:0:
368,199,164792,1,0,3:0:0:0:
417,141,164979,2,0,P|405:84|347:51,1,100,0|4,0:0|0:0,0:0:0:0:
343,127,165542,6,0,B|299:111|299:111|251:135|191:107,1,150,4|4,0:0|0:0,0:0:0:0:
148,56,166292,2,0,L|137:195,1,100,0|0,3:0|0:0,0:0:0:0:
184,217,166854,1,0,1:0:0:0:
229,277,167042,2,0,L|222:360,2,50,4|0|4,0:0|1:0|0:0,0:0:0:0:
292,236,167604,1,0,0:0:0:0:
352,192,167792,2,0,L|355:142,1,50,2|0,0:3|0:0,0:0:0:0:
408,85,168167,2,0,L|372:-3,1,50,0|0,0:0|0:0,0:0:0:0:
456,4,168542,6,0,L|504:122,1,100,2|0,0:0|0:0,0:0:0:0:
443,153,169104,1,4,0:0:0:0:
428,226,169292,2,0,P|471:223|517:144,2,100,0|0|2,3:0|0:0|0:0,0:0:0:0:
292,160,170417,1,4,0:0:0:0:
264,308,170792,2,0,L|188:340,1,50,0|0,3:0|0:0,0:0:0:0:
184,260,171167,2,0,L|108:236,1,50,0|4,0:0|0:0,0:0:0:0:
136,168,171542,6,0,L|237:200,1,100,6|0,0:0|0:0,0:0:0:0:
294,239,172104,1,4,0:0:0:0:
299,165,172292,2,0,B|308:134|299:105|299:105|339:29,2,100,0|4|4,3:0|0:0|0:0,0:0:0:0:
424,252,173417,1,4,0:0:0:0:
320,360,173792,2,0,B|311:329|320:300|320:300|280:224,1,100,0|0,3:0|0:0,0:0:0:0:
244,217,174354,1,0,1:0:0:0:
215,286,174542,6,0,P|171:234|234:143,1,150,4|4,0:0|0:0,0:0:0:0:
244,217,175292,1,0,3:0:0:0:
336,96,175667,2,0,L|428:108,1,50,0|0,0:0|1:0,0:0:0:0:
444,55,176042,2,0,P|431:103|444:151,1,100,4|4,0:0|0:0,0:0:0:0:
404,216,176604,1,0,0:0:0:0:
358,278,176792,2,0,L|226:260,1,100,0|0,3:0|0:0,0:0:0:0:
196,304,177354,1,4,0:0:0:0:
156,368,177542,6,0,P|123:322|185:229,1,150,4|4,0:0|0:0,0:0:0:0:
217,202,178292,1,0,3:0:0:0:
124,84,178667,2,0,L|74:77,1,50,0|0,0:0|1:0,0:0:0:0:
16,124,179042,2,0,B|16:148|16:148|0:176|0:176|0:224,1,100,4|4,0:0|0:0,0:0:0:0:
32,288,179604,1,0,0:0:0:0:
108,290,179792,2,0,B|108:266|108:266|92:238|92:238|92:190,1,100,0|0,3:0|0:0,0:0:0:0:
160,160,180354,1,8,0:0:0:0:
232,184,180542,6,0,B|94:92|146:4|226:-12|262:52|262:52|301:-19|405:-14|515:174|120:218|290:268|290:268|238:304|254:380,1,800,2|4,0:1|0:1,0:0:0:0:
326,339,192542,6,0,P|301:280|238:263,1,100,4|0,0:0|0:0,0:0:0:0:
199,282,193104,2,0,P|202:235|272:189,1,100,4|0,0:0|0:0,0:0:0:0:
312,196,193667,1,0,0:0:0:0:
312,196,194042,2,0,P|298:139|334:183,1,150,2|0,0:1|0:0,0:0:0:0:
400,216,194792,2,0,B|422:172|406:128|406:128|452:48,1,150,2|0,0:1|0:0,0:0:0:0:
508,92,195542,6,0,P|497:35|452:4,1,100,4|8,0:1|0:1,0:0:0:0:
392,16,196104,1,4,0:0:0:0:
347,77,196292,2,0,L|291:173,2,100,0|8|2,3:0|0:1|0:1,0:0:0:0:
456,180,197417,1,4,0:0:0:0:
508,320,197792,2,0,B|472:332|472:332|392:320,1,100,0|8,3:0|0:1,0:0:0:0:
340,352,198354,1,4,0:0:0:0:
265,360,198542,6,0,P|279:306|341:276,1,100,6|8,0:0|0:1,0:0:0:0:
383,253,199104,1,4,0:0:0:0:
454,230,199292,2,0,P|422:188|348:189,2,100,0|8|2,3:0|0:1|0:1,0:0:0:0:
313,281,200417,1,4,0:0:0:0:
164,288,200792,2,0,L|180:168,1,100,0|8,3:0|0:1,0:0:0:0:
240,148,201354,1,8,0:1:0:0:
252,222,201542,6,0,P|298:196|305:113,1,100,6|8,0:0|0:1,0:0:0:0:
372,106,202104,1,4,0:0:0:0:
397,176,202292,2,0,P|439:140|444:89,1,100,0|8,3:0|0:1,0:0:0:0:
401,36,202854,1,0,0:0:0:0:
372,106,203042,2,0,B|310:115|310:115|274:103,2,100,2|4|2,0:1|0:0|3:1,0:0:0:0:
401,36,203979,2,0,B|365:24|365:24|303:33,1,100,8|4,0:1|0:0,0:0:0:0:
275,103,204542,6,0,P|289:150|276:197,1,100,2|8,0:1|0:1,0:0:0:0:
224,252,205104,1,4,0:0:0:0:
219,327,205292,2,0,P|162:295|152:233,1,100,0|8,3:0|0:1,0:0:0:0:
176,194,205854,1,0,0:0:0:0:
204,124,206042,2,0,P|143:126|110:158,1,100,2|4,0:1|0:0,0:0:0:0:
16,36,206792,2,0,P|2:83|15:130,1,100,2|8,3:1|0:1,0:0:0:0:
55,197,207354,1,0,1:0:0:0:
100,260,207542,6,0,B|112:296|112:296|103:358,1,100,4|8,0:1|0:1,0:0:0:0:
176,372,208104,1,4,0:0:0:0:
251,370,208292,2,0,P|228:316|171:296,2,100,0|8|2,3:0|0:1|0:1,0:0:0:0:
380,292,209417,1,4,0:0:0:0:
396,144,209792,2,0,L|284:172,1,100,0|8,3:0|0:1,0:0:0:0:
260,232,210354,1,4,0:0:0:0:
187,244,210542,6,0,L|55:204,1,100,6|8,0:0|0:1,0:0:0:0:
64,144,211104,1,4,0:0:0:0:
24,80,211292,2,0,P|77:69|135:118,2,100,0|8|2,3:0|0:1|0:1,0:0:0:0:
91,215,212417,1,4,0:0:0:0:
236,252,212792,2,0,L|333:227,1,100,2|8,3:1|0:1,0:0:0:0:
404,252,213354,1,0,0:0:0:0:
470,289,213542,6,0,P|478:237|447:189,1,100,6|8,0:0|0:1,0:0:0:0:
389,164,214104,1,4,0:0:0:0:
315,152,214292,2,0,P|338:108|386:88,1,100,0|8,3:0|0:1,0:0:0:0:
452,120,214854,1,0,0:0:0:0:
456,197,215042,2,0,L|420:309,1,100,4|8,0:0|0:1,0:0:0:0:
360,328,215604,1,0,0:0:0:0:
284,328,215792,2,0,P|304:276|352:252,1,100,0|8,3:0|0:1,0:0:0:0:
380,190,216354,1,4,0:0:0:0:
456,197,216542,6,0,L|420:309,2,100,2|8|2,0:1|0:1|3:1,0:0:0:0:
372,72,217667,1,2,0:1:0:0:
224,100,218042,2,0,B|188:112|188:112|126:103,1,100,2|4,0:1|0:0,0:0:0:0:
57,131,218604,1,0,0:0:0:0:
109,186,218792,2,0,L|218:202,1,100,0|8,3:0|0:1,0:0:0:0:
348,252,219542,6,0,P|328:176|376:240,1,200,2|2,0:1|0:3,0:0:0:0:
112,344,221042,1,8,0:1:0:0:
408,292,221792,2,0,L|482:203,1,100,2|0,0:3|0:0,0:0:0:0:
328,180,222542,6,0,B|362:139|362:139|389:132|389:132|422:92|422:92|440:132|492:140,1,200,2|2,0:1|0:3,0:0:0:0:
188,40,224042,1,8,0:1:0:0:
104,328,224792,2,0,P|94:277|112:216,1,100,2|0,0:3|0:0,0:0:0:0:
240,164,225542,6,0,B|276:176|312:164|312:164|296:208|296:208|345:192|404:227,1,200,2|2,0:1|0:3,0:0:0:0:
108,72,227042,1,8,0:1:0:0:
288,312,227792,2,0,P|339:322|400:304,1,100,2|8,0:3|0:1,0:0:0:0:
460,184,228542,6,0,B|420:168|420:168|378:184|328:156,1,100,2|8,0:1|0:1,0:0:0:0:
312,116,229104,2,0,P|254:104|197:164,1,100,0|8,0:0|0:1,0:0:0:0:
190,192,229667,2,0,B|150:160|150:160|76:196|-16:156,1,200
112,268,230792,1,2,0:3:0:0:
252,324,231167,1,0,0:0:0:0:
103,343,231542,6,0,P|39:285|106:193,1,200,2|8,0:1|0:1,0:0:0:0:
360,224,233042,1,0,0:0:0:0:
32,80,233836,1,0,0:0:0:0:
202,326,234502,5,0,0:0:0:0:
256,192,234669,12,0,240502,0:0:0:0:
