osu file format v14

[General]
AudioFilename: audio.mp3
AudioLeadIn: 0
PreviewTime: 47812
Countdown: 0
SampleSet: None
StackLeniency: 0.9
Mode: 3
LetterboxInBreaks: 0
SpecialStyle: 1
WidescreenStoryboard: 0

[Editor]
DistanceSpacing: 1
BeatDivisor: 8
GridSize: 8
TimelineZoom: 1

[Metadata]
Title:Pa (Short Ver.)
TitleUnicode:パッ (Short Ver.)
Artist:Kana Nishino
ArtistUnicode:西野カナ
Creator:Kana Yukisora
Version:Hard (High)
Source:
Tags:CM
BeatmapID:1304596
BeatmapSetID:618875

[Difficulty]
HPDrainRate:8
CircleSize:4
OverallDifficulty:8
ApproachRate:5
SliderMultiplier:1.4
SliderTickRate:1

[Events]
//Background and Video events
0,0,"BG 4.jpg",0,0
//Break Periods
//Storyboard Layer 0 (Background)
//Storyboard Layer 1 (Fail)
//Storyboard Layer 2 (Pass)
//Storyboard Layer 3 (Foreground)
//Storyboard Sound Samples

[TimingPoints]
-61.7467887334381,357.185379211811,4,1,1,11,1,0
49091,-100,4,1,1,53,0,1
77257,-100,4,1,1,11,0,0

[HitObjects]
448,192,295,5,0,0:0:0:0:
64,192,295,1,0,0:0:0:0:
320,192,474,1,0,0:0:0:0:
192,192,518,1,0,0:0:0:0:
320,192,563,1,0,0:0:0:0:
448,192,607,1,0,0:0:0:0:
320,192,652,128,0,831:0:0:0:0:
64,192,1188,1,0,0:0:0:0:
192,192,1366,1,0,0:0:0:0:
64,192,1545,1,0,0:0:0:0:
320,192,1724,1,0,0:0:0:0:
192,192,1902,1,0,0:0:0:0:
320,192,2081,1,0,0:0:0:0:
192,192,2126,1,0,0:0:0:0:
320,192,2170,1,0,0:0:0:0:
192,192,2259,1,0,0:0:0:0:
448,192,2304,128,0,2438:0:0:0:0:
64,192,2349,128,0,2974:0:0:0:0:
192,192,2617,128,0,2974:0:0:0:0:
320,192,2706,1,0,0:0:0:0:
448,192,2751,1,0,0:0:0:0:
320,192,2795,128,0,2974:0:0:0:0:
64,192,3152,128,0,3510:0:0:0:0:
192,192,3152,128,0,3510:0:0:0:0:
448,192,3420,1,0,0:0:0:0:
320,192,3465,128,0,3867:0:0:0:0:
448,192,3510,128,0,3867:0:0:0:0:
192,192,3867,1,0,0:0:0:0:
64,192,3867,128,0,4045:0:0:0:0:
192,192,4045,128,0,4581:0:0:0:0:
320,192,4045,1,0,0:0:0:0:
64,192,4581,128,0,4938:0:0:0:0:
320,192,4581,1,0,0:0:0:0:
192,192,4849,1,0,0:0:0:0:
320,192,4894,128,0,5296:0:0:0:0:
448,192,4938,128,0,5296:0:0:0:0:
64,192,5296,1,0,0:0:0:0:
192,192,5296,128,0,5474:0:0:0:0:
64,192,5474,128,0,6010:0:0:0:0:
448,192,5474,1,0,0:0:0:0:
192,192,6010,128,0,6367:0:0:0:0:
320,192,6010,1,0,0:0:0:0:
64,192,6278,1,0,0:0:0:0:
448,192,6322,128,0,6724:0:0:0:0:
320,192,6367,128,0,6724:0:0:0:0:
192,192,6724,1,0,0:0:0:0:
64,192,6724,128,0,6903:0:0:0:0:
192,192,6903,128,0,7439:0:0:0:0:
448,192,6903,1,0,0:0:0:0:
448,192,7439,128,0,7796:0:0:0:0:
64,192,7439,1,0,0:0:0:0:
64,192,7796,128,0,8153:0:0:0:0:
192,192,7796,128,0,8153:0:0:0:0:
320,192,8153,1,0,0:0:0:0:
64,192,8332,128,0,8867:0:0:0:0:
192,192,8689,128,0,9046:0:0:0:0:
320,192,8867,128,0,9046:0:0:0:0:
448,192,9046,128,0,9225:0:0:0:0:
64,192,9135,1,0,0:0:0:0:
192,192,9180,128,0,9582:0:0:0:0:
320,192,9225,128,0,9582:0:0:0:0:
448,192,9582,128,0,9760:0:0:0:0:
64,192,9582,1,0,0:0:0:0:
320,192,9760,1,0,0:0:0:0:
192,192,9760,128,0,10296:0:0:0:0:
64,192,10296,128,0,10653:0:0:0:0:
448,192,10296,1,0,0:0:0:0:
448,192,10564,1,0,0:0:0:0:
320,192,10609,128,0,11010:0:0:0:0:
192,192,10653,128,0,11010:0:0:0:0:
64,192,11010,128,0,11189:0:0:0:0:
448,192,11010,1,0,0:0:0:0:
192,192,11189,128,0,11725:0:0:0:0:
448,192,11189,1,0,0:0:0:0:
64,192,11725,128,0,12082:0:0:0:0:
320,192,11725,1,0,0:0:0:0:
320,192,11993,1,0,0:0:0:0:
448,192,12037,128,0,12439:0:0:0:0:
192,192,12082,128,0,12439:0:0:0:0:
64,192,12439,1,0,0:0:0:0:
320,192,12439,128,0,12618:0:0:0:0:
64,192,12618,128,0,13154:0:0:0:0:
448,192,12618,1,0,0:0:0:0:
320,192,13154,128,0,13511:0:0:0:0:
192,192,13466,1,0,0:0:0:0:
64,192,13511,1,0,0:0:0:0:
192,192,13689,128,0,14225:0:0:0:0:
320,192,13868,128,0,14225:0:0:0:0:
448,192,14047,128,0,14225:0:0:0:0:
64,192,14225,128,0,14404:0:0:0:0:
448,192,14538,128,0,16011:0:0:0:0:
320,192,14538,128,0,14940:0:0:0:0:
192,192,14940,128,0,16011:0:0:0:0:
320,192,15297,1,0,0:0:0:0:
64,192,15475,1,0,0:0:0:0:
320,192,15654,1,0,0:0:0:0:
320,192,15833,1,0,0:0:0:0:
320,192,16011,128,0,17440:0:0:0:0:
64,192,16011,1,0,0:0:0:0:
64,192,16368,128,0,17440:0:0:0:0:
192,192,16725,1,0,0:0:0:0:
448,192,16904,1,0,0:0:0:0:
192,192,17083,1,0,0:0:0:0:
192,192,17261,1,0,0:0:0:0:
192,192,17440,128,0,18869:0:0:0:0:
448,192,17440,1,0,0:0:0:0:
448,192,17797,128,0,18869:0:0:0:0:
64,192,18154,1,0,0:0:0:0:
320,192,18333,1,0,0:0:0:0:
64,192,18511,1,0,0:0:0:0:
64,192,18690,1,0,0:0:0:0:
64,192,18869,128,0,19226:0:0:0:0:
320,192,18869,1,0,0:0:0:0:
448,192,19226,128,0,19940:0:0:0:0:
192,192,19583,128,0,19762:0:0:0:0:
64,192,19583,128,0,19762:0:0:0:0:
320,192,19762,128,0,19940:0:0:0:0:
64,192,20297,128,0,21726:0:0:0:0:
192,192,20297,128,0,20655:0:0:0:0:
320,192,20655,128,0,21726:0:0:0:0:
448,192,21012,1,0,0:0:0:0:
192,192,21190,1,0,0:0:0:0:
192,192,21369,1,0,0:0:0:0:
448,192,21547,1,0,0:0:0:0:
448,192,21726,128,0,23155:0:0:0:0:
192,192,21726,1,0,0:0:0:0:
192,192,22083,128,0,23155:0:0:0:0:
64,192,22440,1,0,0:0:0:0:
320,192,22619,1,0,0:0:0:0:
320,192,22798,1,0,0:0:0:0:
64,192,22976,1,0,0:0:0:0:
64,192,23155,128,0,23512:0:0:0:0:
320,192,23155,1,0,0:0:0:0:
448,192,23512,128,0,24405:0:0:0:0:
320,192,24048,1,0,0:0:0:0:
320,192,24226,128,0,24405:0:0:0:0:
64,192,24405,128,0,24762:0:0:0:0:
320,192,24941,128,0,25298:0:0:0:0:
64,192,25209,1,0,0:0:0:0:
448,192,25298,1,0,0:0:0:0:
192,192,25387,1,0,0:0:0:0:
448,192,25477,1,0,0:0:0:0:
320,192,25566,1,0,0:0:0:0:
64,192,25655,128,0,26012:0:0:0:0:
192,192,25655,128,0,26012:0:0:0:0:
320,192,26012,128,0,26369:0:0:0:0:
448,192,26369,128,0,27441:0:0:0:0:
64,192,26727,1,0,0:0:0:0:
320,192,26905,128,0,27441:0:0:0:0:
192,192,26905,1,0,0:0:0:0:
64,192,27084,1,0,0:0:0:0:
64,192,27262,1,0,0:0:0:0:
192,192,27441,1,0,0:0:0:0:
64,192,27441,128,0,27798:0:0:0:0:
448,192,27798,128,0,28870:0:0:0:0:
192,192,28155,1,0,0:0:0:0:
320,192,28334,128,0,28870:0:0:0:0:
64,192,28334,1,0,0:0:0:0:
192,192,28513,1,0,0:0:0:0:
64,192,28691,1,0,0:0:0:0:
192,192,28870,1,0,0:0:0:0:
64,192,28870,128,0,30299:0:0:0:0:
192,192,29227,128,0,30299:0:0:0:0:
320,192,29584,1,0,0:0:0:0:
448,192,29763,128,0,30299:0:0:0:0:
320,192,29763,1,0,0:0:0:0:
320,192,29941,1,0,0:0:0:0:
320,192,30120,1,0,0:0:0:0:
320,192,30299,128,0,30656:0:0:0:0:
192,192,30656,1,0,0:0:0:0:
320,192,31013,128,0,31727:0:0:0:0:
448,192,31013,128,0,31727:0:0:0:0:
192,192,31191,128,0,31370:0:0:0:0:
64,192,31191,128,0,31370:0:0:0:0:
192,192,31727,128,0,32084:0:0:0:0:
64,192,31727,1,0,0:0:0:0:
64,192,32084,128,0,32442:0:0:0:0:
448,192,32442,1,0,0:0:0:0:
64,192,32620,128,0,33156:0:0:0:0:
320,192,32620,1,0,0:0:0:0:
192,192,32799,1,0,0:0:0:0:
448,192,32977,1,0,0:0:0:0:
192,192,33156,1,0,0:0:0:0:
448,192,33513,128,0,33870:0:0:0:0:
192,192,33513,128,0,33870:0:0:0:0:
320,192,33870,1,0,0:0:0:0:
64,192,34049,1,0,0:0:0:0:
192,192,34049,1,0,0:0:0:0:
320,192,34228,128,0,34585:0:0:0:0:
448,192,34228,128,0,34585:0:0:0:0:
192,192,34228,1,0,0:0:0:0:
64,192,34406,1,0,0:0:0:0:
192,192,34585,1,0,0:0:0:0:
64,192,34585,1,0,0:0:0:0:
64,192,34763,1,0,0:0:0:0:
448,192,34763,1,0,0:0:0:0:
192,192,34942,1,0,0:0:0:0:
64,192,35121,1,0,0:0:0:0:
192,192,35299,1,0,0:0:0:0:
320,192,35478,1,0,0:0:0:0:
448,192,35612,1,0,0:0:0:0:
320,192,35656,1,0,0:0:0:0:
192,192,35790,1,0,0:0:0:0:
320,192,35835,1,0,0:0:0:0:
64,192,35969,1,0,0:0:0:0:
192,192,36013,1,0,0:0:0:0:
320,192,36147,1,0,0:0:0:0:
192,192,36192,1,0,0:0:0:0:
64,192,36326,1,0,0:0:0:0:
448,192,36371,128,0,36549:0:0:0:0:
64,192,36505,1,0,0:0:0:0:
320,192,36549,128,0,36728:0:0:0:0:
448,192,36728,128,0,37085:0:0:0:0:
192,192,36906,128,0,37085:0:0:0:0:
64,192,37085,128,0,37442:0:0:0:0:
448,192,37442,1,0,0:0:0:0:
320,192,37442,1,0,0:0:0:0:
448,192,37799,128,0,40657:0:0:0:0:
64,192,37799,1,0,0:0:0:0:
192,192,37799,1,0,0:0:0:0:
192,192,37978,1,0,0:0:0:0:
192,192,38157,1,0,0:0:0:0:
320,192,38157,1,0,0:0:0:0:
64,192,38514,1,0,0:0:0:0:
192,192,38514,1,0,0:0:0:0:
192,192,38692,1,0,0:0:0:0:
320,192,38871,1,0,0:0:0:0:
192,192,38871,1,0,0:0:0:0:
64,192,39228,1,0,0:0:0:0:
192,192,39228,1,0,0:0:0:0:
64,192,39407,1,0,0:0:0:0:
64,192,39585,1,0,0:0:0:0:
320,192,39585,1,0,0:0:0:0:
64,192,39943,1,0,0:0:0:0:
192,192,39943,1,0,0:0:0:0:
192,192,40121,1,0,0:0:0:0:
320,192,40300,1,0,0:0:0:0:
192,192,40300,1,0,0:0:0:0:
64,192,40657,128,0,43514:0:0:0:0:
320,192,40657,1,0,0:0:0:0:
192,192,40657,1,0,0:0:0:0:
192,192,40835,1,0,0:0:0:0:
448,192,41014,1,0,0:0:0:0:
192,192,41014,1,0,0:0:0:0:
192,192,41371,1,0,0:0:0:0:
320,192,41371,1,0,0:0:0:0:
320,192,41550,1,0,0:0:0:0:
448,192,41728,1,0,0:0:0:0:
320,192,41728,1,0,0:0:0:0:
192,192,42086,1,0,0:0:0:0:
448,192,42086,1,0,0:0:0:0:
448,192,42264,1,0,0:0:0:0:
448,192,42443,1,0,0:0:0:0:
320,192,42443,1,0,0:0:0:0:
192,192,42800,1,0,0:0:0:0:
320,192,42800,1,0,0:0:0:0:
320,192,42979,1,0,0:0:0:0:
192,192,43157,1,0,0:0:0:0:
448,192,43157,1,0,0:0:0:0:
192,192,43514,128,0,44229:0:0:0:0:
448,192,43514,1,0,0:0:0:0:
320,192,43693,1,0,0:0:0:0:
448,192,43872,1,0,0:0:0:0:
64,192,44229,128,0,44943:0:0:0:0:
448,192,44229,1,0,0:0:0:0:
192,192,44407,1,0,0:0:0:0:
320,192,44586,1,0,0:0:0:0:
448,192,44943,128,0,45657:0:0:0:0:
192,192,44943,1,0,0:0:0:0:
64,192,45122,1,0,0:0:0:0:
320,192,45300,1,0,0:0:0:0:
64,192,45657,128,0,46372:0:0:0:0:
192,192,45657,1,0,0:0:0:0:
320,192,45836,1,0,0:0:0:0:
448,192,46015,1,0,0:0:0:0:
192,192,46015,1,0,0:0:0:0:
448,192,46372,128,0,47801:0:0:0:0:
320,192,46729,1,0,0:0:0:0:
192,192,47086,128,0,47801:0:0:0:0:
64,192,47443,1,0,0:0:0:0:
64,192,47801,128,0,47979:0:0:0:0:
320,192,47801,128,0,47979:0:0:0:0:
192,192,47979,128,0,48158:0:0:0:0:
448,192,47979,128,0,48158:0:0:0:0:
64,192,48158,128,0,48515:0:0:0:0:
320,192,48158,128,0,48515:0:0:0:0:
192,192,48515,1,0,0:0:0:0:
448,192,48515,1,0,0:0:0:0:
192,192,48694,1,0,0:0:0:0:
320,192,48738,1,0,0:0:0:0:
192,192,48783,1,0,0:0:0:0:
320,192,48828,1,0,0:0:0:0:
192,192,48872,1,0,0:0:0:0:
64,192,48872,1,0,0:0:0:0:
64,192,49229,128,0,50658:0:0:0:0:
192,192,49229,128,0,49587:0:0:0:0:
320,192,49587,1,0,0:0:0:0:
448,192,49765,128,0,50301:0:0:0:0:
192,192,49765,128,0,50256:0:0:0:0:
320,192,50256,1,0,0:0:0:0:
192,192,50301,1,0,0:0:0:0:
320,192,50301,128,0,50658:0:0:0:0:
448,192,50658,128,0,51015:0:0:0:0:
192,192,50658,128,0,52087:0:0:0:0:
320,192,51015,1,0,0:0:0:0:
320,192,51194,128,0,51730:0:0:0:0:
64,192,51194,128,0,51685:0:0:0:0:
448,192,51685,1,0,0:0:0:0:
64,192,51730,1,0,0:0:0:0:
448,192,51730,128,0,52087:0:0:0:0:
64,192,52087,128,0,52444:0:0:0:0:
320,192,52087,128,0,53516:0:0:0:0:
448,192,52444,1,0,0:0:0:0:
448,192,52623,128,0,53158:0:0:0:0:
64,192,52623,128,0,53114:0:0:0:0:
192,192,53114,1,0,0:0:0:0:
192,192,53158,128,0,53516:0:0:0:0:
64,192,53158,1,0,0:0:0:0:
64,192,53516,128,0,53873:0:0:0:0:
448,192,53516,128,0,54944:0:0:0:0:
320,192,53873,1,0,0:0:0:0:
320,192,54051,128,0,54587:0:0:0:0:
192,192,54051,128,0,54542:0:0:0:0:
64,192,54542,1,0,0:0:0:0:
192,192,54587,1,0,0:0:0:0:
192,192,54944,128,0,55301:0:0:0:0:
320,192,54944,1,0,0:0:0:0:
448,192,55123,128,0,55301:0:0:0:0:
64,192,55123,1,0,0:0:0:0:
64,192,55301,128,0,55659:0:0:0:0:
320,192,55301,1,0,0:0:0:0:
320,192,55659,128,0,56016:0:0:0:0:
192,192,55659,1,0,0:0:0:0:
448,192,55837,1,0,0:0:0:0:
64,192,55837,128,0,56016:0:0:0:0:
448,192,56016,128,0,56373:0:0:0:0:
192,192,56016,1,0,0:0:0:0:
192,192,56373,128,0,56730:0:0:0:0:
320,192,56373,1,0,0:0:0:0:
320,192,56552,128,0,56730:0:0:0:0:
64,192,56552,1,0,0:0:0:0:
64,192,56730,128,0,57087:0:0:0:0:
448,192,56730,1,0,0:0:0:0:
320,192,57087,128,0,57266:0:0:0:0:
448,192,57087,1,0,0:0:0:0:
448,192,57266,128,0,57445:0:0:0:0:
192,192,57266,1,0,0:0:0:0:
192,192,57445,128,0,57802:0:0:0:0:
64,192,57445,1,0,0:0:0:0:
320,192,57802,1,0,0:0:0:0:
64,192,57802,128,0,59231:0:0:0:0:
448,192,58159,1,0,0:0:0:0:
192,192,58159,1,0,0:0:0:0:
448,192,58338,128,0,58829:0:0:0:0:
192,192,58338,128,0,58829:0:0:0:0:
192,192,58873,1,0,0:0:0:0:
448,192,58873,1,0,0:0:0:0:
192,192,59231,128,0,59409:0:0:0:0:
448,192,59231,128,0,59409:0:0:0:0:
448,192,59588,128,0,60302:0:0:0:0:
192,192,59588,128,0,60302:0:0:0:0:
320,192,60123,1,0,0:0:0:0:
64,192,60123,1,0,0:0:0:0:
320,192,60302,128,0,60481:0:0:0:0:
64,192,60302,128,0,60481:0:0:0:0:
64,192,60659,128,0,61016:0:0:0:0:
448,192,60659,128,0,62088:0:0:0:0:
192,192,61016,1,0,0:0:0:0:
192,192,61195,128,0,61731:0:0:0:0:
320,192,61195,128,0,61686:0:0:0:0:
64,192,61686,1,0,0:0:0:0:
320,192,61731,1,0,0:0:0:0:
64,192,61731,128,0,62088:0:0:0:0:
192,192,62088,128,0,62445:0:0:0:0:
320,192,62088,128,0,63517:0:0:0:0:
64,192,62445,1,0,0:0:0:0:
64,192,62624,128,0,63160:0:0:0:0:
192,192,62624,128,0,63115:0:0:0:0:
448,192,63115,1,0,0:0:0:0:
448,192,63160,128,0,63517:0:0:0:0:
192,192,63160,1,0,0:0:0:0:
64,192,63517,128,0,63874:0:0:0:0:
192,192,63517,128,0,64945:0:0:0:0:
448,192,63874,1,0,0:0:0:0:
448,192,64053,128,0,64588:0:0:0:0:
64,192,64053,128,0,64544:0:0:0:0:
320,192,64544,1,0,0:0:0:0:
64,192,64588,1,0,0:0:0:0:
320,192,64588,128,0,64945:0:0:0:0:
64,192,64945,128,0,66374:0:0:0:0:
448,192,64945,128,0,65303:0:0:0:0:
192,192,65303,1,0,0:0:0:0:
192,192,65481,128,0,66017:0:0:0:0:
320,192,65481,128,0,65972:0:0:0:0:
448,192,65972,1,0,0:0:0:0:
320,192,66017,1,0,0:0:0:0:
448,192,66374,128,0,66731:0:0:0:0:
320,192,66374,128,0,66731:0:0:0:0:
192,192,66374,128,0,66553:0:0:0:0:
64,192,66553,128,0,66731:0:0:0:0:
192,192,66731,128,0,67089:0:0:0:0:
320,192,67089,128,0,67446:0:0:0:0:
448,192,67089,128,0,67446:0:0:0:0:
64,192,67089,128,0,67267:0:0:0:0:
192,192,67267,128,0,67446:0:0:0:0:
64,192,67446,1,0,0:0:0:0:
64,192,67803,128,0,68160:0:0:0:0:
448,192,67803,128,0,68160:0:0:0:0:
320,192,67803,128,0,67982:0:0:0:0:
192,192,67982,128,0,68160:0:0:0:0:
320,192,68160,128,0,68517:0:0:0:0:
64,192,68517,128,0,68875:0:0:0:0:
448,192,68517,128,0,68875:0:0:0:0:
192,192,68517,128,0,68696:0:0:0:0:
320,192,68696,128,0,68875:0:0:0:0:
192,192,68875,1,0,0:0:0:0:
448,192,69232,128,0,69589:0:0:0:0:
320,192,69589,1,0,0:0:0:0:
64,192,69767,128,0,70303:0:0:0:0:
192,192,69767,128,0,70259:0:0:0:0:
448,192,70259,1,0,0:0:0:0:
448,192,70303,128,0,70660:0:0:0:0:
192,192,70303,1,0,0:0:0:0:
320,192,70660,128,0,71018:0:0:0:0:
192,192,71018,1,0,0:0:0:0:
64,192,71196,128,0,71732:0:0:0:0:
448,192,71196,128,0,71732:0:0:0:0:
192,192,71196,128,0,71687:0:0:0:0:
320,192,71687,1,0,0:0:0:0:
192,192,71732,1,0,0:0:0:0:
320,192,71732,128,0,72089:0:0:0:0:
192,192,72089,128,0,72446:0:0:0:0:
448,192,72089,128,0,73875:0:0:0:0:
64,192,72446,1,0,0:0:0:0:
320,192,72625,128,0,73161:0:0:0:0:
64,192,72625,128,0,73116:0:0:0:0:
192,192,73116,1,0,0:0:0:0:
192,192,73161,128,0,73518:0:0:0:0:
64,192,73161,1,0,0:0:0:0:
64,192,73518,128,0,73875:0:0:0:0:
192,192,73875,1,0,0:0:0:0:
320,192,74054,128,0,74589:0:0:0:0:
448,192,74545,1,0,0:0:0:0:
64,192,74589,1,0,0:0:0:0:
448,192,74857,1,0,0:0:0:0:
320,192,74902,1,0,0:0:0:0:
64,192,74947,128,0,75304:0:0:0:0:
192,192,74947,1,0,0:0:0:0:
192,192,75304,128,0,75661:0:0:0:0:
320,192,75304,1,0,0:0:0:0:
320,192,75661,128,0,76018:0:0:0:0:
64,192,75661,1,0,0:0:0:0:
448,192,76018,5,0,0:0:0:0:
320,192,76197,128,0,76375:0:0:0:0:
192,192,76197,1,0,0:0:0:0:
448,192,76375,1,0,0:0:0:0:
192,192,76554,128,0,76733:0:0:0:0:
320,192,76554,1,0,0:0:0:0:
64,192,76733,128,0,77090:0:0:0:0:
320,192,76733,1,0,0:0:0:0:
192,192,76911,1,0,0:0:0:0:
448,192,77090,128,0,77447:0:0:0:0:
320,192,77090,1,0,0:0:0:0:
320,192,77447,128,0,77804:0:0:0:0:
448,192,77715,1,0,0:0:0:0:
64,192,77760,128,0,78161:0:0:0:0:
192,192,77804,128,0,78161:0:0:0:0:
320,192,78161,128,0,78340:0:0:0:0:
448,192,78340,128,0,78876:0:0:0:0:
192,192,78340,1,0,0:0:0:0:
320,192,78876,128,0,79233:0:0:0:0:
64,192,79144,1,0,0:0:0:0:
192,192,79188,128,0,79590:0:0:0:0:
64,192,79233,128,0,79590:0:0:0:0:
320,192,79590,128,0,79769:0:0:0:0:
192,192,79769,128,0,80304:0:0:0:0:
448,192,79769,1,0,0:0:0:0:
448,192,80304,128,0,80662:0:0:0:0:
320,192,80572,1,0,0:0:0:0:
192,192,80617,128,0,81019:0:0:0:0:
64,192,80662,128,0,81019:0:0:0:0:
320,192,81019,128,0,81197:0:0:0:0:
64,192,81197,128,0,81733:0:0:0:0:
448,192,81197,1,0,0:0:0:0:
320,192,81733,128,0,82090:0:0:0:0:
192,192,81733,1,0,0:0:0:0:
192,192,82090,128,0,82269:0:0:0:0:
448,192,82090,128,0,82269:0:0:0:0:
320,192,82448,1,0,0:0:0:0:
64,192,82626,128,0,83162:0:0:0:0:
320,192,82626,1,0,0:0:0:0:
192,192,82983,128,0,83341:0:0:0:0:
320,192,83162,128,0,83341:0:0:0:0:
448,192,83341,128,0,83519:0:0:0:0:
320,192,83430,1,0,0:0:0:0:
192,192,83474,128,0,83876:0:0:0:0:
64,192,83519,128,0,83876:0:0:0:0:
448,192,83876,128,0,84055:0:0:0:0:
192,192,84055,128,0,84591:0:0:0:0:
320,192,84055,1,0,0:0:0:0:
320,192,84591,128,0,84948:0:0:0:0:
448,192,84859,1,0,0:0:0:0:
192,192,84903,128,0,85305:0:0:0:0:
64,192,84948,128,0,85305:0:0:0:0:
320,192,85305,128,0,85484:0:0:0:0:
448,192,85484,128,0,86019:0:0:0:0:
64,192,85484,1,0,0:0:0:0:
64,192,86019,128,0,86377:0:0:0:0:
320,192,86287,1,0,0:0:0:0:
448,192,86332,128,0,86734:0:0:0:0:
320,192,86377,128,0,86734:0:0:0:0:
192,192,86734,128,0,86912:0:0:0:0:
320,192,86912,128,0,87448:0:0:0:0:
64,192,86912,1,0,0:0:0:0:
64,192,87448,1,0,0:0:0:0:
448,192,87805,1,0,0:0:0:0:
192,192,87805,1,0,0:0:0:0:
64,192,87984,128,0,88520:0:0:0:0:
192,192,87984,1,0,0:0:0:0:
320,192,88163,128,0,88520:0:0:0:0:
448,192,88163,1,0,0:0:0:0:
448,192,88341,128,0,88520:0:0:0:0:
192,192,88341,1,0,0:0:0:0:
192,192,88520,128,0,89234:0:0:0:0:
