osu file format v14

[General]
AudioFilename: audio.mp3
AudioLeadIn: 0
PreviewTime: 42555
Countdown: 0
SampleSet: Soft
StackLeniency: 0.7
Mode: 2
LetterboxInBreaks: 0
WidescreenStoryboard: 0

[Editor]
Bookmarks: 16680,19305
DistanceSpacing: 1.2
BeatDivisor: 4
GridSize: 8
TimelineZoom: 1.5

[Metadata]
Title:Darling
TitleUnicode:Darling
Artist:Kana Nishino
ArtistUnicode:西野カナ
Creator:Fii
Version:Salad
Source:
Tags:with love short ver version cut ascendance -wwwww kaitlin japan record award
BeatmapID:930675
BeatmapSetID:431087

[Difficulty]
HPDrainRate:4
CircleSize:3.5
OverallDifficulty:6.5
ApproachRate:6.5
SliderMultiplier:1.4
SliderTickRate:2

[Events]
//Background and Video events
0,0,"unspecified.png",0,0
//Break Periods
//Storyboard Layer 0 (Background)
//Storyboard Layer 1 (Fail)
//Storyboard Layer 2 (Pass)
//Storyboard Layer 3 (Foreground)
//Storyboard Sound Samples

[TimingPoints]
1335,375,4,2,1,30,1,0
19335,-100,4,2,1,45,0,0
42585,-100,4,2,1,60,0,0
43335,-100,4,2,1,60,0,1
67335,-100,4,2,1,20,0,0

[Colours]
Combo1 : 236,77,0
Combo2 : 255,225,136
Combo3 : 255,158,62
Combo4 : 255,81,81

[HitObjects]
96,368,1335,6,0,L|64:228,1,140,6|0,0:0|0:0,0:0:0:0:
152,204,1897,1,0,0:0:0:0:
236,180,2272,1,0,0:0:0:0:
136,160,2460,1,0,0:0:0:0:
236,180,2647,6,0,P|184:148|176:4,1,210,2|2,0:0|0:0,0:0:0:0:
267,43,3397,1,0,0:0:0:0:
372,68,3772,2,0,L|276:80,1,70
408,60,4147,6,0,P|460:92|468:236,1,210,2|0,0:0|0:0,0:0:0:0:
360,196,4897,2,0,L|408:348,1,140
288,344,5460,1,0,0:0:0:0:
244,360,5647,6,0,P|216:324|248:156,1,210,2|0,0:0|0:0,0:0:0:0:
344,140,6397,2,0,P|377:79|372:11,1,140
256,0,6960,1,0,0:0:0:0:
464,76,7335,5,2,0:0:0:0:
128,132,8085,1,0,0:0:0:0:
292,164,8460,1,0,0:0:0:0:
128,132,8835,5,2,0:0:0:0:
404,276,9585,1,0,0:0:0:0:
240,308,9960,1,0,0:0:0:0:
404,276,10335,5,2,0:0:0:0:
328,244,10522,1,0,0:0:0:0:
296,164,10710,1,0,0:0:0:0:
400,52,11085,5,0,0:0:0:0:
316,48,11272,1,0,0:0:0:0:
224,44,11460,1,0,0:0:0:0:
316,48,11647,1,0,0:0:0:0:
400,52,11835,5,2,0:0:0:0:
232,44,12210,1,0,0:0:0:0:
400,52,12585,1,0,0:0:0:0:
232,44,12960,1,0,0:0:0:0:
148,40,13147,1,0,0:0:0:0:
320,52,13335,6,0,L|296:196,1,140,2|0,0:0|0:0,0:0:0:0:
216,188,13897,1,0,0:0:0:0:
136,188,14085,2,0,L|160:332,1,140
16,324,14835,5,2,0:0:0:0:
176,300,15210,2,0,L|84:312,1,70
16,324,15585,1,0,0:0:0:0:
88,228,15772,1,0,0:0:0:0:
176,300,15960,6,0,L|84:312,2,70,0|0|2,0:0|0:0|0:0,0:0:0:0:
318,303,16710,2,0,L|410:315,1,70
492,228,17272,2,0,L|400:240,1,70
352,208,17647,1,0,0:0:0:0:
464,224,17835,5,2,0:0:0:0:
492,228,18210,1,0,0:0:0:0:
336,192,18585,2,0,L|324:96,1,70
248,296,18960,2,0,L|260:200,1,70
432,160,19335,5,10,0:0:0:0:
327,261,19710,2,0,L|339:165,1,70
240,152,20085,2,0,L|84:124,2,140,0|8|10,0:0|0:0|0:0,0:0:0:0:
102,127,21210,2,0,L|90:31,1,70
216,168,21585,5,0,0:0:0:0:
102,127,21960,1,8,0:0:0:0:
243,269,22335,5,10,0:0:0:0:
327,261,22522,1,0,0:0:0:0:
411,253,22710,1,0,0:0:0:0:
243,269,23085,1,0,0:0:0:0:
159,277,23272,1,0,0:0:0:0:
75,285,23460,1,8,0:0:0:0:
272,232,23835,6,0,L|428:260,2,140,10|0|0,0:0|0:0|0:0,0:0:0:0:
409,256,24960,2,0,L|464:328,1,70
272,232,25335,6,0,P|224:184|300:60,1,210,10|0,0:0|0:0,0:0:0:0:
360,64,26085,1,0,0:0:0:0:
272,232,26460,2,0,L|176:232,1,70,8|0,0:0|0:0,0:0:0:0:
312,232,26835,5,8,0:0:0:0:
132,312,27210,2,0,L|228:312,1,70
88,312,27585,1,8,0:0:0:0:
272,232,27960,2,0,L|176:232,1,70
132,232,28335,5,10,0:0:0:0:
220,152,28710,1,0,0:0:0:0:
96,156,28897,2,0,L|28:8,1,140
152,64,29460,2,0,L|236:64,1,70,2|0,0:0|0:0,0:0:0:0:
72,184,29835,5,10,0:0:0:0:
56,200,30210,1,10,0:0:0:0:
272,232,30585,5,0,0:0:0:0:
200,312,30772,1,0,0:0:0:0:
272,232,30960,1,0,0:0:0:0:
152,312,31147,1,0,0:0:0:0:
276,368,31335,6,0,L|416:368,1,140,10|0,0:0|0:0,0:0:0:0:
360,296,31897,1,0,0:0:0:0:
300,224,32085,1,0,0:0:0:0:
196,116,32460,2,0,L|292:116,1,70,8|0,0:0|0:0,0:0:0:0:
160,112,32835,6,0,L|20:112,1,140,10|0,0:0|0:0,0:0:0:0:
196,116,33397,1,0,0:0:0:0:
56,116,33772,1,0,0:0:0:0:
196,116,33960,2,0,L|204:212,1,70,8|0,0:0|0:0,0:0:0:0:
96,304,34335,6,0,L|256:304,1,140,10|0,0:0|0:0,0:0:0:0:
336,304,34897,1,0,0:0:0:0:
408,224,35085,2,0,L|248:224,1,140,0|8,0:0|0:0,0:0:0:0:
408,224,35647,1,0,0:0:0:0:
408,224,35835,5,10,0:0:0:0:
124,304,36210,1,0,0:0:0:0:
152,304,36397,1,0,0:0:0:0:
268,224,36585,2,0,L|288:132,1,70
380,148,36960,2,0,L|400:56,1,70,8|0,0:0|0:0,0:0:0:0:
268,224,37335,6,0,L|110:237,1,140,10|0,0:0|0:0,0:0:0:0:
216,80,37897,1,0,0:0:0:0:
76,96,38272,1,0,0:0:0:0:
216,80,38460,1,8,0:0:0:0:
144,16,38647,1,0,0:0:0:0:
260,72,38835,6,0,L|276:0,1,70,10|0,0:0|0:0,0:0:0:0:
160,352,39210,2,0,L|144:280,1,70
272,312,39585,2,0,L|428:312,1,140,0|8,0:0|0:0,0:0:0:0:
256,192,40335,12,8,41835,0:0:0:0:
216,280,42210,5,10,0:0:0:0:
68,280,42585,6,0,L|156:280,1,70,8|4,0:3|3:0,0:0:0:0:
68,200,42960,2,0,L|156:200,1,70,4|8,3:0|0:3,0:0:0:0:
316,124,43335,6,0,L|156:124,1,140,14|8,0:0|0:0,0:0:0:0:
256,200,43897,1,8,0:0:0:0:
176,40,44085,2,0,L|336:40,1,140,0|8,0:0|0:0,0:0:0:0:
76,44,44835,6,0,L|88:200,1,140,10|8,0:0|0:0,0:0:0:0:
160,216,45397,1,8,0:0:0:0:
236,244,45585,2,0,L|224:400,1,140,0|8,0:0|0:0,0:0:0:0:
436,340,46335,6,8,L|424:184,1,140,10|8,0:0|0:0,0:0:0:0:
352,168,46897,1,8,0:0:0:0:
276,140,47085,2,0,L|288:-16,1,140,0|8,0:0|0:0,0:0:0:0:
136,16,47835,6,0,L|44:36,1,70,10|0,0:0|0:0,0:0:0:0:
0,128,48210,2,8,L|68:142,1,70
188,288,48585,1,0,0:0:0:0:
32,320,48960,1,8,0:0:0:0:
32,320,49147,1,0,0:0:0:0:
188,288,49335,6,8,L|332:320,1,140,10|8,0:0|0:0,0:0:0:0:
408,280,49897,1,8,0:0:0:0:
324,318,50085,2,0,L|188:288,1,140,0|8,0:0|0:0,0:0:0:0:
324,96,50835,6,8,L|180:64,1,140,10|8,0:0|0:0,0:0:0:0:
104,104,51397,1,8,0:0:0:0:
188,66,51585,2,0,L|324:96,1,140,0|8,0:0|0:0,0:0:0:0:
176,220,52335,6,8,L|188:364,1,140,10|8,0:0|0:0,0:0:0:0:
288,224,52897,1,8,0:0:0:0:
187,359,53085,2,0,L|176:220,1,140,0|8,0:0|0:0,0:0:0:0:
336,164,53835,6,8,L|324:20,1,140,10|8,0:0|0:0,0:0:0:0:
224,160,54397,1,8,0:0:0:0:
324,24,54585,2,0,L|336:164,1,140,0|8,0:0|0:0,0:0:0:0:
176,184,55147,1,0,0:0:0:0:
120,152,55335,5,10,0:0:0:0:
224,160,55710,1,8,0:0:0:0:
335,163,56085,1,8,0:0:0:0:
368,144,56272,1,0,0:0:0:0:
335,163,56460,1,8,0:0:0:0:
177,221,56835,5,10,0:0:0:0:
336,228,57210,1,8,0:0:0:0:
177,221,57585,1,0,0:0:0:0:
144,200,57772,1,0,0:0:0:0:
177,221,57960,1,8,0:0:0:0:
256,276,58147,1,0,0:0:0:0:
392,224,58335,6,8,L|404:76,1,140,10|8,0:0|0:0,0:0:0:0:
344,8,58897,1,8,0:0:0:0:
456,160,59085,2,0,L|511:291,1,140,0|8,0:0|0:0,0:0:0:0:
428,308,59647,1,0,0:0:0:0:
340,328,59835,5,10,0:0:0:0:
172,328,60210,1,8,0:0:0:0:
340,328,60585,1,8,0:0:0:0:
172,328,60960,1,8,0:0:0:0:
84,308,61147,1,0,0:0:0:0:
0,288,61335,6,8,L|156:272,1,140,10|8,0:0|0:0,0:0:0:0:
228,264,61897,1,8,0:0:0:0:
316,252,62085,2,0,L|160:236,1,140,0|8,0:0|0:0,0:0:0:0:
464,176,62835,6,8,L|308:160,1,140,10|8,0:0|0:0,0:0:0:0:
236,152,63397,1,8,0:0:0:0:
148,140,63585,2,0,L|304:124,1,140,0|8,0:0|0:0,0:0:0:0:
32,152,64335,6,0,P|12:200|200:140,1,490,2|0,0:0|0:0,0:0:0:0:
120,216,65835,1,8,0:0:0:0:
416,96,66210,2,0,L|264:83,2,140
120,216,67335,5,12,0:0:0:0:
