osu file format v14

[General]
AudioFilename: audio.mp3
AudioLeadIn: 0
PreviewTime: 42555
Countdown: 0
SampleSet: Soft
StackLeniency: 0.7
Mode: 2
LetterboxInBreaks: 0
WidescreenStoryboard: 0

[Editor]
Bookmarks: 19305
DistanceSpacing: 1
BeatDivisor: 2
GridSize: 4
TimelineZoom: 1.8

[Metadata]
Title:Darling
TitleUnicode:Darling
Artist:Kana Nishino
ArtistUnicode:西野カナ
Creator:Fii
Version:Platter
Source:
Tags:with love short ver version cut ascendance -wwwww kaitlin japan record award
BeatmapID:929914
BeatmapSetID:431087

[Difficulty]
HPDrainRate:5
CircleSize:4
OverallDifficulty:8
ApproachRate:8
SliderMultiplier:1.6
SliderTickRate:2

[Events]
//Background and Video events
0,0,"unspecified.png",0,0
//Break Periods
//Storyboard Layer 0 (Background)
//Storyboard Layer 1 (Fail)
//Storyboard Layer 2 (Pass)
//Storyboard Layer 3 (Foreground)
//Storyboard Sound Samples

[TimingPoints]
1335,375,4,2,1,30,1,0
19335,-100,4,2,1,45,0,0
42585,-100,4,2,1,60,0,0
43335,-100,4,2,1,60,0,1
67335,-100,4,2,1,20,0,0

[Colours]
Combo1 : 236,77,0
Combo2 : 255,225,136
Combo3 : 255,158,62
Combo4 : 255,81,81

[HitObjects]
164,256,1335,6,0,L|340:272,1,160,2|0,0:0|0:0,0:0:0:0:
424,248,1897,1,0,0:0:0:0:
264,192,2272,2,0,L|149:182,2,80,0|0|2,0:0|0:0|0:0,0:0:0:0:
424,88,2835,6,0,L|248:72,1,160,2|0,0:0|0:0,0:0:0:0:
164,96,3397,1,0,0:0:0:0:
320,80,3772,1,0,0:0:0:0:
204,92,3960,1,0,0:0:0:0:
320,80,4147,1,2,0:0:0:0:
160,200,4335,6,0,L|172:380,1,160,2|0,0:0|0:0,0:0:0:0:
319,160,4897,2,0,L|331:340,1,160
160,200,5460,2,0,L|251:176,1,80,0|2,0:0|0:0,0:0:0:0:
52,268,5835,6,0,L|64:88,1,160,2|0,0:0|0:0,0:0:0:0:
211,308,6397,1,0,0:0:0:0:
62,108,6585,2,0,L|78:204,1,80
172,216,6960,2,0,L|188:312,1,80
471,136,7335,6,0,L|495:45,1,80,2|0,0:0|0:0,0:0:0:0:
400,68,7710,1,0,0:0:0:0:
300,260,8085,2,0,L|276:169,1,80
392,320,8460,2,0,L|416:229,1,80
79,236,8835,2,0,L|55:145,1,80,2|0,0:0|0:0,0:0:0:0:
172,216,9210,5,0,0:0:0:0:
400,68,9585,1,0,0:0:0:0:
308,72,9772,1,0,0:0:0:0:
216,76,9960,2,0,L|296:88,1,80,0|2,0:0|0:0,0:0:0:0:
456,216,10335,1,2,0:0:0:0:
363,225,10522,5,0,0:0:0:0:
456,216,10710,1,0,0:0:0:0:
172,152,11085,1,0,0:0:0:0:
265,161,11272,1,0,0:0:0:0:
172,152,11460,1,0,0:0:0:0:
265,161,11647,6,0,L|272:66,1,80,0|2,0:0|0:0,0:0:0:0:
112,68,12210,2,0,L|124:240,1,160
265,161,12960,1,0,0:0:0:0:
172,152,13147,1,0,0:0:0:0:
432,376,13335,6,0,P|476:336|428:176,1,240,2|0,0:0|0:0,0:0:0:0:
348,172,14085,1,0,0:0:0:0:
200,280,14460,1,0,0:0:0:0:
294,272,14647,1,0,0:0:0:0:
32,376,14835,6,0,L|8:184,1,160,2|0,0:0|0:0,0:0:0:0:
88,188,15397,1,0,0:0:0:0:
120,116,15585,1,0,0:0:0:0:
88,44,15772,1,0,0:0:0:0:
12,20,15960,2,0,L|120:20,1,80
376,272,16335,6,0,L|504:176,1,160,2|0,0:0|0:0,0:0:0:0:
384,172,16897,1,0,0:0:0:0:
496,348,17272,2,0,L|380:335,2,80
324,339,17835,6,0,L|300:147,1,160,2|2,0:0|0:0,0:0:0:0:
420,167,18397,1,0,0:0:0:0:
304,180,18585,2,0,L|420:167,1,80
464,263,18960,2,0,L|348:250,1,80
36,192,19335,5,10,0:0:0:0:
200,176,19710,1,0,0:0:0:0:
156,244,19897,1,0,0:0:0:0:
16,192,20085,1,0,0:0:0:0:
236,188,20460,2,0,L|324:228,1,80,8|0,0:0|0:0,0:0:0:0:
156,244,20835,6,0,P|124:200|164:104,1,160,10|0,0:0|0:0,0:0:0:0:
256,88,21397,1,0,0:0:0:0:
354,108,21585,1,0,0:0:0:0:
256,88,21772,1,0,0:0:0:0:
384,116,21960,2,0,L|416:32,1,80,8|0,0:0|0:0,0:0:0:0:
120,336,22335,6,0,L|216:332,2,80,10|0|0,0:0|0:0|0:0,0:0:0:0:
248,256,22897,2,0,L|152:252,2,80
144,176,23460,2,0,L|116:96,1,80,8|0,0:0|0:0,0:0:0:0:
412,144,23835,5,10,0:0:0:0:
312,112,24210,1,8,0:0:0:0:
512,176,24585,2,0,L|484:256,1,80,8|0,0:0|0:0,0:0:0:0:
368,216,24960,2,0,L|340:296,1,80,8|0,0:0|0:0,0:0:0:0:
20,296,25335,6,0,L|180:284,1,160,10|0,0:0|0:0,0:0:0:0:
20,296,25897,2,0,L|4:208,1,80
128,256,26272,1,0,0:0:0:0:
236,224,26460,2,0,L|252:108,1,80,8|0,0:0|0:0,0:0:0:0:
104,240,26835,5,10,0:0:0:0:
236,224,27022,1,0,0:0:0:0:
115,160,27210,2,0,L|99:276,1,80
413,41,27585,2,0,L|429:157,1,80
336,120,27960,1,8,0:0:0:0:
428,136,28147,1,0,0:0:0:0:
264,68,28335,5,10,0:0:0:0:
480,200,28710,2,0,L|496:316,1,80
392,248,29085,1,0,0:0:0:0:
392,248,29272,1,0,0:0:0:0:
491,279,29460,1,2,0:0:0:0:
392,248,29647,1,0,0:0:0:0:
144,336,29835,6,0,L|44:304,1,80,10|0,0:0|0:0,0:0:0:0:
448,344,30210,2,0,L|285:293,1,160,8|0,0:0|0:0,0:0:0:0:
392,248,30772,1,0,0:0:0:0:
280,224,30960,1,0,0:0:0:0:
392,248,31147,1,0,0:0:0:0:
48,176,31335,6,0,L|32:60,1,80,10|0,0:0|0:0,0:0:0:0:
144,156,31710,2,0,L|128:40,1,80
240,140,32085,2,0,L|408:116,1,160,0|8,0:0|0:0,0:0:0:0:
304,96,32647,1,0,0:0:0:0:
448,344,32835,6,0,L|280:320,1,160,10|0,0:0|0:0,0:0:0:0:
424,296,33397,1,0,0:0:0:0:
212,308,33772,1,0,0:0:0:0:
296,304,33960,1,8,0:0:0:0:
212,308,34147,1,0,0:0:0:0:
468,292,34335,6,0,L|488:188,1,80,10|0,0:0|0:0,0:0:0:0:
384,192,34710,2,0,L|364:88,1,80,8|0,0:0|0:0,0:0:0:0:
512,88,35085,1,0,0:0:0:0:
244,148,35460,1,8,0:0:0:0:
244,148,35647,1,0,0:0:0:0:
420,72,35835,6,8,L|256:64,1,160,10|8,0:0|0:0,0:0:0:0:
100,192,36585,2,0,L|208:188,1,80
96,272,36960,2,0,L|204:268,1,80,8|0,0:0|0:0,0:0:0:0:
460,384,37335,6,0,L|296:376,2,160,10|8|0,0:0|0:0|0:0,0:0:0:0:
392,340,38272,1,0,0:0:0:0:
368,264,38460,1,8,0:0:0:0:
396,188,38647,1,0,0:0:0:0:
472,160,38835,5,10,0:0:0:0:
208,144,39210,1,8,0:0:0:0:
472,160,39585,2,0,L|480:72,1,80
360,52,39960,2,0,L|352:140,1,80,8|0,0:0|0:0,0:0:0:0:
104,268,40335,5,10,0:0:0:0:
272,248,40710,1,8,0:0:0:0:
120,260,40897,1,0,0:0:0:0:
188,252,41272,1,0,0:0:0:0:
56,268,41460,1,2,0:0:0:0:
188,252,41647,1,0,0:0:0:0:
320,240,41835,5,8,0:0:0:0:
320,240,42210,1,8,0:0:0:0:
44,368,42585,6,0,L|36:256,1,80,8|4,0:3|3:0,0:0:0:0:
156,304,42960,2,0,L|148:192,1,80,4|8,3:0|0:3,0:0:0:0:
416,92,43335,6,8,L|516:104,1,80,12|0,0:0|0:0,0:0:0:0:
372,164,43710,1,8,0:0:0:0:
256,136,43897,1,8,0:0:0:0:
416,92,44272,2,0,L|495:101,2,80,0|8|0,0:0|0:0|0:0,0:0:0:0:
140,56,44835,6,0,L|151:215,1,160,0|8,0:0|0:0,0:0:0:0:
408,88,45397,2,0,L|396:247,1,160,8|0,0:0|0:0,0:0:0:0:
284,104,45960,2,0,L|384:92,1,80,8|0,0:0|0:0,0:0:0:0:
71,225,46335,6,0,L|171:213,2,80,0|0|8,0:0|0:0|0:0,0:0:0:0:
191,289,46897,1,8,0:0:0:0:
352,312,47272,2,0,L|252:300,2,80,0|8|0,0:0|0:0|0:0,0:0:0:0:
40,248,47835,6,0,L|32:352,1,80
144,256,48210,2,8,L|136:360,1,80
212,304,48585,5,0,0:0:0:0:
248,232,48772,1,0,0:0:0:0:
212,160,48960,1,8,0:0:0:0:
136,136,49147,1,0,0:0:0:0:
460,292,49335,6,0,L|468:396,1,80,2|0,0:0|0:0,0:0:0:0:
368,280,49710,1,8,0:0:0:0:
368,280,49897,1,8,0:0:0:0:
272,272,50085,6,0,L|280:168,1,80
368,280,50460,1,8,0:0:0:0:
272,272,50647,1,8,0:0:0:0:
420,152,50835,6,8,L|316:144,1,80,2|0,0:0|0:0,0:0:0:0:
56,142,51210,2,8,L|160:134,1,80
400,60,51585,5,0,0:0:0:0:
420,152,51772,1,0,0:0:0:0:
340,145,51960,1,8,0:0:0:0:
360,237,52147,1,0,0:0:0:0:
56,142,52335,6,0,P|40:224|88:312,1,160,0|8,0:0|0:0,0:0:0:0:
164,312,52897,1,8,0:0:0:0:
56,142,53085,6,8,L|160:134,1,80,0|0,0:0|0:0,0:0:0:0:
236,60,53460,2,0,L|132:52,1,80,8|0,0:0|0:0,0:0:0:0:
456,142,53835,6,0,P|460:212|416:304,1,160,0|8,0:0|0:0,0:0:0:0:
328,152,54397,2,0,L|432:144,2,80,8|0|0,0:0|0:0|0:0,0:0:0:0:
408,64,54960,2,0,L|304:72,1,80,8|0,0:0|0:0,0:0:0:0:
24,368,55335,5,0,0:0:0:0:
184,324,55710,2,8,L|92:316,1,80
20,312,56085,5,0,0:0:0:0:
168,248,56272,1,0,0:0:0:0:
68,180,56460,2,0,L|160:172,1,80,8|0,0:0|0:0,0:0:0:0:
448,360,56835,6,0,L|476:168,1,160,0|8,0:0|0:0,0:0:0:0:
364,120,57397,2,0,L|472:136,2,80,8|0|0,0:0|0:0|0:0,0:0:0:0:
440,28,57960,2,0,L|332:44,1,80,8|0,0:0|0:0,0:0:0:0:
44,62,58335,5,2,0:0:0:0:
56,142,58522,1,0,0:0:0:0:
172,72,58710,2,8,L|76:64,1,80
200,212,59085,5,0,0:0:0:0:
188,292,59272,1,0,0:0:0:0:
44,228,59460,2,0,L|140:220,1,80,8|0,0:0|0:0,0:0:0:0:
400,264,59835,6,0,L|428:164,1,80,2|0,0:0|0:0,0:0:0:0:
496,136,60210,2,8,L|468:36,1,80
300,80,60585,5,0,0:0:0:0:
264,152,60772,1,0,0:0:0:0:
300,224,60960,1,8,0:0:0:0:
376,248,61147,1,0,0:0:0:0:
104,120,61335,6,0,L|24:126,1,80
176,64,61710,1,8,0:0:0:0:
176,64,61897,1,8,0:0:0:0:
92,280,62085,6,0,L|171:286,1,80
20,224,62460,1,8,0:0:0:0:
20,224,62647,1,8,0:0:0:0:
171,286,62835,5,0,0:0:0:0:
240,248,63022,1,0,0:0:0:0:
268,172,63210,1,8,0:0:0:0:
240,96,63397,1,8,0:0:0:0:
172,56,63585,5,0,0:0:0:0:
268,172,63772,2,0,L|180:172,1,80,0|8,0:0|0:0,0:0:0:0:
104,172,64147,1,0,0:0:0:0:
356,44,64335,6,8,P|396:112|392:212,1,160,0|8,0:0|0:0,0:0:0:0:
235,319,64897,2,8,P|195:251|191:151,1,160
440,200,65460,1,8,0:0:0:0:
512,300,65647,1,0,0:0:0:0:
187,171,65835,6,0,L|86:152,1,80
440,200,66210,1,4,0:0:0:0:
328,208,66397,2,0,L|420:224,2,80
28,40,66960,2,0,L|205:72,1,160,0|12,0:0|0:0,0:0:0:0:
