osu file format v14

[General]
AudioFilename: audio.mp3
AudioLeadIn: 0
PreviewTime: 42555
Countdown: 0
SampleSet: Soft
StackLeniency: 0.7
Mode: 2
LetterboxInBreaks: 0
WidescreenStoryboard: 0

[Editor]
Bookmarks: 19305
DistanceSpacing: 1
BeatDivisor: 4
GridSize: 16
TimelineZoom: 0.7

[Metadata]
Title:Darling
TitleUnicode:Darling
Artist:Kana Nishino
ArtistUnicode:西野カナ
Creator:Fii
Version:Ascendance's Cup
Source:
Tags:with love short ver version cut ascendance -wwwww kaitlin japan record award
BeatmapID:930975
BeatmapSetID:431087

[Difficulty]
HPDrainRate:3
CircleSize:3
OverallDifficulty:5
ApproachRate:5
SliderMultiplier:1.2
SliderTickRate:2

[Events]
//Background and Video events
0,0,"unspecified.png",0,0
//Break Periods
//Storyboard Layer 0 (Background)
//Storyboard Layer 1 (Fail)
//Storyboard Layer 2 (Pass)
//Storyboard Layer 3 (Foreground)
//Storyboard Sound Samples

[TimingPoints]
1335,375,4,2,1,30,1,0
19335,-100,4,2,1,45,0,0
40335,-100,4,2,2,45,0,0
40428,-100,4,2,1,45,0,0
42585,-100,4,2,1,60,0,0
43335,-100,4,2,1,60,0,1
67335,-100,4,2,1,20,0,0

[Colours]
Combo1 : 236,77,0
Combo2 : 255,225,136
Combo3 : 255,158,62
Combo4 : 255,81,81

[HitObjects]
48,80,1335,6,0,L|192:80,1,120,2|0,0:0|0:0,0:0:0:0:
272,80,2085,1,0,0:0:0:0:
368,160,2460,2,0,L|240:160,2,120,0|2|0,0:0|0:0|0:0,0:0:0:0:
464,256,3585,2,0,L|320:256,1,120
240,256,4335,6,0,L|112:256,1,120,2|0,0:0|0:0,0:0:0:0:
224,176,5085,1,0,0:0:0:0:
128,112,5460,2,0,L|0:112,2,120,0|2|0,0:0|0:0|0:0,0:0:0:0:
240,112,6585,2,0,L|368:112,1,120
240,208,7335,6,0,P|208:256|256:320,1,120,2|0,0:0|0:0,0:0:0:0:
336,304,8085,1,0,0:0:0:0:
192,304,8460,2,0,L|64:304,2,120,0|2|0,0:0|0:0|0:0,0:0:0:0:
128,224,9585,2,0,L|0:224,1,120
144,80,10335,5,2,0:0:0:0:
272,80,10710,2,0,L|144:80,2,120
416,80,11835,2,0,P|464:112|384:240,1,240,2|0,0:0|0:0,0:0:0:0:
272,240,12960,1,0,0:0:0:0:
384,160,13335,6,0,L|448:48,1,120,2|0,0:0|0:0,0:0:0:0:
304,48,14085,2,0,L|240:48,2,60
432,48,14835,6,0,L|304:48,1,120,2|0,0:0|0:0,0:0:0:0:
192,48,15585,2,0,L|320:48,2,120,0|0|2,0:0|0:0|0:0,0:0:0:0:
64,48,16710,1,0,0:0:0:0:
176,112,17085,2,0,L|304:112,1,120
176,112,17835,2,0,L|48:112,2,120,2|0|0,0:0|0:0|0:0,0:0:0:0:
48,256,18960,1,0,0:0:0:0:
176,256,19335,6,0,L|320:256,1,120,10|0,0:0|0:0,0:0:0:0:
432,256,20085,2,0,L|304:256,2,120,0|8|10,0:0|0:0|0:0,0:0:0:0:
512,256,21210,1,0,0:0:0:0:
400,256,21585,2,0,L|272:256,1,120
416,192,22335,5,10,0:0:0:0:
304,112,22710,2,0,L|432:112,2,120,0|0|8,0:0|0:0|0:0,0:0:0:0:
144,112,23835,2,0,P|128:160|272:272,1,240,10|0,0:0|0:0,0:0:0:0:
384,272,24960,1,0,0:0:0:0:
256,272,25335,6,0,L|128:272,1,120,10|0,0:0|0:0,0:0:0:0:
256,192,26085,2,0,L|320:192,2,60,0|0|8,0:0|0:0|0:0,0:0:0:0:
128,192,26835,2,0,L|16:128,1,120,10|0,0:0|0:0,0:0:0:0:
160,64,27585,2,0,P|192:112|144:160,1,120
32,176,28335,2,0,L|176:176,1,120,10|0,0:0|0:0,0:0:0:0:
80,96,29085,2,0,L|208:96,1,120,0|10,0:0|0:0,0:0:0:0:
368,96,29835,5,10,0:0:0:0:
368,96,30210,1,8,0:0:0:0:
256,96,30585,2,0,P|224:128|288:176,1,120
384,208,31335,5,10,0:0:0:0:
256,208,31710,2,0,L|128:208,1,120
256,128,32460,1,8,0:0:0:0:
128,64,32835,6,0,P|96:112|192:240,1,240,10|0,0:0|0:0,0:0:0:0:
304,240,33960,1,8,0:0:0:0:
432,240,34335,2,0,L|304:240,1,120,10|0,0:0|0:0,0:0:0:0:
192,240,35085,2,0,L|64:240,1,120,0|8,0:0|0:0,0:0:0:0:
192,160,35835,6,0,L|320:160,1,120,10|0,0:0|0:0,0:0:0:0:
416,160,36585,2,0,L|480:160,2,60,0|0|8,0:0|0:0|0:0,0:0:0:0:
288,160,37335,2,0,L|416:160,2,120,10|0|0,0:0|0:0|0:0,0:0:0:0:
160,160,38460,1,8,0:0:0:0:
320,160,38835,5,10,0:0:0:0:
208,160,39210,1,0,0:0:0:0:
96,160,39585,1,0,0:0:0:0:
208,64,39960,2,0,P|240:112|144:240,1,240,8|8,0:0|0:0,0:0:0:0:
80,240,40897,2,0,P|272:224|288:224,1,180,8|0,0:0|0:0,0:0:0:0:
384,224,41835,5,8,0:0:0:0:
384,224,42210,1,8,0:0:0:0:
256,224,42585,2,8,L|176:224,2,60,8|4|8,3:0|0:3|3:0,0:0:0:0:
432,224,43335,6,0,L|304:224,1,120,12|0,0:0|0:0,0:0:0:0:
144,224,44085,2,0,L|80:224,2,60,0|0|8,0:0|0:0|0:0,0:0:0:0:
256,224,44835,2,0,L|128:224,1,120,8|0,0:0|0:0,0:0:0:0:
256,224,45585,2,0,L|336:224,2,60,0|0|8,0:0|0:0|0:0,0:0:0:0:
368,224,46335,6,0,L|496:224,1,120,8|0,0:0|0:0,0:0:0:0:
368,224,47085,1,0,0:0:0:0:
304,224,47272,1,0,0:0:0:0:
240,224,47460,1,8,0:0:0:0:
96,224,47835,6,0,L|224:224,2,120,8|8|8,0:0|0:0|0:0,0:0:0:0:
208,224,48960,1,8,0:0:0:0:
352,224,49335,2,0,L|480:224,2,120,8|0|0,0:0|0:0|0:0,0:0:0:0:
224,224,50460,1,8,0:0:0:0:
352,160,50835,6,0,L|448:64,1,120,8|0,0:0|0:0,0:0:0:0:
288,64,51585,2,0,L|160:64,1,120,0|8,0:0|0:0,0:0:0:0:
288,160,52335,2,0,L|416:160,1,120,8|0,0:0|0:0,0:0:0:0:
288,224,53085,2,0,L|224:224,2,60,0|0|8,0:0|0:0|0:0,0:0:0:0:
400,224,53835,6,0,L|256:224,1,120,8|0,0:0|0:0,0:0:0:0:
192,224,54397,2,0,P|128:160|224:80,1,240
320,64,55335,6,0,L|454:66,1,120,8|0,0:0|0:0,0:0:0:0:
304,176,56085,2,0,L|240:176,2,60,0|0|8,0:0|0:0|0:0,0:0:0:0:
432,176,56835,2,0,L|304:176,1,120,8|0,0:0|0:0,0:0:0:0:
192,176,57585,2,0,L|128:176,2,60,0|0|8,0:0|0:0|0:0,0:0:0:0:
320,176,58335,6,0,L|176:176,1,120,8|0,0:0|0:0,0:0:0:0:
80,176,59085,2,0,L|16:176,2,60,0|0|8,0:0|0:0|0:0,0:0:0:0:
240,176,59835,2,8,L|112:176,2,120
336,176,60960,1,8,0:0:0:0:
208,112,61335,6,0,L|64:112,1,120,8|0,0:0|0:0,0:0:0:0:
240,192,62085,2,0,L|112:192,1,120,0|8,0:0|0:0,0:0:0:0:
288,128,62835,2,0,L|144:128,2,120,8|0|0,0:0|0:0|0:0,0:0:0:0:
448,128,63960,1,8,0:0:0:0:
272,80,64335,2,0,P|240:112|304:272,1,240,8|0,0:0|0:0,0:0:0:0:
432,272,65460,1,0,0:0:0:0:
304,272,65835,6,0,L|160:272,1,120,8|4,0:0|0:0,0:0:0:0:
304,192,66585,1,0,0:0:0:0:
368,144,66772,1,0,0:0:0:0:
432,96,66960,1,0,0:0:0:0:
256,80,67335,1,12,0:0:0:0:
