osu file format v14

[General]
AudioFilename: audio.mp3
AudioLeadIn: 0
PreviewTime:41686
Countdown: 0
SampleSet: Soft
StackLeniency: 0.7
Mode: 0
LetterboxInBreaks: 0
WidescreenStoryboard: 1

[Editor]
Bookmarks: 6530,18530,30530,42530,54530,66530,78530,90530
DistanceSpacing: 1
BeatDivisor: 4
GridSize: 32
TimelineZoom: 2.5

[Metadata]
Title:Darling (Cut Ver.)
TitleUnicode:Darling (Cut Ver.)
Artist:Kana Nishino
ArtistUnicode:西野カナ
Creator:ProjectGreat
Version:Normal
Source:
Tags:めざましテレビ MEZAMASHI TV 西野加奈子 Kanako with LOVE Collection 2 ~mint~ female vocal japanese jpop j-pop pop country edit short ver version sme sony music entertainment
BeatmapID:3873983
BeatmapSetID:1367731

[Difficulty]
HPDrainRate:4
CircleSize:3.5
OverallDifficulty:4
ApproachRate:5
SliderMultiplier:1
SliderTickRate:1

[Events]
//Background and Video events
0,0,"background.png",0,0
//Break Periods
//Storyboard Layer 0 (Background)
//Storyboard Layer 1 (Fail)
//Storyboard Layer 2 (Pass)
//Storyboard Layer 3 (Foreground)
//Storyboard Layer 4 (Overlay)
//Storyboard Sound Samples

[TimingPoints]
530,375,4,2,1,40,1,0
5780,-100,4,2,1,40,0,0
18530,-100,4,2,1,45,0,0
30530,-100,4,2,1,50,0,0
41780,-100,4,2,1,55,0,0
42155,-100,4,2,1,60,0,0
42530,-100,4,2,1,65,0,1
65030,-100,4,2,1,60,0,1
65405,-100,4,2,1,55,0,1
65780,-100,4,2,1,50,0,1
66530,-100,4,2,1,45,0,0
78530,-100,4,2,1,40,0,0
89030,-100,4,2,1,50,0,0
90530,-100,4,2,1,40,0,0

[Colours]
Combo1 : 255,128,0
Combo2 : 255,0,0
Combo3 : 128,64,64
Combo4 : 0,128,128

[HitObjects]
164,25,5780,5,2,0:0:0:0:
75,70,6155,1,2,0:0:0:0:
130,153,6530,2,0,L|146:250,1,100,2|0,0:0|0:0,0:0:0:0:
163,350,7280,5,2,0:0:0:0:
240,286,7655,1,2,0:0:0:0:
311,356,8030,2,0,L|411:370,1,100,2|0,0:0|0:0,0:0:0:0:
495,318,8780,5,2,0:0:0:0:
421,249,9155,1,2,0:0:0:0:
464,159,9530,2,0,L|522:140,2,50,2|2|2,0:0|0:0|0:0,0:0:0:0:
383,99,10280,2,0,L|325:80,1,50,2|2,0:0|0:0,0:0:0:0:
287,68,10655,1,2,0:0:0:0:
241,156,11030,2,0,P|190:141|135:152,2,100,2|0|0,0:0|0:0|0:0,0:0:0:0:
311,227,12155,5,2,0:0:0:0:
260,314,12530,2,0,B|178:292|198:354|105:332,1,150,2|2,0:0|0:0,0:0:0:0:
67,322,13280,2,0,P|56:273|80:229,1,100,2|0,0:0|0:0,0:0:0:0:
142,153,14030,5,2,0:0:0:0:
85,70,14405,2,0,L|35:60,2,50,2|2|2,0:0|0:0|0:0,0:0:0:0:
142,153,15155,2,0,L|192:163,1,50,2|2,0:0|0:0,0:0:0:0:
240,169,15530,6,0,B|277:87|225:106|263:20,1,150,2|0,0:0|0:0,0:0:0:0:
360,4,16467,1,0,0:0:0:0:
439,64,16842,2,0,P|428:144|417:218,1,150
406,311,17780,1,2,0:0:0:0:
317,263,18155,1,2,0:0:0:0:
257,343,18530,6,0,P|212:370|159:356,1,100,2|8,1:2|0:0,0:0:0:0:
79,317,19280,2,0,P|86:265|94:217,1,100,2|10,0:0|0:0,0:0:0:0:
129,182,19842,1,2,0:0:0:0:
129,182,20030,2,0,P|121:134|111:79,1,100,2|8,1:2|0:0,0:0:0:0:
194,26,20780,2,0,L|258:17,1,50,2|0,0:0|1:0,0:0:0:0:
292,10,21155,1,10,0:0:0:0:
386,41,21530,6,0,L|452:27,2,50,2|2|10,1:2|0:0|0:0,0:0:0:0:
354,135,22280,2,0,L|366:189,1,50,2|2,0:0|1:2,0:0:0:0:
376,232,22655,1,10,0:0:0:0:
393,330,23030,2,0,P|343:351|294:334,1,100,0|8,1:0|0:0,0:0:0:0:
241,258,23780,2,0,L|248:203,2,50,0|0|10,0:0|1:0|0:0,0:0:0:0:
165,323,24530,6,0,P|108:334|54:347,1,100,2|8,1:2|0:0,0:0:0:0:
22,357,25092,1,2,0:0:0:0:
22,357,25280,2,0,P|15:323|11:298,1,50,2|0,0:0|1:0,0:0:0:0:
2,258,25655,1,8,0:0:0:0:
44,167,26030,2,0,P|93:145|150:154,1,100,2|10,1:2|0:0,0:0:0:0:
232,181,26780,2,0,L|223:230,1,50,2|0,0:0|1:0,0:0:0:0:
191,269,27155,2,0,L|199:325,1,50,10|2,0:0|0:0,0:0:0:0:
238,348,27530,6,0,P|283:366|340:345,1,100,2|8,1:2|0:0,0:0:0:0:
414,296,28280,2,0,L|467:305,2,50,0|0|8,0:0|1:0|0:0,0:0:0:0:
399,196,29030,2,0,L|412:90,1,100,0|0,1:0|1:0,0:0:0:0:
347,19,29780,2,0,L|282:7,1,50,2|2,0:0|1:2,0:0:0:0:
252,32,30155,2,0,L|195:41,1,50,10|2,0:0|0:0,0:0:0:0:
156,58,30530,6,0,P|163:115|137:162,1,100,2|10,1:2|0:0,0:0:0:0:
49,182,31280,2,0,L|60:290,1,100,2|10,0:0|0:0,0:0:0:0:
102,373,32030,2,0,P|148:380|200:354,1,100,2|10,1:2|0:0,0:0:0:0:
219,314,32592,2,0,P|268:290|324:305,1,100,10|2,0:0|1:2,0:0:0:0:
345,333,33155,1,8,0:0:0:0:
435,375,33530,6,0,P|441:318|447:264,1,100,2|8,1:2|0:0,0:0:0:0:
473,235,34092,1,10,0:0:0:0:
473,235,34280,1,2,0:0:0:0:
423,147,34655,2,0,L|429:87,1,50,10|2,0:0|0:0,0:0:0:0:
427,47,35030,2,0,P|374:31|320:49,1,100,0|8,1:0|0:0,0:0:0:0:
262,113,35780,2,0,L|206:101,2,50,2|2|10,0:0|1:2|0:0,0:0:0:0:
299,153,36342,1,2,0:0:0:0:
299,153,36530,6,0,P|350:142|398:134,2,100,2|10|2,1:2|0:0|0:0,0:0:0:0:
258,244,37655,1,10,0:0:0:0:
175,187,38030,2,0,P|125:171|66:189,1,100,2|10,1:2|0:0,0:0:0:0:
36,271,38780,2,0,P|40:316|45:374,2,100,2|10|0,0:0|0:0|1:0,0:0:0:0:
47,171,39905,2,0,L|38:113,2,50,8|8|0,0:0|0:0|0:0,0:0:0:0:
97,195,40467,1,0,1:0:0:0:
97,195,40655,2,0,L|166:180,1,50,8|0,0:0|1:0,0:0:0:0:
194,170,41030,5,0,1:0:0:0:
265,235,41405,1,0,1:0:0:0:
342,172,41780,2,0,L|324:73,1,100,2|2,0:0|0:0,0:0:0:0:
404,13,42530,6,0,L|421:111,1,100,6|8,1:2|0:0,0:0:0:0:
431,160,43092,1,8,0:0:0:0:
496,243,43467,1,0,1:0:0:0:
496,243,43655,2,0,P|446:267|388:253,1,100,8|2,0:0|1:2,0:0:0:0:
323,210,44405,1,8,0:0:0:0:
323,210,44592,2,0,P|273:186|215:200,1,100,10|2,0:0|1:2,0:0:0:0:
191,223,45155,2,0,L|202:282,1,50,8|2,0:0|0:0,0:0:0:0:
213,320,45530,5,2,1:2:0:0:
118,343,45905,1,8,0:0:0:0:
118,343,46092,2,0,L|95:227,1,100,8|0,0:0|1:0,0:0:0:0:
85,196,46655,1,10,0:0:0:0:
62,98,47030,2,0,P|113:77|167:89,1,100,2|8,1:2|0:0,0:0:0:0:
244,129,47780,1,2,0:1:0:0:
226,227,48155,2,0,L|215:287,1,50,10|2,0:0|0:0,0:0:0:0:
211,326,48530,6,0,P|263:333|323:343,1,100,2|10,1:2|0:0,0:0:0:0:
408,358,49280,2,0,P|429:313|420:264,1,100,2|10,0:0|0:0,0:0:0:0:
388,233,49842,1,2,0:0:0:0:
388,233,50030,2,0,L|399:177,1,50,2|2,1:2|0:0,0:0:0:0:
433,148,50405,2,0,L|422:92,1,50,10|10,0:0|0:0,0:0:0:0:
391,59,50780,2,0,P|335:42|281:71,1,100,2|10,0:1|0:0,0:0:0:0:
251,144,51530,6,0,P|205:164|145:147,1,100,2|8,1:2|0:0,0:0:0:0:
118,123,52092,1,8,0:0:0:0:
29,87,52467,1,0,1:0:0:0:
29,87,52655,2,0,P|23:146|18:203,1,100,8|2,0:0|1:2,0:0:0:0:
13,290,53405,1,8,0:0:0:0:
13,290,53592,2,0,L|70:295,1,50,10|2,0:0|0:1,0:0:0:0:
101,326,53967,2,0,L|171:334,1,50,2|8,1:2|0:0,0:0:0:0:
199,341,54342,1,2,0:0:0:0:
199,341,54530,6,0,P|220:287|201:232,1,100,6|8,1:2|0:0,0:0:0:0:
176,211,55092,1,8,0:0:0:0:
139,123,55467,1,0,1:0:0:0:
139,123,55655,2,0,P|183:100|238:107,1,100,8|2,0:0|1:2,0:0:0:0:
320,161,56405,1,8,0:0:0:0:
320,161,56592,2,0,L|309:261,1,100,10|2,0:0|1:2,0:0:0:0:
305,310,57155,2,0,L|366:321,1,50,10|2,0:0|0:0,0:0:0:0:
402,330,57530,5,2,1:2:0:0:
487,275,57905,1,8,0:0:0:0:
487,275,58092,2,0,L|464:162,1,100,8|0,0:0|1:0,0:0:0:0:
454,128,58655,1,10,0:0:0:0:
419,34,59030,2,0,P|365:22|314:49,1,100,2|8,1:2|0:0,0:0:0:0:
264,118,59780,2,0,L|205:107,1,50,2|0,0:1|1:0,0:0:0:0:
180,72,60155,2,0,L|115:86,1,50,10|2,0:0|0:0,0:0:0:0:
83,97,60530,6,0,P|71:160|92:203,1,100,2|10,1:2|0:0,0:0:0:0:
125,228,61092,1,10,0:0:0:0:
125,228,61280,2,0,P|174:217|227:240,1,100,2|10,0:0|0:0,0:0:0:0:
258,272,61842,1,2,0:0:0:0:
258,272,62030,2,0,L|244:343,2,50,2|2|10,1:2|0:0|0:0,0:0:0:0:
339,213,62780,2,0,L|443:232,1,100,2|10,0:1|0:0,0:0:0:0:
472,137,63530,6,0,L|366:117,1,100,2|8,1:2|0:0,0:0:0:0:
324,111,64092,1,8,0:0:0:0:
247,55,64467,1,0,1:0:0:0:
247,55,64655,2,0,P|213:62|176:70,1,50,8|2,0:0|0:0,0:0:0:0:
150,80,65030,5,6,1:2:0:0:
55,47,65405,2,0,B|86:133|44:113|72:205,1,150,6|2,1:2|1:2,0:0:0:0:
84,242,66155,1,10,0:0:0:0:
57,338,66530,6,0,P|108:356|168:334,1,100,4|8,1:2|0:0,0:0:0:0:
191,316,67092,1,8,0:0:0:0:
191,316,67280,2,0,L|204:387,2,50,0|0|8,0:0|1:0|0:0,0:0:0:0:
286,287,68030,2,0,P|300:226|312:179,1,100,0|8,1:0|0:0,0:0:0:0:
346,156,68592,1,8,0:0:0:0:
346,156,68780,2,0,L|402:171,2,50,2|0|8,0:1|1:0|0:0,0:0:0:0:
264,97,69530,6,0,L|159:117,1,100,0|8,1:0|0:0,0:0:0:0:
121,132,70092,1,8,0:0:0:0:
121,132,70280,2,0,L|108:65,1,50,0|0,0:0|1:0,0:0:0:0:
102,33,70655,1,8,0:0:0:0:
6,61,71030,2,0,L|21:127,1,50,0|0,1:0|0:0,0:0:0:0:
36,155,71405,2,0,L|19:215,1,50,8|8,0:0|0:0,0:0:0:0:
5,250,71780,2,0,L|21:309,2,50,2|0|8,0:1|1:0|0:0,0:0:0:0:
104,245,72530,6,0,P|156:227|210:248,1,100,0|8,1:0|0:0,0:0:0:0:
227,285,73092,1,8,0:0:0:0:
227,285,73280,2,0,L|219:340,2,50,0|0|8,0:0|1:0|0:0,0:0:0:0:
312,232,74030,2,0,P|320:185|328:132,1,100,0|8,1:0|0:0,0:0:0:0:
359,95,74592,1,8,0:0:0:0:
359,95,74780,2,0,L|344:30,2,50,2|0|8,0:1|1:0|0:0,0:0:0:0:
454,123,75530,6,0,P|476:175|470:222,1,100,0|8,1:0|0:0,0:0:0:0:
445,259,76092,1,8,0:0:0:0:
445,259,76280,2,0,L|380:251,1,50,0|0,0:0|1:0,0:0:0:0:
345,246,76655,1,8,0:0:0:0:
253,205,77030,2,0,P|244:265|235:325,1,100,0|8,1:0|0:0,0:0:0:0:
142,333,77780,2,0,L|152:394,2,50,2|0|8,0:1|1:0|0:0,0:0:0:0:
44,311,78530,6,0,P|30:260|49:205,1,100,4|8,1:2|0:0,0:0:0:0:
93,203,79092,1,8,0:0:0:0:
93,203,79280,2,0,L|101:254,2,50,0|0|8,0:0|1:0|0:0,0:0:0:0:
72,105,80030,2,0,L|177:85,1,100,0|8,1:0|0:0,0:0:0:0:
221,73,80592,1,8,0:0:0:0:
221,73,80780,2,0,L|208:14,2,50,2|0|8,0:1|1:0|0:0,0:0:0:0:
294,140,81530,6,0,P|348:135|402:167,1,100,0|8,1:0|0:0,0:0:0:0:
421,198,82092,1,8,0:0:0:0:
421,198,82280,2,0,L|414:267,1,50,0|0,0:0|1:0,0:0:0:0:
409,297,82655,1,8,0:0:0:0:
343,372,83030,2,0,L|276:362,1,50,0|0,1:0|0:0,0:0:0:0:
244,374,83405,2,0,L|194:366,1,50,8|8,0:0|0:0,0:0:0:0:
152,339,83780,2,0,L|90:351,2,50,2|0|8,0:1|1:0|0:0,0:0:0:0:
203,251,84530,6,0,P|192:197|181:138,1,100,0|8,1:0|0:0,0:0:0:0:
167,110,85092,1,8,0:0:0:0:
167,110,85280,2,0,L|108:122,2,50,0|0|8,0:0|1:0|0:0,0:0:0:0:
240,42,86030,2,0,L|346:56,1,100,0|8,1:0|0:0,0:0:0:0:
392,65,86592,1,8,0:0:0:0:
392,65,86780,2,0,L|402:5,2,50,2|0|8,0:1|1:0|0:0,0:0:0:0:
469,128,87530,6,0,P|480:186|465:234,1,100,0|8,1:0|0:0,0:0:0:0:
433,259,88092,1,8,0:0:0:0:
433,259,88280,2,0,L|370:249,1,50,0|0,0:0|1:0,0:0:0:0:
334,242,88655,1,8,0:0:0:0:
260,174,89030,5,4,1:2:0:0:
214,263,89405,2,0,P|148:301|95:260,1,150,4|0,1:2|1:0,0:0:0:0:
88,212,90155,2,0,P|93:163|100:104,1,100,8|0,0:0|0:0,0:0:0:0:
