osu file format v14

[General]
AudioFilename: audio.mp3
AudioLeadIn: 0
PreviewTime: 41686
Countdown: 0
SampleSet: Soft
StackLeniency: 0.7
Mode: 0
LetterboxInBreaks: 0
WidescreenStoryboard: 0

[Editor]
Bookmarks: 6530,18530,30530,42530,54530,66530,78530,90530
DistanceSpacing: 1
BeatDivisor: 4
GridSize: 32
TimelineZoom: 2.5

[Metadata]
Title:Darling (Cut Ver.)
TitleUnicode:Darling (Cut Ver.)
Artist:Kana Nishino
ArtistUnicode:西野カナ
Creator:ProjectGreat
Version:Love
Source:
Tags:めざましテレビ MEZAMASHI TV 西野加奈子 Kanako with LOVE Collection 2 ~mint~ female vocal japanese jpop j-pop pop country edit short ver version sme sony music entertainment
BeatmapID:2828577
BeatmapSetID:1367731

[Difficulty]
HPDrainRate:5
CircleSize:4.2
OverallDifficulty:7.5
ApproachRate:8.5
SliderMultiplier:1.82
SliderTickRate:1

[Events]
//Background and Video events
0,0,"background.png",0,0
//Break Periods
//Storyboard Layer 0 (Background)
//Storyboard Layer 1 (Fail)
//Storyboard Layer 2 (Pass)
//Storyboard Layer 3 (Foreground)
//Storyboard Layer 4 (Overlay)
//Storyboard Sound Samples

[TimingPoints]
530,375,4,2,1,40,1,0
5780,-161.290322580645,4,2,1,40,0,0
18530,-138.888888888889,4,2,1,45,0,0
30530,-121.951219512195,4,2,1,50,0,0
41780,-138.888888888889,4,2,1,55,0,0
42155,-121.951219512195,4,2,1,60,0,0
42436,-121.951219512195,4,2,1,5,0,0
42530,-108.695652173913,4,2,1,65,0,1
65030,-161.290322580645,4,2,1,60,0,1
65405,-138.888888888889,4,2,1,55,0,1
65686,-138.888888888889,4,2,1,5,0,1
65780,-121.951219512195,4,2,1,50,0,1
66530,-121.951219512195,4,2,1,45,0,0
78530,-121.951219512195,4,2,1,40,0,0
89030,-161.290322580645,4,2,1,50,0,0
90436,-161.290322580645,4,2,1,5,0,0
90530,-161.290322580645,4,2,1,40,0,0

[Colours]
Combo1 : 255,128,0
Combo2 : 255,0,0
Combo3 : 128,64,64
Combo4 : 0,128,128

[HitObjects]
152,49,5780,6,0,P|162:82|169:112,1,56.4199977616578,2|0,0:0|0:0,0:0:0:0:
248,173,6155,2,0,P|238:206|231:236,1,56.4199977616578,2|0,0:0|0:0,0:0:0:0:
159,305,6530,2,0,P|203:261|253:265,1,112.839995523316,2|0,0:0|0:0,0:0:0:0:
404,356,7280,6,0,P|373:355|344:338,1,56.4199977616578,2|0,0:0|0:0,0:0:0:0:
427,205,7655,2,0,P|452:193|480:192,1,56.4199977616578,2|0,0:0|0:0,0:0:0:0:
350,263,8030,2,0,P|339:208|322:134,1,112.839995523316,2|0,0:0|0:0,0:0:0:0:
217,22,8780,6,0,L|206:96,1,56.4199977616578,2|0,0:0|0:0,0:0:0:0:
162,200,9155,2,0,L|151:126,1,56.4199977616578,2|0,0:0|0:0,0:0:0:0:
56,93,9530,1,2,0:0:0:0:
126,18,9717,1,2,0:0:0:0:
45,106,9905,6,0,P|52:162|61:237,1,112.839995523316,2|2,0:0|0:0,0:0:0:0:
58,217,10467,1,2,0:0:0:0:
120,280,10655,1,2,0:0:0:0:
183,224,10842,1,2,0:0:0:0:
276,315,11030,2,0,B|341:309|314:272|382:263,1,112.839995523316,2|0,0:0|0:0,0:0:0:0:
485,155,12155,6,0,P|447:146|407:140,1,56.4199977616578,2|0,0:0|0:0,0:0:0:0:
314,53,12530,2,0,P|309:104|301:174,1,112.839995523316,2|0,0:0|0:0,0:0:0:0:
302,165,13092,1,2,0:0:0:0:
206,65,13280,2,0,P|200:121|194:177,1,112.839995523316,2|0,0:0|0:0,0:0:0:0:
21,251,14030,6,0,P|78:237|130:270,1,112.839995523316,2|2,0:0|0:0,0:0:0:0:
179,356,14592,1,2,0:0:0:0:
179,356,14780,2,0,P|219:364|249:374,1,56.4199977616578,2|2,0:0|0:0,0:0:0:0:
302,281,15155,2,0,P|340:267|371:261,1,56.4199977616578,2|2,0:0|0:0,0:0:0:0:
460,330,15530,6,0,P|447:279|428:208,1,112.839995523316,2|0,0:0|0:0,0:0:0:0:
374,116,16092,2,0,P|347:113|320:122,1,56.4199977616578
248,223,16467,2,0,P|264:201|270:173,1,56.4199977616578
270,172,16842,1,0,0:0:0:0:
218,56,17030,2,0,P|236:90|269:108,1,56.4199977616578
359,201,17405,5,0,0:0:0:0:
359,201,17780,2,0,P|373:232|383:270,1,56.4199977616578,2|0,0:0|0:0,0:0:0:0:
494,143,18155,2,0,P|483:169|477:196,1,56.4199977616578,2|0,0:0|0:0,0:0:0:0:
363,62,18530,6,0,P|319:17|243:20,1,131.040003199219,2|8,1:2|0:0,0:0:0:0:
202,144,19092,1,2,0:0:0:0:
202,144,19280,2,0,P|237:129|258:98,1,65.5200015996094,2|0,0:0|1:0,0:0:0:0:
110,183,19655,2,0,P|140:194|161:218,1,65.5200015996094,10|2,0:0|0:0,0:0:0:0:
273,291,20030,6,0,P|205:302|137:321,1,131.040003199219,2|8,1:2|0:0,0:0:0:0:
39,247,20592,1,0,0:0:0:0:
39,247,20780,2,0,P|78:253|114:263,1,65.5200015996094,2|0,0:0|1:0,0:0:0:0:
202,144,21155,2,0,P|163:150|127:160,1,65.5200015996094,10|0,0:0|0:0,0:0:0:0:
1,67,21530,5,2,1:2:0:0:
67,148,21717,1,2,0:0:0:0:
134,44,21905,2,0,P|165:36|198:31,1,65.5200015996094,10|2,0:0|0:0,0:0:0:0:
312,0,22280,1,2,0:0:0:0:
301,110,22467,1,2,1:2:0:0:
427,46,22655,2,0,P|437:76|447:108,1,65.5200015996094,10|0,0:0|0:0,0:0:0:0:
480,244,23030,2,0,P|422:276|349:252,1,131.040003199219,0|8,1:0|0:0,0:0:0:0:
361,262,23780,5,0,0:0:0:0:
282,199,23967,1,0,1:0:0:0:
234,332,24155,2,0,P|242:301|239:262,1,65.5200015996094,10|0,0:0|0:0,0:0:0:0:
163,162,24530,6,0,B|83:167|119:206|34:214,1,131.040003199219,2|8,1:2|0:0,0:0:0:0:
160,266,25092,1,2,0:0:0:0:
79,166,25280,2,0,P|69:131|58:99,1,65.5200015996094,2|0,0:0|1:0,0:0:0:0:
12,243,25655,1,8,0:0:0:0:
79,166,25842,1,2,0:0:0:0:
145,242,26030,6,0,P|134:281|126:314,1,65.5200015996094,2|0,1:2|0:0,0:0:0:0:
163,162,26405,2,0,P|170:130|179:98,1,65.5200015996094,10|0,0:0|0:0,0:0:0:0:
232,218,26780,2,0,P|267:227|302:218,1,65.5200015996094,2|0,0:0|1:0,0:0:0:0:
392,107,27155,1,10,0:0:0:0:
294,148,27342,1,2,0:0:0:0:
391,236,27530,2,0,P|413:203|407:110,1,131.040003199219,2|8,1:2|0:0,0:0:0:0:
409,114,28280,5,0,0:0:0:0:
305,0,28467,1,0,1:0:0:0:
254,161,28655,1,8,0:0:0:0:
324,88,28842,1,0,1:0:0:0:
203,52,29030,5,0,1:0:0:0:
148,251,29405,5,0,1:0:0:0:
148,251,29780,6,0,P|115:234|70:237,1,65.5200015996094,2|2,0:0|1:2,0:0:0:0:
16,355,30155,2,0,P|48:352|76:336,1,65.5200015996094,10|2,0:0|0:0,0:0:0:0:
199,354,30530,6,0,P|188:283|174:203,1,149.240002277222,2|10,1:2|0:0,0:0:0:0:
253,105,31092,1,8,0:0:0:0:
253,105,31280,2,0,P|294:87|346:95,1,74.6200011386109,2|0,0:0|1:0,0:0:0:0:
439,197,31655,1,10,0:0:0:0:
495,88,31842,1,2,0:0:0:0:
421,205,32030,6,0,P|408:251|403:286,1,74.6200011386109,2|0,1:2|0:0,0:0:0:0:
342,333,32405,1,10,0:0:0:0:
273,210,32592,2,0,B|184:193|212:248|126:236,1,149.240002277222,10|2,0:0|1:2,0:0:0:0:
18,145,33155,1,8,0:0:0:0:
119,59,33342,1,2,0:0:0:0:
65,204,33530,6,0,P|55:124|46:48,1,149.240002277222,2|8,1:2|0:0,0:0:0:0:
156,130,34092,1,10,0:0:0:0:
156,130,34280,2,0,P|198:119|234:112,1,74.6200011386109,2|0,0:0|1:0,0:0:0:0:
357,137,34655,1,10,0:0:0:0:
277,36,34842,1,2,0:0:0:0:
214,191,35030,6,0,P|289:202|367:219,1,149.240002277222,0|8,1:0|0:0,0:0:0:0:
436,344,35592,1,8,0:0:0:0:
436,344,35780,1,2,0:0:0:0:
321,237,35967,1,2,1:2:0:0:
262,382,36155,1,10,0:0:0:0:
311,216,36342,1,2,0:0:0:0:
139,293,36530,6,0,P|112:219|139:146,1,149.240002277222,2|10,1:2|0:0,0:0:0:0:
154,37,37092,1,8,0:0:0:0:
154,37,37280,2,0,P|195:34|224:49,1,74.6200011386109,2|0,0:0|1:0,0:0:0:0:
317,153,37655,2,0,P|294:118|293:85,1,74.6200011386109,10|0,0:0|0:0,0:0:0:0:
416,11,38030,6,0,P|405:91|394:174,1,149.240002277222,2|10,1:2|0:0,0:0:0:0:
466,268,38592,1,8,0:0:0:0:
466,268,38780,2,0,P|416:258|383:253,1,74.6200011386109,2|0,0:0|1:0,0:0:0:0:
320,373,39155,2,0,P|370:363|403:358,1,74.6200011386109,10|0,0:0|0:0,0:0:0:0:
258,223,39530,6,0,B|178:237|221:281|132:307,1,149.240002277222,0|8,1:0|0:0,0:0:0:0:
14,305,40092,2,0,P|9:268|3:230,1,74.6200011386109,8|0,0:0|0:0,0:0:0:0:
74,127,40467,1,0,1:0:0:0:
129,227,40655,1,8,0:0:0:0:
56,121,40842,1,0,1:0:0:0:
202,71,41030,5,0,1:0:0:0:
130,314,41405,5,0,1:0:0:0:
130,314,41780,6,0,P|179:300|217:293,1,65.5200015996094,2|0,0:0|0:0,0:0:0:0:
296,236,42155,6,0,P|238:218|176:204,1,111.930001707916,2|0,0:0|0:0,0:0:0:0:
113,143,42530,6,0,B|217:121|173:189|290:165,1,167.439994379151,6|8,1:2|0:0,0:0:0:0:
368,31,43092,2,0,P|323:21|270:3,1,83.7199971895753,8|0,0:0|0:0,0:0:0:0:
219,69,43467,1,0,1:0:0:0:
350,184,43655,2,0,P|401:169|436:160,1,83.7199971895753,8|0,0:0|0:0,0:0:0:0:
512,295,44030,6,0,P|446:251|353:271,1,167.439994379151,2|8,1:2|0:0,0:0:0:0:
272,384,44592,2,0,P|304:350|309:307,1,83.7199971895753,10|2,0:0|0:1,0:0:0:0:
139,213,44967,2,0,P|147:262|154:308,1,83.7199971895753,2|8,1:2|0:0,0:0:0:0:
306,166,45342,1,2,0:0:0:0:
159,34,45530,6,0,P|71:40|20:112,1,167.439994379151,2|8,1:2|0:0,0:0:0:0:
139,213,46092,2,0,P|144:164|149:117,1,83.7199971895753,8|0,0:0|0:0,0:0:0:0:
159,34,46467,1,0,1:0:0:0:
294,188,46655,5,10,0:0:0:0:
322,0,46842,1,2,0:0:0:0:
470,136,47030,2,0,B|505:226|445:218|482:314,1,167.439994379151,2|8,1:2|0:0,0:0:0:0:
338,208,47592,1,8,0:0:0:0:
290,365,47780,2,0,P|250:377|209:369,1,83.7199971895753,2|0,0:1|1:0,0:0:0:0:
131,174,48155,5,10,0:0:0:0:
77,362,48342,1,2,0:0:0:0:
247,263,48530,2,0,P|240:220|231:177,1,83.7199971895753,2|0,1:2|0:0,0:0:0:0:
118,57,48905,1,10,0:0:0:0:
26,204,49092,1,8,0:0:0:0:
109,41,49280,2,0,P|147:19|198:25,1,83.7199971895753,2|0,0:0|1:0,0:0:0:0:
309,167,49655,1,10,0:0:0:0:
167,113,49842,1,2,0:0:0:0:
386,22,50030,5,2,1:2:0:0:
446,235,50217,1,2,0:0:0:0:
293,141,50405,1,10,0:0:0:0:
483,66,50592,1,10,0:0:0:0:
335,254,50780,2,0,P|286:243|228:234,1,83.7199971895753,2|0,0:1|1:0,0:0:0:0:
221,54,51155,2,0,P|270:43|328:34,1,83.7199971895753,10|0,0:0|0:0,0:0:0:0:
153,185,51530,6,0,P|138:101|120:2,1,167.439994379151,2|8,1:2|0:0,0:0:0:0:
0,114,52092,2,0,P|9:161|17:206,1,83.7199971895753,8|0,0:0|0:0,0:0:0:0:
93,246,52467,1,0,1:0:0:0:
43,384,52655,2,0,P|83:374|131:363,1,83.7199971895753,8|2,0:0|0:0,0:0:0:0:
240,202,53030,5,2,1:2:0:0:
297,384,53217,2,0,P|270:348|263:304,1,83.7199971895753,2|8,0:0|0:0,0:0:0:0:
424,250,53592,2,0,P|406:291|371:319,1,83.7199971895753,10|2,0:0|0:1,0:0:0:0:
240,202,53967,2,0,P|284:196|326:212,1,83.7199971895753,2|8,1:2|0:0,0:0:0:0:
429,375,54342,1,2,0:0:0:0:
512,201,54530,6,0,P|497:115|482:33,1,167.439994379151,6|8,1:2|0:0,0:0:0:0:
382,153,55092,2,0,P|327:162|292:168,1,83.7199971895753,8|0,0:0|0:0,0:0:0:0:
211,185,55467,1,0,1:0:0:0:
237,15,55655,2,0,P|278:8|319:1,1,83.7199971895753,8|2,0:0|0:0,0:0:0:0:
151,103,56030,6,0,P|116:190|154:269,1,167.439994379151,2|8,1:2|0:0,0:0:0:0:
290,189,56592,2,0,P|241:176|198:192,1,83.7199971895753,10|2,0:0|0:1,0:0:0:0:
140,255,56967,1,2,1:2:0:0:
258,382,57155,1,10,0:0:0:0:
341,268,57342,1,2,0:0:0:0:
508,370,57530,6,0,P|464:319|478:214,1,167.439994379151,2|8,1:2|0:0,0:0:0:0:
404,63,58092,2,0,P|408:115|394:152,1,83.7199971895753,8|0,0:0|0:0,0:0:0:0:
338,219,58467,1,0,1:0:0:0:
191,141,58655,2,0,P|184:99|195:59,1,83.7199971895753,10|0,0:0|1:0,0:0:0:0:
338,219,59030,6,0,P|291:217|245:207,1,83.7199971895753,2|0,1:2|0:0,0:0:0:0:
238,375,59405,2,0,P|279:376|320:384,1,83.7199971895753,8|8,0:0|0:0,0:0:0:0:
338,219,59780,2,0,P|291:217|245:207,1,83.7199971895753,2|0,0:1|1:0,0:0:0:0:
122,303,60155,5,10,0:0:0:0:
204,148,60342,1,2,0:0:0:0:
103,303,60530,2,0,P|81:357|71:391,1,83.7199971895753,2|0,1:2|0:0,0:0:0:0:
96,173,60905,5,10,0:0:0:0:
253,278,61092,1,10,0:0:0:0:
89,154,61280,2,0,P|43:141|-2:137,1,83.7199971895753,2|0,0:0|1:0,0:0:0:0:
190,9,61655,1,10,0:0:0:0:
235,191,61842,1,2,0:0:0:0:
426,44,62030,5,2,1:2:0:0:
339,226,62217,1,2,0:0:0:0:
264,28,62405,1,10,0:0:0:0:
435,151,62592,1,10,0:0:0:0:
251,274,62780,2,0,P|241:223|232:176,1,83.7199971895753,2|0,0:1|1:0,0:0:0:0:
421,142,63155,2,0,P|428:183|436:224,1,83.7199971895753,10|0,0:0|0:0,0:0:0:0:
308,355,63530,6,0,B|212:330|240:402|141:381,1,167.439994379151,2|8,1:2|0:0,0:0:0:0:
26,351,64092,2,0,P|38:298|48:257,1,83.7199971895753,8|0,0:0|0:0,0:0:0:0:
3,189,64467,1,0,1:0:0:0:
122,81,64655,2,0,P|110:28|100:-13,1,83.7199971895753,8|2,0:0|0:0,0:0:0:0:
225,197,65030,6,0,P|258:188|305:181,1,56.4199977616578,6|0,1:2|0:0,0:0:0:0:
361,42,65405,6,0,P|312:29|263:20,1,98.2800023994141,6|0,1:2|0:0,0:0:0:0:
241,32,65780,5,2,0:0:0:0:
225,197,65967,1,2,1:2:0:0:
371,59,66155,1,10,0:0:0:0:
396,294,66530,6,0,P|342:338|261:318,1,149.240002277222,4|8,1:2|0:0,0:0:0:0:
169,241,67092,1,8,0:0:0:0:
169,241,67280,2,0,P|212:239|249:260,1,74.6200011386109,0|0,0:0|1:0,0:0:0:0:
130,373,67655,2,0,P|124:334|117:284,1,74.6200011386109,8|0,0:0|0:0,0:0:0:0:
41,229,68030,6,0,P|55:161|62:129,1,74.6200011386109,0|0,1:0|0:0,0:0:0:0:
90,26,68405,1,8,0:0:0:0:
194,113,68592,1,8,0:0:0:0:
194,113,68780,2,0,P|186:73|178:39,1,74.6200011386109,2|0,0:1|1:0,0:0:0:0:
311,155,69155,2,0,P|318:118|325:81,1,74.6200011386109,8|0,0:0|0:0,0:0:0:0:
478,64,69530,6,0,P|473:108|466:167,1,74.6200011386109,0|0,1:0|0:0,0:0:0:0:
381,226,69905,1,8,0:0:0:0:
464,336,70092,1,8,0:0:0:0:
464,336,70280,2,0,P|424:348|371:332,1,74.6200011386109,0|0,0:0|1:0,0:0:0:0:
298,264,70655,2,0,P|261:259|226:271,1,74.6200011386109,8|0,0:0|0:0,0:0:0:0:
52,368,71030,5,0,1:0:0:0:
143,216,71217,1,0,0:0:0:0:
219,365,71405,1,8,0:0:0:0:
143,216,71592,1,8,0:0:0:0:
39,348,71780,6,0,P|79:352|124:360,1,74.6200011386109,2|0,0:1|1:0,0:0:0:0:
226,270,72155,1,8,0:0:0:0:
123,187,72342,1,0,0:0:0:0:
15,335,72530,6,0,P|89:320|183:305,1,149.240002277222,0|8,1:0|0:0,0:0:0:0:
236,198,73092,1,8,0:0:0:0:
236,198,73280,2,0,P|223:150|215:115,1,74.6200011386109,0|0,0:0|1:0,0:0:0:0:
70,89,73655,2,0,P|61:125|51:161,1,74.6200011386109,8|0,0:0|0:0,0:0:0:0:
185,33,74030,6,0,P|224:27|260:40,1,74.6200011386109,0|0,1:0|0:0,0:0:0:0:
338,151,74405,1,8,0:0:0:0:
447,58,74592,1,8,0:0:0:0:
447,58,74780,2,0,P|406:63|366:82,1,74.6200011386109,2|0,0:1|1:0,0:0:0:0:
355,238,75155,2,0,P|389:251|426:255,1,74.6200011386109,8|0,0:0|0:0,0:0:0:0:
338,151,75530,6,0,P|330:198|322:245,1,74.6200011386109,0|0,1:0|0:0,0:0:0:0:
308,374,75905,1,8,0:0:0:0:
178,325,76092,1,8,0:0:0:0:
178,325,76280,2,0,P|164:279|176:239,1,74.6200011386109,0|0,0:0|1:0,0:0:0:0:
253,143,76655,2,0,P|220:178|179:187,1,74.6200011386109,8|0,0:0|0:0,0:0:0:0:
74,280,77030,6,0,P|63:211|49:143,1,111.930001707916,0|0,1:0|0:0,0:0:0:0:
31,147,77405,2,0,P|41:96|48:63,1,74.6200011386109,8|8,0:0|0:0,0:0:0:0:
207,14,77780,1,2,0:1:0:0:
137,170,77967,1,0,1:0:0:0:
36,37,78155,1,8,0:0:0:0:
197,100,78342,1,0,1:0:0:0:
72,215,78530,6,0,B|158:193|141:254|224:237,1,149.240002277222,4|8,1:2|0:0,0:0:0:0:
317,326,79092,1,8,0:0:0:0:
317,326,79280,2,0,P|323:286|334:234,1,74.6200011386109,0|0,0:0|1:0,0:0:0:0:
437,190,79655,2,0,P|429:153|420:117,1,74.6200011386109,8|0,0:0|0:0,0:0:0:0:
343,23,80030,6,0,P|295:20|242:46,1,74.6200011386109,0|0,1:0|0:0,0:0:0:0:
224,180,80405,1,8,0:0:0:0:
92,123,80592,1,8,0:0:0:0:
92,123,80780,2,0,P|114:83|120:51,1,74.6200011386109,2|0,0:1|1:0,0:0:0:0:
224,180,81155,2,0,P|202:140|196:108,1,74.6200011386109,8|0,0:0|0:0,0:0:0:0:
81,245,81530,6,0,P|117:232|160:229,1,74.6200011386109,0|0,1:0|0:0,0:0:0:0:
237,351,81905,1,8,0:0:0:0:
342,255,82092,1,8,0:0:0:0:
342,255,82280,2,0,P|296:246|254:238,1,74.6200011386109,0|0,0:0|1:0,0:0:0:0:
418,153,82655,2,0,P|425:193|431:227,1,74.6200011386109,8|0,0:0|0:0,0:0:0:0:
273,245,83030,5,0,1:0:0:0:
336,96,83217,1,0,0:0:0:0:
430,226,83405,1,8,0:0:0:0:
336,96,83592,1,8,0:0:0:0:
265,228,83780,6,0,P|301:235|338:242,1,74.6200011386109,2|0,0:1|1:0,0:0:0:0:
444,137,84155,1,8,0:0:0:0:
322,63,84342,1,0,0:0:0:0:
249,211,84530,6,0,P|189:260|116:244,1,149.240002277222,0|8,1:0|0:0,0:0:0:0:
31,178,85092,1,8,0:0:0:0:
31,178,85280,2,0,P|62:143|111:133,1,74.6200011386109,0|0,0:0|1:0,0:0:0:0:
131,34,85655,2,0,P|176:44|209:81,1,74.6200011386109,8|0,0:0|0:0,0:0:0:0:
249,211,86030,6,0,P|257:253|264:292,1,74.6200011386109,0|0,1:0|0:0,0:0:0:0:
384,181,86405,1,8,0:0:0:0:
305,82,86592,1,8,0:0:0:0:
305,82,86780,2,0,P|318:126|302:173,1,74.6200011386109,2|0,0:1|1:0,0:0:0:0:
170,174,87155,2,0,P|201:139|250:129,1,74.6200011386109,8|0,0:0|0:0,0:0:0:0:
321,227,87530,6,0,P|279:217|228:207,1,74.6200011386109,0|0,1:0|0:0,0:0:0:0:
141,288,87905,1,8,0:0:0:0:
63,173,88092,1,8,0:0:0:0:
63,173,88280,2,0,P|70:131|79:87,1,74.6200011386109,0|0,0:0|1:0,0:0:0:0:
233,50,88655,2,0,P|225:86|219:123,1,74.6200011386109,8|0,0:0|0:0,0:0:0:0:
135,212,89030,5,4,1:2:0:0:
135,212,89405,6,0,B|181:182|226:207|226:207|248:246|280:252,1,169.259993284973,4|0,1:2|1:0,0:0:0:0:
364,305,90155,2,0,L|351:221,1,84.6299966424867,8|0,0:0|0:0,0:0:0:0:
351,221,90530,1,0,0:0:0:0:
