osu file format v14

[General]
AudioFilename: audio.mp3
AudioLeadIn: 0
PreviewTime:41686
Countdown: 0
SampleSet: Soft
StackLeniency: 0.7
Mode: 0
LetterboxInBreaks: 0
WidescreenStoryboard: 1

[Editor]
Bookmarks: 6530,18530,30530,42530,54530,66530,78530,90530
DistanceSpacing: 1.6
BeatDivisor: 4
GridSize: 32
TimelineZoom: 2.5

[Metadata]
Title:Darling (Cut Ver.)
TitleUnicode:Darling (Cut Ver.)
Artist:Kana Nishino
ArtistUnicode:西野カナ
Creator:ProjectGreat
Version:Hard
Source:
Tags:めざましテレビ MEZAMASHI TV 西野加奈子 Kanako with LOVE Collection 2 ~mint~ female vocal japanese jpop j-pop pop country edit short ver version sme sony music entertainment
BeatmapID:3873981
BeatmapSetID:1367731

[Difficulty]
HPDrainRate:4.5
CircleSize:3.8
OverallDifficulty:6
ApproachRate:7.5
SliderMultiplier:1.4
SliderTickRate:1

[Events]
//Background and Video events
0,0,"background.png",0,0
//Break Periods
//Storyboard Layer 0 (Background)
//Storyboard Layer 1 (Fail)
//Storyboard Layer 2 (Pass)
//Storyboard Layer 3 (Foreground)
//Storyboard Layer 4 (Overlay)
//Storyboard Sound Samples

[TimingPoints]
530,375,4,2,1,40,1,0
5780,-125,4,2,1,40,0,0
18530,-111.111111111111,4,2,1,45,0,0
30530,-111.111111111111,4,2,1,50,0,0
41780,-111.111111111111,4,2,1,55,0,0
42155,-111.111111111111,4,2,1,60,0,0
42530,-111.111111111111,4,2,1,65,0,1
65030,-111.111111111111,4,2,1,60,0,1
65405,-111.111111111111,4,2,1,55,0,1
65780,-111.111111111111,4,2,1,50,0,1
66530,-125,4,2,1,45,0,0
78530,-125,4,2,1,40,0,0
89030,-125,4,2,1,50,0,0
90530,-125,4,2,1,40,0,0

[Colours]
Combo1 : 255,128,0
Combo2 : 255,0,0
Combo3 : 128,64,64
Combo4 : 0,128,128

[HitObjects]
426,161,5780,6,0,P|421:197|418:232,1,56,2|0,0:0|0:0,0:0:0:0:
330,201,6155,2,0,P|332:172|335:145,1,56,2|0,0:0|0:0,0:0:0:0:
319,56,6530,2,0,P|276:33|201:58,1,112,2|0,0:0|0:0,0:0:0:0:
216,45,7280,6,0,L|152:31,1,56,2|0,0:0|0:0,0:0:0:0:
108,105,7655,2,0,L|162:116,1,56,2|0,0:0|0:0,0:0:0:0:
224,181,8030,2,0,B|179:190|179:190|162:204|162:204|117:217,1,112,2|0,0:0|0:0,0:0:0:0:
119,216,8780,6,0,L|112:295,1,56,2|0,0:0|0:0,0:0:0:0:
74,352,9155,2,0,L|153:359,1,56,2|0,0:0|0:0,0:0:0:0:
202,303,9530,1,2,0:0:0:0:
202,303,9717,1,2,0:0:0:0:
269,361,9905,2,0,P|327:378|387:349,1,112,2|2,0:0|0:0,0:0:0:0:
431,293,10467,1,2,0:0:0:0:
359,238,10655,2,0,L|350:174,1,56,2|2,0:0|0:0,0:0:0:0:
405,110,11030,2,0,P|421:51|371:21,2,112,2|0|0,0:0|0:0|0:0,0:0:0:0:
405,110,12155,6,0,L|338:119,1,56,2|0,0:0|0:0,0:0:0:0:
260,106,12530,2,0,B|214:92|214:92|197:78|197:78|148:66,1,112,2|0,0:0|0:0,0:0:0:0:
74,32,13092,1,2,0:0:0:0:
26,108,13280,2,0,P|42:168|55:223,1,112,2|0,0:0|0:0,0:0:0:0:
53,216,14030,6,0,P|50:277|108:271,1,112,2|2,0:0|0:0,0:0:0:0:
172,330,14592,1,2,0:0:0:0:
172,330,14780,2,0,L|246:316,1,56,2|2,0:0|0:0,0:0:0:0:
266,239,15155,2,0,L|210:229,1,56,2|2,0:0|0:0,0:0:0:0:
154,158,15530,5,2,0:0:0:0:
324,96,15905,1,0,0:0:0:0:
324,96,16092,2,0,L|311:33,1,56
400,21,16467,2,0,L|411:75,1,56
411,75,16842,1,0,0:0:0:0:
482,139,17030,6,0,L|471:205,1,56
451,281,17405,1,0,0:0:0:0:
451,281,17780,6,0,L|376:264,1,56,2|0,0:0|0:0,0:0:0:0:
324,322,18155,2,0,L|269:309,1,56,2|0,0:0|0:0,0:0:0:0:
189,247,18530,6,0,P|153:288|83:284,1,125.999996154785,2|8,1:2|0:0,0:0:0:0:
7,229,19092,1,2,0:0:0:0:
50,137,19280,2,0,L|36:64,1,62.9999980773926,2|0,0:0|1:0,0:0:0:0:
118,13,19655,1,10,0:0:0:0:
118,13,19842,1,2,0:0:0:0:
197,75,20030,2,0,P|252:52|324:74,1,125.999996154785,2|8,1:2|0:0,0:0:0:0:
314,67,20780,6,0,L|307:142,1,62.9999980773926,2|0,0:0|1:0,0:0:0:0:
380,200,21155,2,0,L|373:275,1,62.9999980773926,10|0,0:0|0:0,0:0:0:0:
434,350,21530,5,2,1:2:0:0:
434,350,21717,1,2,0:0:0:0:
337,380,21905,2,0,L|253:365,1,62.9999980773926,10|2,0:0|0:0,0:0:0:0:
237,275,22280,2,0,L|299:259,2,62.9999980773926,2|2|10,0:0|1:2|0:0,0:0:0:0:
34,271,23030,6,0,P|15:327|45:387,2,125.999996154785,0|8|0,1:0|0:0|0:0,0:0:0:0:
113,208,23967,1,0,1:0:0:0:
149,113,24155,2,0,L|63:101,1,62.9999980773926,10|0,0:0|0:0,0:0:0:0:
59,7,24530,6,0,L|197:26,1,125.999996154785,2|8,1:2|0:0,0:0:0:0:
251,98,25092,1,2,0:0:0:0:
349,74,25280,2,0,L|430:59,1,62.9999980773926,2|0,0:0|1:0,0:0:0:0:
497,124,25655,1,8,0:0:0:0:
497,124,25842,1,2,0:0:0:0:
443,209,26030,6,0,L|469:344,1,125.999996154785,2|10,1:2|0:0,0:0:0:0:
466,332,26780,2,0,L|391:349,1,62.9999980773926,2|0,0:0|1:0,0:0:0:0:
319,290,27155,2,0,L|243:304,1,62.9999980773926,10|2,0:0|0:0,0:0:0:0:
171,356,27530,6,0,P|96:375|39:338,2,125.999996154785,2|8|0,1:2|0:0|0:0,0:0:0:0:
236,279,28467,1,0,1:0:0:0:
158,213,28655,2,0,L|146:146,1,62.9999980773926,8|0,0:0|1:0,0:0:0:0:
62,105,29030,1,0,1:0:0:0:
62,105,29405,6,0,B|176:125|128:41|250:64,1,188.999994232178,0|2,1:0|1:2,0:0:0:0:
316,132,30155,1,10,0:0:0:0:
316,132,30530,6,0,L|228:146,1,62.9999980773926,2|0,1:2|0:0,0:0:0:0:
232,243,30905,1,10,0:0:0:0:
232,243,31092,2,0,L|373:221,1,125.999996154785,8|0,0:0|1:0,0:0:0:0:
454,188,31655,1,10,0:0:0:0:
454,188,32030,6,0,P|456:123|404:75,1,125.999996154785,2|10,1:2|0:0,0:0:0:0:
318,59,32592,2,0,P|265:88|201:69,1,125.999996154785,10|2,0:0|1:2,0:0:0:0:
116,32,33155,1,8,0:0:0:0:
116,32,33530,6,0,L|108:170,1,125.999996154785,2|8,1:2|0:0,0:0:0:0:
44,235,34092,1,10,0:0:0:0:
44,235,34280,2,0,L|60:304,1,62.9999980773926,2|0,0:0|1:0,0:0:0:0:
140,363,34655,1,10,0:0:0:0:
140,363,34842,1,2,0:0:0:0:
212,292,35030,6,0,P|280:280|354:317,1,125.999996154785,0|8,1:0|0:0,0:0:0:0:
431,335,35592,1,8,0:0:0:0:
431,335,35780,2,0,L|419:262,1,62.9999980773926,2|2,0:0|1:2,0:0:0:0:
370,185,36155,2,0,L|382:112,1,62.9999980773926,10|2,0:0|0:0,0:0:0:0:
355,24,36530,6,0,P|291:9|239:36,1,125.999996154785,2|10,1:2|0:0,0:0:0:0:
146,63,37092,1,8,0:0:0:0:
146,63,37280,2,0,P|140:105|158:142,1,62.9999980773926,2|0,0:0|1:0,0:0:0:0:
130,226,37655,1,10,0:0:0:0:
130,226,38030,6,0,P|184:190|259:201,1,125.999996154785,2|10,1:2|0:0,0:0:0:0:
321,264,38592,1,8,0:0:0:0:
321,264,38780,2,0,L|396:254,1,62.9999980773926,2|0,0:0|1:0,0:0:0:0:
486,239,39155,1,10,0:0:0:0:
486,239,39530,6,0,L|471:156,1,62.9999980773926,0|0,1:0|0:0,0:0:0:0:
450,83,39905,1,8,0:0:0:0:
450,83,40092,2,0,L|313:104,1,125.999996154785,8|0,0:0|1:0,0:0:0:0:
230,80,40655,1,8,0:0:0:0:
230,80,40842,1,0,1:0:0:0:
141,129,41030,5,0,1:0:0:0:
307,13,41405,1,0,1:0:0:0:
307,13,41780,6,0,P|333:74|315:144,1,125.999996154785,2|2,0:0|0:0,0:0:0:0:
322,130,42530,6,0,L|180:112,1,125.999996154785,6|8,1:2|0:0,0:0:0:0:
97,98,43092,2,0,L|83:180,1,62.9999980773926,8|0,0:0|0:0,0:0:0:0:
26,241,43467,1,0,1:0:0:0:
117,284,43655,2,0,L|183:294,1,62.9999980773926,8|0,0:0|0:0,0:0:0:0:
267,366,44030,6,0,P|317:334|389:340,1,125.999996154785,2|8,1:2|0:0,0:0:0:0:
481,337,44592,2,0,P|464:305|457:260,1,62.9999980773926,10|2,0:0|0:1,0:0:0:0:
375,250,44967,2,0,P|394:219|429:190,1,62.9999980773926,2|8,1:2|0:0,0:0:0:0:
501,139,45342,1,2,0:0:0:0:
438,43,45530,6,0,B|379:50|379:50|362:56|362:56|293:65,1,125.999996154785,2|8,1:2|0:0,0:0:0:0:
254,142,46092,2,0,L|169:127,1,62.9999980773926,8|0,0:0|0:0,0:0:0:0:
116,200,46467,1,0,1:0:0:0:
66,118,46655,1,10,0:0:0:0:
66,118,46842,1,2,0:0:0:0:
0,211,47030,6,0,P|-12:277|26:336,1,125.999996154785,2|8,1:2|0:0,0:0:0:0:
111,368,47592,1,8,0:0:0:0:
111,368,47780,2,0,L|181:352,1,62.9999980773926,2|0,0:1|1:0,0:0:0:0:
274,379,48155,1,10,0:0:0:0:
274,379,48342,1,2,0:0:0:0:
339,286,48530,6,0,L|324:213,1,62.9999980773926,2|0,1:2|0:0,0:0:0:0:
252,163,48905,1,10,0:0:0:0:
252,163,49092,1,8,0:0:0:0:
292,70,49280,2,0,L|363:57,1,62.9999980773926,2|0,0:0|1:0,0:0:0:0:
454,69,49655,1,10,0:0:0:0:
408,158,49842,1,2,0:0:0:0:
498,227,50030,6,0,L|517:307,1,62.9999980773926,2|2,1:2|0:0,0:0:0:0:
426,341,50405,2,0,L|411:265,1,62.9999980773926,10|10,0:0|0:0,0:0:0:0:
339,219,50780,1,2,0:1:0:0:
339,219,50967,1,0,1:0:0:0:
285,304,51155,2,0,L|204:319,1,62.9999980773926,10|0,0:0|0:0,0:0:0:0:
111,339,51530,6,0,P|82:283|96:224,1,125.999996154785,2|8,1:2|0:0,0:0:0:0:
118,126,52092,2,0,P|168:119|195:114,1,62.9999980773926,8|0,0:0|0:0,0:0:0:0:
261,177,52467,1,0,1:0:0:0:
317,93,52655,2,0,L|305:22,1,62.9999980773926,8|2,0:0|0:0,0:0:0:0:
416,3,53030,5,2,1:2:0:0:
511,64,53217,2,0,L|500:135,1,62.9999980773926,2|8,0:0|0:0,0:0:0:0:
392,159,53592,2,0,L|407:236,1,62.9999980773926,10|2,0:0|0:1,0:0:0:0:
500,281,53967,2,0,L|485:358,1,62.9999980773926,2|8,1:2|0:0,0:0:0:0:
380,381,54342,1,2,0:0:0:0:
291,291,54530,6,0,B|265:224|308:234|276:154,1,125.999996154785,6|8,1:2|0:0,0:0:0:0:
233,78,55092,2,0,L|160:87,1,62.9999980773926,8|0,0:0|0:0,0:0:0:0:
69,90,55467,1,0,1:0:0:0:
109,182,55655,2,0,L|118:247,1,62.9999980773926,8|2,0:0|0:0,0:0:0:0:
132,357,56030,6,0,B|184:349|184:349|204:355|204:355|256:347,1,125.999996154785,2|8,1:2|0:0,0:0:0:0:
326,275,56592,2,0,L|393:287,1,62.9999980773926,10|2,0:0|0:1,0:0:0:0:
486,310,56967,1,2,1:2:0:0:
501,210,57155,2,0,L|486:141,1,62.9999980773926,10|2,0:0|0:0,0:0:0:0:
440,45,57530,6,0,P|379:32|321:55,1,125.999996154785,2|8,1:2|0:0,0:0:0:0:
220,48,58092,2,0,P|216:82|229:120,1,62.9999980773926,8|0,0:0|0:0,0:0:0:0:
270,199,58467,1,0,1:0:0:0:
191,262,58655,2,0,L|111:276,1,62.9999980773926,10|0,0:0|1:0,0:0:0:0:
16,292,59030,6,0,L|3:211,1,62.9999980773926,2|0,1:2|0:0,0:0:0:0:
64,147,59405,2,0,L|79:72,1,62.9999980773926,8|8,0:0|0:0,0:0:0:0:
145,11,59780,1,2,0:1:0:0:
145,11,59967,1,0,1:0:0:0:
219,78,60155,2,0,L|291:89,1,62.9999980773926,10|2,0:0|0:0,0:0:0:0:
393,105,60530,6,0,L|387:171,1,62.9999980773926,2|0,1:2|0:0,0:0:0:0:
437,261,60905,1,10,0:0:0:0:
437,261,61092,1,10,0:0:0:0:
348,309,61280,2,0,L|271:302,1,62.9999980773926,2|0,0:0|1:0,0:0:0:0:
195,256,61655,1,10,0:0:0:0:
131,333,61842,1,2,0:0:0:0:
56,247,62030,6,0,L|65:170,1,62.9999980773926,2|2,1:2|0:0,0:0:0:0:
76,84,62405,2,0,L|146:93,1,62.9999980773926,10|10,0:0|0:0,0:0:0:0:
225,38,62780,1,2,0:1:0:0:
225,38,62967,1,0,1:0:0:0:
278,123,63155,2,0,L|274:200,1,62.9999980773926,10|0,0:0|0:0,0:0:0:0:
269,299,63530,6,0,P|320:325|391:307,1,125.999996154785,2|8,1:2|0:0,0:0:0:0:
485,314,64092,2,0,P|490:282|482:244,1,62.9999980773926,8|0,0:0|0:0,0:0:0:0:
406,188,64467,1,0,1:0:0:0:
480,119,64655,2,0,L|470:47,1,62.9999980773926,8|2,0:0|0:0,0:0:0:0:
356,0,65030,5,6,1:2:0:0:
258,155,65405,2,0,B|145:141|189:219|72:200,1,188.999994232178,6|2,1:2|1:2,0:0:0:0:
6,144,66155,1,10,0:0:0:0:
6,144,66530,6,0,P|-12:201|14:260,1,112,4|8,1:2|0:0,0:0:0:0:
81,294,67092,2,0,P|120:286|158:277,1,56,8|0,0:0|0:0,0:0:0:0:
189,354,67467,1,0,1:0:0:0:
260,299,67655,2,0,P|287:304|314:309,1,56,8|0,0:0|0:0,0:0:0:0:
386,363,68030,2,0,P|403:308|377:245,1,112,0|8,1:0|0:0,0:0:0:0:
317,201,68592,2,0,L|324:130,1,56,8|2,0:0|0:1,0:0:0:0:
376,74,68967,1,0,1:0:0:0:
451,131,69155,1,8,0:0:0:0:
451,131,69530,6,0,P|467:75|446:12,1,112,0|8,1:0|0:0,0:0:0:0:
367,1,70092,2,0,L|289:10,1,56,8|0,0:0|0:0,0:0:0:0:
253,76,70467,1,0,1:0:0:0:
181,30,70655,1,8,0:0:0:0:
181,30,70842,1,0,0:0:0:0:
109,83,71030,6,0,L|95:152,1,56,0|0,1:0|0:0,0:0:0:0:
45,211,71405,1,8,0:0:0:0:
45,211,71592,1,8,0:0:0:0:
105,277,71780,2,0,L|164:286,1,56,2|0,0:1|1:0,0:0:0:0:
239,240,72155,1,8,0:0:0:0:
239,240,72342,1,0,0:0:0:0:
302,303,72530,6,0,P|357:331|415:313,1,112,0|8,1:0|0:0,0:0:0:0:
479,272,73092,2,0,L|463:205,1,56,8|0,0:0|0:0,0:0:0:0:
487,130,73467,1,0,1:0:0:0:
413,78,73655,2,0,L|345:90,1,56,8|0,0:0|0:0,0:0:0:0:
280,41,74030,2,0,B|212:32|237:63|166:53,1,112,0|8,1:0|0:0,0:0:0:0:
97,104,74592,2,0,L|112:176,1,56,8|2,0:0|0:1,0:0:0:0:
51,228,74967,1,0,1:0:0:0:
117,296,75155,1,8,0:0:0:0:
117,296,75530,6,0,B|164:288|164:288|183:293|183:293|236:286,1,112,0|8,1:0|0:0,0:0:0:0:
313,264,76092,2,0,L|301:187,1,56,8|0,0:0|0:0,0:0:0:0:
365,143,76467,1,0,1:0:0:0:
436,206,76655,1,8,0:0:0:0:
436,206,76842,1,0,0:0:0:0:
484,130,77030,6,0,L|472:69,1,56,0|0,1:0|0:0,0:0:0:0:
402,19,77405,2,0,L|335:28,1,56,8|8,0:0|0:0,0:0:0:0:
259,4,77780,1,2,0:1:0:0:
199,70,77967,1,0,1:0:0:0:
122,35,78155,1,8,0:0:0:0:
122,35,78342,1,0,1:0:0:0:
43,115,78530,6,0,P|23:170|53:226,1,112,4|8,1:2|0:0,0:0:0:0:
122,259,79092,2,0,L|189:248,1,56,8|0,0:0|0:0,0:0:0:0:
267,250,79467,1,0,1:0:0:0:
317,175,79655,2,0,L|302:98,1,56,8|0,0:0|0:0,0:0:0:0:
333,34,80030,2,0,P|388:17|444:50,1,112,0|8,1:0|0:0,0:0:0:0:
488,110,80592,2,0,L|477:184,1,56,8|2,0:0|0:1,0:0:0:0:
423,235,80967,1,0,1:0:0:0:
469,317,81155,1,8,0:0:0:0:
469,317,81530,6,0,L|352:305,1,112,0|8,1:0|0:0,0:0:0:0:
268,301,82092,2,0,L|273:241,1,56,8|0,0:0|0:0,0:0:0:0:
217,174,82467,1,0,1:0:0:0:
143,223,82655,1,8,0:0:0:0:
143,223,82842,1,0,0:0:0:0:
87,152,83030,6,0,L|94:89,1,56,0|0,1:0|0:0,0:0:0:0:
156,33,83405,1,8,0:0:0:0:
156,33,83592,1,8,0:0:0:0:
232,79,83780,2,0,L|296:86,1,56,2|0,0:1|1:0,0:0:0:0:
370,43,84155,1,8,0:0:0:0:
370,43,84342,1,0,0:0:0:0:
436,103,84530,6,0,P|457:153|433:215,1,112,0|8,1:0|0:0,0:0:0:0:
373,265,85092,2,0,P|339:260|294:255,1,56,8|0,0:0|0:0,0:0:0:0:
241,304,85467,1,0,1:0:0:0:
181,236,85655,2,0,L|191:154,1,56,8|0,0:0|0:0,0:0:0:0:
144,101,86030,2,0,P|192:72|258:85,1,112,0|8,1:0|0:0,0:0:0:0:
329,46,86592,2,0,P|347:75|350:106,1,56,8|2,0:0|0:1,0:0:0:0:
290,163,86967,1,0,1:0:0:0:
345,239,87155,1,8,0:0:0:0:
345,239,87530,6,0,L|459:224,1,112,0|8,1:0|0:0,0:0:0:0:
510,152,88092,2,0,L|495:75,1,56,8|0,0:0|0:0,0:0:0:0:
423,49,88467,1,0,1:0:0:0:
373,125,88655,1,8,0:0:0:0:
373,125,88842,1,0,0:0:0:0:
274,83,89030,5,4,1:2:0:0:
274,83,89405,2,0,B|294:161|244:164|266:248,1,168,4|0,1:2|1:0,0:0:0:0:
279,336,90155,2,0,P|228:357|168:349,1,112,8|0,0:0|0:0,0:0:0:0:
