osu file format v14

[General]
AudioFilename: audio.mp3
AudioLeadIn: 0
PreviewTime: 42359
Countdown: 0
SampleSet: Soft
StackLeniency: 0.7
Mode: 0
LetterboxInBreaks: 0
WidescreenStoryboard: 1

[Editor]
DistanceSpacing: 1.6
BeatDivisor: 4
GridSize: 4
TimelineZoom: 1.1

[Metadata]
Title:Darling
TitleUnicode:Darling
Artist:Kana Nishino
ArtistUnicode:西野カナ
Creator:Ataraxia
Version:My Dear
Source:
Tags:Alexsander TheBenderGamer fabiojhon Hoen Marianna with love short ver version cut japan record award
BeatmapID:990735
BeatmapSetID:443078

[Difficulty]
HPDrainRate:6
CircleSize:5
OverallDifficulty:7.5
ApproachRate:8
SliderMultiplier:1.6
SliderTickRate:1

[Events]
//Background and Video events
0,0,"Ataraxia.jpg",0,0
//Break Periods
//Storyboard Layer 0 (Background)
//Storyboard Layer 1 (Fail)
//Storyboard Layer 2 (Pass)
//Storyboard Layer 3 (Foreground)
//Storyboard Sound Samples

[TimingPoints]
1323,375,4,2,1,40,1,0
1323,-166.666666666667,4,2,1,40,0,0
7323,-166.666666666667,4,2,1,50,0,0
19323,-133.333333333333,4,2,1,65,0,0
31323,-117.647058823529,4,2,1,70,0,0
41823,-200,4,2,1,70,0,0
43323,-100,4,2,1,85,0,1
65823,-133.333333333333,4,2,1,75,0,0

[Colours]
Combo1 : 255,255,128
Combo2 : 255,81,81
Combo3 : 255,128,0
Combo4 : 128,64,64

[HitObjects]
20,120,1323,6,0,P|68:136|128:112,1,95.9999970703126,0|2,0:0|0:0,0:0:0:0:
164,76,1885,1,0,0:0:0:0:
164,76,2073,2,0,P|184:64|208:63,1,47.9999985351563,0|2,0:0|0:0,0:0:0:0:
264,100,2448,1,0,0:0:0:0:
304,160,2635,5,2,0:0:0:0:
304,160,2823,2,0,P|296:216|264:244,1,95.9999970703126,0|2,0:0|0:0,0:0:0:0:
156,328,3573,1,0,0:0:0:0:
88,348,3760,1,2,0:0:0:0:
32,304,3948,1,0,0:0:0:0:
80,248,4135,6,0,P|104:216|100:148,1,95.9999970703126,2|0,0:0|0:0,0:0:0:0:
101,98,4698,2,0,L|146:83,1,47.9999985351563,2|0,0:0|0:0,0:0:0:0:
194,36,5073,1,0,0:0:0:0:
241,83,5260,2,0,L|286:97,1,47.9999985351563,2|0,0:0|0:0,0:0:0:0:
340,136,5635,6,0,P|352:188|344:248,1,95.9999970703126,2|0,0:0|0:0,0:0:0:0:
304,280,6198,2,0,P|276:296|252:296,1,47.9999985351563,2|0,0:0|0:0,0:0:0:0:
192,300,6573,1,2,0:0:0:0:
68,208,6948,2,0,P|60:185|61:161,1,47.9999985351563,2|0,0:0|0:0,0:0:0:0:
100,108,7323,6,0,P|146:98|194:101,1,95.9999970703126,2|0,0:0|0:0,0:0:0:0:
276,208,8073,1,2,0:0:0:0:
156,268,8448,2,0,P|144:308|148:332,1,47.9999985351563,2|0,0:0|0:0,0:0:0:0:
188,363,8823,6,0,P|225:335|272:339,1,95.9999970703126,2|0,0:0|0:0,0:0:0:0:
404,356,9573,2,0,L|388:304,1,47.9999985351563,2|0,0:0|0:0,0:0:0:0:
332,280,9948,2,0,L|344:220,1,47.9999985351563,2|0,0:0|0:0,0:0:0:0:
356,168,10323,5,2,0:0:0:0:
356,168,10510,1,0,0:0:0:0:
304,116,10698,2,0,L|252:104,1,47.9999985351563,2|0,0:0|0:0,0:0:0:0:
184,108,11073,1,2,0:0:0:0:
152,172,11260,1,2,0:0:0:0:
224,172,11448,2,0,P|232:194|236:217,1,47.9999985351563,2|2,0:0|0:0,0:0:0:0:
204,284,11823,6,0,P|247:301|273:341,1,95.9999970703126,0|2,0:0|0:0,0:0:0:0:
340,372,12385,1,0,0:0:0:0:
392,320,12573,2,0,P|420:324|452:340,1,47.9999985351563
496,292,12948,2,0,P|478:276|464:256,1,47.9999985351563,2|0,0:0|0:0,0:0:0:0:
444,188,13323,6,0,P|404:162|357:158,1,95.9999970703126,2|0,0:0|0:0,0:0:0:0:
296,196,13885,1,2,0:0:0:0:
296,196,14073,2,0,P|256:212|192:200,1,95.9999970703126,2|0,0:0|0:0,0:0:0:0:
80,132,14823,6,0,L|63:226,1,95.9999970703126,2|2,0:0|0:0,0:0:0:0:
80,296,15385,1,0,0:0:0:0:
152,308,15573,2,0,P|180:324|200:348,1,47.9999985351563,2|0,0:0|0:0,0:0:0:0:
256,368,15948,1,2,0:0:0:0:
320,340,16135,1,0,0:0:0:0:
348,272,16323,6,0,P|329:228|289:202,1,95.9999970703126,2|0,0:0|0:0,0:0:0:0:
264,136,16885,2,0,L|204:124,1,47.9999985351563,2|0,0:0|0:0,0:0:0:0:
192,60,17260,2,0,L|136:80,1,47.9999985351563,2|0,0:0|0:0,0:0:0:0:
84,108,17635,1,2,0:0:0:0:
68,180,17823,6,0,P|68:227|88:270,1,95.9999970703126,2|2,0:0|0:0,0:0:0:0:
228,328,18573,2,0,P|268:336|288:336,1,47.9999985351563,2|0,0:0|0:0,0:0:0:0:
340,304,18948,2,0,P|348:264|348:244,1,47.9999985351563,2|0,0:0|0:0,0:0:0:0:
368,176,19323,6,0,P|332:144|256:152,1,120.000004577637,8|8,0:3|0:0,0:0:0:0:
189,202,19885,1,0,0:0:0:0:
189,202,20073,2,0,P|225:234|301:226,1,120.000004577637,0|8,0:3|0:0,0:0:0:0:
263,147,20635,1,0,0:0:0:0:
324,88,20823,6,0,P|382:75|436:100,1,120.000004577637,8|8,0:3|0:0,0:0:0:0:
484,176,21385,1,0,0:0:0:0:
404,216,21573,2,0,P|372:240|344:252,1,60.0000022888184,0|8,0:0|0:3,0:0:0:0:
290,184,21948,2,0,P|266:165|240:151,1,60.0000022888184,8|0,0:0|0:0,0:0:0:0:
148,196,22323,5,8,0:3:0:0:
60,176,22510,1,0,0:0:0:0:
48,88,22698,2,0,P|74:75|104:70,1,60.0000022888184,8|0,0:2|0:0,0:0:0:0:
168,4,23073,1,0,0:0:0:0:
200,88,23260,2,0,P|227:101|272:104,1,60.0000022888184,8|8,0:3|0:0,0:0:0:0:
320,40,23635,1,0,0:0:0:0:
384,104,23823,6,0,P|428:76|436:8,2,120.000004577637,0|8|8,0:3|0:0|0:3,0:0:0:0:
320,168,24760,1,8,0:3:0:0:
332,256,24948,2,0,P|368:292|388:300,1,60.0000022888184,8|0,0:0|0:0,0:0:0:0:
308,356,25323,6,0,P|268:336|180:340,1,120.000004577637,8|8,0:3|0:0,0:0:0:0:
104,360,25885,1,0,0:0:0:0:
104,360,26073,2,0,P|80:320|80:296,1,60.0000022888184,0|8,0:0|0:3,0:0:0:0:
124,232,26448,1,8,0:0:0:0:
56,172,26635,1,0,0:3:0:0:
108,96,26823,6,0,P|160:64|236:80,2,120.000004577637,8|8|8,0:3|0:0|0:3,0:0:0:0:
180,152,27760,1,8,0:3:0:0:
260,128,27948,2,0,P|280:104|284:56,1,60.0000022888184,8|0,0:0|0:0,0:0:0:0:
328,168,28323,6,0,P|320:228|348:284,1,120.000004577637,8|8,0:3|0:0,0:0:0:0:
272,340,28885,2,0,P|236:336|200:348,1,60.0000022888184
128,368,29260,1,8,0:3:0:0:
68,300,29448,2,0,P|62:270|66:241,1,60.0000022888184,8|8,0:0|0:3,0:0:0:0:
100,156,29823,5,8,0:3:0:0:
100,156,30198,1,8,0:3:0:0:
100,156,30573,6,0,L|104:92,2,60.0000022888184,0|0|0,0:3|0:0|0:0,0:0:0:0:
180,92,31135,1,8,0:3:0:0:
164,192,31323,6,0,P|136:220|104:228,1,68.0000012969971,8|0,0:3|0:0,0:0:0:0:
40,280,31698,2,0,P|68:308|100:316,1,68.0000012969971,8|0,0:3|0:0,0:0:0:0:
180,288,32073,2,0,P|213:265|305:281,1,136.000002593994
248,348,32635,1,0,0:0:0:0:
336,360,32823,6,0,P|368:332|384:300,1,68.0000012969971,8|0,0:3|0:0,0:0:0:0:
302,279,33198,1,8,0:0:0:0:
302,279,33385,2,0,P|277:218|300:156,1,136.000002593994,8|8,0:0|0:3,0:0:0:0:
388,132,33948,1,8,0:0:0:0:
328,68,34135,1,0,0:0:0:0:
416,68,34323,6,0,P|455:120|435:182,1,136.000002593994,8|8,0:3|0:0,0:0:0:0:
356,224,34885,1,8,0:0:0:0:
300,155,35073,2,0,P|264:144|224:140,1,68.0000012969971,0|8,0:0|0:3,0:0:0:0:
148,164,35448,1,0,0:0:0:0:
80,108,35635,1,0,0:0:0:0:
148,164,35823,6,0,L|139:241,1,68.0000012969971,8|0,0:3|0:0,0:0:0:0:
136,320,36198,1,8,0:2:0:0:
136,320,36385,1,8,0:2:0:0:
220,344,36573,2,0,P|253:345|285:332,1,68.0000012969971,0|8,0:3|0:3,0:0:0:0:
360,284,36948,1,8,0:0:0:0:
388,200,37135,1,0,0:0:0:0:
343,123,37323,6,0,L|260:108,1,68.0000012969971,8|0,0:3|0:0,0:0:0:0:
188,104,37698,2,0,P|176:135|178:169,1,68.0000012969971,8|8,0:2|0:0,0:0:0:0:
240,232,38073,2,0,P|251:263|249:297,1,68.0000012969971,0|8,0:3|0:3,0:0:0:0:
196,368,38448,2,0,P|164:379|130:377,1,68.0000012969971,8|0,0:2|0:0,0:0:0:0:
56,328,38823,6,0,P|28:307|11:279,1,68.0000012969971,8|0,0:3|0:0,0:0:0:0:
20,189,39198,2,0,P|31:157|53:131,1,68.0000012969971,8|8,0:0|0:0,0:0:0:0:
132,131,39573,2,0,L|199:142,1,68.0000012969971,0|8,0:0|0:3,0:0:0:0:
228,228,39948,2,0,L|294:216,1,68.0000012969971,8|0,0:0|0:0,0:0:0:0:
369,168,40323,6,0,P|389:116|381:88,1,68.0000012969971,8|0,0:3|0:0,0:0:0:0:
356,24,40698,1,8,0:0:0:0:
290,87,40885,2,0,P|274:151|310:235,1,136.000002593994,8|8,0:0|0:3,0:0:0:0:
372,260,41448,1,8,0:0:0:0:
456,240,41635,1,8,0:3:0:0:
400,176,41823,5,8,0:3:0:0:
400,176,42198,1,8,0:3:0:0:
400,176,42573,6,0,P|360:182|321:178,1,80
360,104,43135,1,0,0:0:0:0:
255,120,43323,6,0,P|238:155|235:195,1,80,4|0,1:2|0:0,0:0:0:0:
180,284,43698,1,8,0:0:0:0:
284,288,43885,2,0,P|324:292|372:284,1,80,8|0,0:0|0:0,0:0:0:0:
464,304,44260,1,0,1:0:0:0:
452,204,44448,2,0,P|457:165|454:125,1,80,8|0,0:0|0:0,0:0:0:0:
380,48,44823,6,0,P|344:40|296:40,1,80,0|0,1:0|0:0,0:0:0:0:
208,88,45198,1,8,0:0:0:0:
208,88,45385,1,8,0:0:0:0:
108,60,45573,1,0,3:0:0:0:
88,160,45760,2,0,P|84:212|104:252,1,80,0|8,1:0|0:0,0:0:0:0:
176,300,46135,1,0,0:0:0:0:
272,260,46323,6,0,P|310:248|356:263,1,80,0|0,1:0|0:0,0:0:0:0:
424,188,46698,1,8,0:0:0:0:
424,188,46885,2,0,P|396:172|368:124,1,80,8|0,0:0|0:0,0:0:0:0:
320,40,47260,1,0,1:0:0:0:
280,136,47448,2,0,P|259:170|226:191,1,80,8|0,0:0|0:0,0:0:0:0:
120,192,47823,6,0,L|104:280,1,80,0|0,1:0|0:0,0:0:0:0:
200,320,48198,1,8,0:0:0:0:
200,320,48385,1,8,0:0:0:0:
292,276,48573,1,0,3:0:0:0:
368,332,48760,2,0,P|402:348|448:348,2,80,0|8|0,1:0|0:0|0:0,0:0:0:0:
292,276,49323,6,0,P|284:224|300:180,1,80,0|0,1:0|0:0,0:0:0:0:
364,124,49698,1,8,0:0:0:0:
364,124,49885,1,8,0:0:0:0:
290,50,50073,2,0,P|258:62|210:58,1,80,0|0,0:0|1:0,0:0:0:0:
112,28,50448,1,8,0:0:0:0:
48,108,50635,1,0,0:0:0:0:
116,180,50823,6,0,L|104:272,1,80,0|0,1:0|0:0,0:0:0:0:
172,340,51198,1,8,0:0:0:0:
172,340,51385,1,8,0:0:0:0:
212,244,51573,2,0,P|272:244|308:252,1,80,0|0,3:0|1:0,0:0:0:0:
356,328,51948,2,0,P|395:333|435:331,1,80,8|0,0:0|0:0,0:0:0:0:
484,235,52323,6,0,P|494:197|495:157,1,80,0|0,1:0|0:0,0:0:0:0:
428,92,52698,1,8,0:0:0:0:
428,92,52885,2,0,P|376:88|324:96,1,80,8|0,0:0|0:0,0:0:0:0:
260,56,53260,1,0,1:0:0:0:
204,136,53448,2,0,P|164:140|124:137,1,80,8|0,0:0|0:0,0:0:0:0:
36,104,53823,6,0,P|32:152|44:200,1,80,0|0,1:0|0:0,0:0:0:0:
120,236,54198,1,8,0:0:0:0:
120,236,54385,1,8,0:0:0:0:
88,328,54573,1,0,3:0:0:0:
176,292,54760,2,0,P|224:288|264:296,1,80,0|8,1:0|0:0,0:0:0:0:
356,332,55135,1,0,0:0:0:0:
344,236,55323,6,0,P|320:196|320:136,1,80,0|0,1:0|0:0,0:0:0:0:
308,68,55698,1,8,0:0:0:0:
308,68,55885,2,0,P|264:64|228:68,1,80,8|0,0:0|0:0,0:0:0:0:
132,88,56260,1,0,1:0:0:0:
104,188,56448,2,0,L|112:276,1,80,8|0,0:0|0:0,0:0:0:0:
192,336,56823,6,0,L|199:256,1,80,0|0,1:3|0:0,0:0:0:0:
268,180,57198,1,8,0:0:0:0:
268,180,57385,1,8,0:0:0:0:
344,252,57573,1,0,3:0:0:0:
428,192,57760,2,0,P|452:160|460:104,1,80,0|8,1:0|0:0,0:0:0:0:
424,24,58135,1,0,0:0:0:0:
336,64,58323,6,0,P|301:84|260:83,1,80,0|0,1:0|0:0,0:0:0:0:
168,68,58698,1,8,0:0:0:0:
168,68,58885,2,0,P|168:107|188:141,1,80,8|0,0:0|0:0,0:0:0:0:
248,216,59260,1,0,1:0:0:0:
184,292,59448,2,0,P|145:301|105:296,1,80,8|0,0:0|0:0,0:0:0:0:
248,216,59823,6,0,B|249:257|249:257|275:291,1,80,0|0,1:2|0:0,0:0:0:0:
340,219,60198,2,0,B|363:188|363:188|364:147,1,80,8|0,0:0|0:0,0:0:0:0:
296,78,60573,1,8,3:2:0:0:
228,10,60760,1,0,1:0:0:0:
159,78,60948,1,8,0:0:0:0:
226,145,61135,1,0,0:0:0:0:
144,172,61323,6,0,P|130:209|128:249,1,80,0|0,1:0|0:0,0:0:0:0:
196,317,61698,1,8,0:0:0:0:
291,317,61885,1,8,0:0:0:0:
359,248,62073,2,0,P|357:208|343:170,1,80,0|0,0:0|1:0,0:0:0:0:
256,128,62448,1,8,0:0:0:0:
256,224,62635,1,0,0:0:0:0:
180,168,62823,6,0,P|168:136|176:92,1,80,0|0,1:0|0:0,0:0:0:0:
256,40,63198,1,8,0:0:0:0:
256,40,63385,1,8,0:0:0:0:
336,96,63573,2,0,P|344:134|332:172,1,80,0|0,3:0|1:0,0:0:0:0:
260,236,63948,2,0,P|251:197|263:159,1,80,8|0,0:0|0:0,0:0:0:0:
336,95,64323,6,0,P|375:96|413:108,1,80,0|0,1:0|0:0,0:0:0:0:
481,176,64698,1,8,0:0:0:0:
481,176,64885,2,8,P|482:215|468:253,1,80,8|0,0:0|0:0,0:0:0:0:
399,321,65260,1,0,1:0:0:0:
330,252,65448,1,8,0:0:0:0:
262,319,65635,1,0,0:0:0:0:
192,256,65823,6,0,P|172:232|168:188,1,60.0000022888184,8|0,0:0|0:0,0:0:0:0:
233,136,66198,2,0,L|217:76,2,60.0000022888184,12|0|0,0:0|0:0|0:0,0:0:0:0:
152,84,66760,1,0,1:0:0:0:
200,0,66948,1,8,0:0:0:0:
316,48,67323,5,0,1:0:0:0:
