osu file format v14

[General]
AudioFilename: audio.mp3
AudioLeadIn: 0
PreviewTime: 42491
Countdown: 0
SampleSet: Soft
StackLeniency: 0.9
Mode: 0
LetterboxInBreaks: 0
WidescreenStoryboard: 1

[Editor]
DistanceSpacing: 0.8
BeatDivisor: 2
GridSize: 4
TimelineZoom: 1

[Metadata]
Title:Darling
TitleUnicode:Darling
Artist:Kana Nishino
ArtistUnicode:西野カナ
Creator:-Sylvari
Version:Krfawy's Beginner
Source:
Tags:short ver version cut krfawy blan_c minorsonek
BeatmapID:1565055
BeatmapSetID:739368

[Difficulty]
HPDrainRate:2
CircleSize:2
OverallDifficulty:2
ApproachRate:2
SliderMultiplier:0.7
SliderTickRate:1

[Events]
//Background and Video events
0,0,"BG.jpg",0,0
//Break Periods
//Storyboard Layer 0 (Background)
//Storyboard Layer 1 (Fail)
//Storyboard Layer 2 (Pass)
//Storyboard Layer 3 (Foreground)
//Storyboard Sound Samples

[TimingPoints]
1335,375,4,2,1,55,1,0
6585,-100,4,2,1,60,0,0
7335,-100,4,2,1,65,0,0
18585,-100,4,2,1,65,0,0
19335,-100,4,2,6,70,0,0
31335,-100,4,2,4,70,0,0
31897,-100,4,2,5,70,0,0
32460,-100,4,2,4,70,0,0
33397,-100,4,2,5,70,0,0
33960,-100,4,2,4,70,0,0
34897,-100,4,2,5,70,0,0
35460,-100,4,2,4,70,0,0
36397,-100,4,2,5,70,0,0
36960,-100,4,2,4,70,0,0
37897,-100,4,2,5,70,0,0
38460,-100,4,2,4,70,0,0
39397,-100,4,2,5,70,0,0
39960,-100,4,2,4,70,0,0
40897,-100,4,2,5,70,0,0
41460,-100,4,2,4,70,0,0
43335,-100,4,2,6,80,0,1
43428,-100,4,2,4,80,0,1
43897,-100,4,2,5,80,0,1
44460,-100,4,2,4,80,0,1
45397,-100,4,2,5,80,0,1
45960,-100,4,2,4,80,0,1
46897,-100,4,2,5,80,0,1
47460,-100,4,2,4,80,0,1
48397,-100,4,2,5,80,0,1
48960,-100,4,2,4,80,0,1
49897,-100,4,2,5,80,0,1
50460,-100,4,2,4,80,0,1
51397,-100,4,2,5,80,0,1
51960,-100,4,2,4,80,0,1
52897,-100,4,2,5,80,0,1
53460,-100,4,2,4,80,0,1
54397,-100,4,2,5,80,0,1
54960,-100,4,2,4,80,0,1
55897,-100,4,2,5,80,0,1
56460,-100,4,2,4,80,0,1
57397,-100,4,2,5,80,0,1
57960,-100,4,2,4,80,0,1
58897,-100,4,2,5,80,0,1
59460,-100,4,2,4,80,0,1
60772,-100,4,2,5,80,0,1
61335,-100,4,2,4,80,0,1
61897,-100,4,2,5,80,0,1
62460,-100,4,2,4,80,0,1
63397,-100,4,2,5,80,0,1
63960,-100,4,2,4,80,0,1
64897,-100,4,2,5,80,0,1
65460,-100,4,2,4,80,0,1
66210,-100,4,2,7,80,0,1
66397,-100,4,2,5,80,0,1
66960,-100,4,2,4,80,0,1
67335,-100,4,2,5,70,0,0
67428,-100,4,2,1,70,0,0
70335,-100,4,2,1,5,0,0

[Colours]
Combo1 : 164,107,2
Combo2 : 255,128,64
Combo3 : 103,53,3
Combo4 : 255,182,108

[HitObjects]
377,57,6585,5,0,2:0:0:0:
322,155,7335,2,0,B|303:200|197:200|197:200|90:200|72:245,1,280,0|0,2:0|2:0,0:0:0:0:
47,354,9585,2,0,P|93:351|124:342,1,70,0|2,2:0|2:0,0:0:0:0:
168,326,10335,2,0,B|204:316|227:337|233:342|233:342|238:346|261:368|298:358,2,140,0|0|0,2:0|2:0|2:0,0:0:0:0:
56,339,12585,1,0,2:0:0:0:
19,233,13335,6,0,B|-6:134|-6:134|1:97,1,140,0|0,2:0|2:0,0:0:0:0:
73,11,14835,1,0,2:0:0:0:
128,16,15210,1,2,2:0:0:0:
181,32,15585,1,0,2:0:0:0:
268,101,16335,2,0,B|286:171|251:218|242:231|242:231|233:242|198:293|218:368,1,280,0|0,2:0|2:0,0:0:0:0:
328,368,18585,6,0,P|340:323|343:291,1,70,0|2,2:0|2:0,0:0:0:0:
344,244,19335,2,0,B|392:276|452:244|452:244|474:257,2,140,2|0|2,2:2|2:0|2:0,0:0:0:0:
256,173,21585,1,0,2:0:0:0:
264,117,21960,1,8,2:2:0:0:
278,62,22335,2,0,B|314:30|366:30|366:30|410:30,2,140,2|0|2,2:2|2:0|2:2,0:0:0:0:
256,172,24585,2,0,P|271:202|295:227,1,70,0|8,2:0|2:2,0:0:0:0:
336,267,25335,6,0,B|385:343|385:343|281:308|281:371|198:336,1,280,2|2,2:2|2:2,0:0:0:0:
100,283,27585,2,0,P|89:315|88:350,2,70,0|8|2,2:0|2:2|2:2,0:0:0:0:
168,192,29085,1,0,2:0:0:0:
256,123,29835,1,2,2:2:0:0:
311,133,30210,1,10,2:2:0:0:
360,158,30585,1,0,2:0:0:0:
453,221,31335,6,0,B|423:269|376:270|366:271|366:271|356:272|309:272|279:321,1,210,2|8,2:0|2:2,0:0:0:0:
250,367,32835,2,0,P|180:364|115:338,1,140,2|0,2:0|2:0,0:0:0:0:
22,276,34335,2,0,B|12:245|12:245|12:136,1,140,2|0,2:2|2:0,0:0:0:0:
19,81,35460,1,8,0:0:0:0:
25,24,35835,2,0,B|58:6|82:20|91:26|91:26|100:31|124:45|158:28,1,140,2|0,2:0|2:0,0:0:0:0:
268,12,37335,6,0,B|279:83|234:123|220:134|220:134|205:147|163:184|174:262,1,280,2|2,2:2|0:0,0:0:0:0:
197,371,39585,1,0,2:0:0:0:
256,192,40335,12,2,41835,2:2:0:0:
256,94,43335,6,0,B|229:141|249:178|256:192|256:192|261:204|283:242|259:297,1,210,6|8,2:2|2:2,0:0:0:0:
226,340,44835,2,0,P|170:368|89:330,1,140,2|4,2:2|2:0,0:0:0:0:
21,264,46335,2,0,B|1:223|25:181|25:181|-22:109|25:49|81:32|137:49|185:109|137:181,1,420,2|4,2:2|2:0,0:0:0:0:
128,292,49335,6,0,B|204:256|256:312|256:312|308:256|384:292,1,280,2|2,2:2|2:2,0:0:0:0:
493,311,51585,1,4,2:0:0:0:
455,205,52335,2,0,P|392:174|323:166,1,140,2|0,2:0|2:2,0:0:0:0:
212,186,53835,1,2,2:0:0:0:
160,207,54210,1,8,2:0:0:0:
113,237,54585,1,4,2:0:0:0:
48,330,55335,6,0,P|62:214|13:106,1,210,2|8,2:2|2:2,0:0:0:0:
7,77,56835,2,0,P|54:39|141:26,1,140,2|4,2:2|2:0,0:0:0:0:
241,45,58335,2,0,B|272:118|357:132|357:132|344:71|393:10,1,280,2|10,2:2|2:2,0:0:0:0:
490,65,60585,1,12,2:0:0:0:
505,175,61335,6,0,B|488:243|426:288|426:288|347:276|291:217,1,280,2|2,2:2|2:2,0:0:0:0:
244,132,63585,1,4,2:2:0:0:
194,105,63960,1,8,2:2:0:0:
144,82,64335,2,0,P|88:78|16:130,1,140,2|0,2:2|2:0,0:0:0:0:
10,234,65835,1,10,2:2:0:0:
28,286,66210,1,12,2:2:0:0:
256,192,67335,12,0,70335,3:2:0:0:
