osu file format v14

[General]
AudioFilename: audio.mp3
AudioLeadIn: 0
PreviewTime: 42491
Countdown: 0
SampleSet: Soft
StackLeniency: 0.9
Mode: 0
LetterboxInBreaks: 0
WidescreenStoryboard: 0

[Editor]
DistanceSpacing: 1
BeatDivisor: 2
GridSize: 4
TimelineZoom: 1

[Metadata]
Title:Darling
TitleUnicode:Darling
Artist:Kana Nishino
ArtistUnicode:西野カナ
Creator:-Sylvari
Version:Easy
Source:
Tags:short ver version cut krfawy blan_c minorsonek
BeatmapID:1560165
BeatmapSetID:739368

[Difficulty]
HPDrainRate:2.5
CircleSize:2
OverallDifficulty:3
ApproachRate:4
SliderMultiplier:1
SliderTickRate:1

[Events]
//Background and Video events
0,0,"BG.jpg",0,0
//Break Periods
//Storyboard Layer 0 (Background)
//Storyboard Layer 1 (Fail)
//Storyboard Layer 2 (Pass)
//Storyboard Layer 3 (Foreground)
//Storyboard Sound Samples

[TimingPoints]
1335,375,4,2,1,55,1,0
6585,-100,4,2,1,60,0,0
7335,-100,4,2,1,65,0,0
18585,-100,4,2,1,65,0,0
19335,-100,4,2,6,70,0,0
31335,-100,4,2,4,70,0,0
31897,-100,4,2,5,70,0,0
32460,-100,4,2,4,70,0,0
33397,-100,4,2,5,70,0,0
33960,-100,4,2,4,70,0,0
34897,-100,4,2,5,70,0,0
35460,-100,4,2,4,70,0,0
36397,-100,4,2,5,70,0,0
36960,-100,4,2,4,70,0,0
37897,-100,4,2,5,70,0,0
38460,-100,4,2,4,70,0,0
39397,-100,4,2,5,70,0,0
39960,-100,4,2,4,70,0,0
40897,-100,4,2,5,70,0,0
41460,-100,4,2,4,70,0,0
43335,-100,4,2,6,80,0,1
43428,-100,4,2,4,80,0,1
43897,-100,4,2,5,80,0,1
44460,-100,4,2,4,80,0,1
45397,-100,4,2,5,80,0,1
45960,-100,4,2,4,80,0,1
46897,-100,4,2,5,80,0,1
47460,-100,4,2,4,80,0,1
48397,-100,4,2,5,80,0,1
48960,-100,4,2,4,80,0,1
49897,-100,4,2,5,80,0,1
50460,-100,4,2,4,80,0,1
51397,-100,4,2,5,80,0,1
51960,-100,4,2,4,80,0,1
52897,-100,4,2,5,80,0,1
53460,-100,4,2,4,80,0,1
54397,-100,4,2,5,80,0,1
54960,-100,4,2,4,80,0,1
55897,-100,4,2,5,80,0,1
56460,-100,4,2,4,80,0,1
57397,-100,4,2,5,80,0,1
57960,-100,4,2,4,80,0,1
58897,-100,4,2,5,80,0,1
59460,-100,4,2,4,80,0,1
60772,-100,4,2,5,80,0,1
61335,-100,4,2,4,80,0,1
61897,-100,4,2,5,80,0,1
62460,-100,4,2,4,80,0,1
63397,-100,4,2,5,80,0,1
63960,-100,4,2,4,80,0,1
64897,-100,4,2,5,80,0,1
65460,-100,4,2,4,80,0,1
66210,-100,4,2,7,80,0,1
66397,-100,4,2,5,80,0,1
66960,-100,4,2,4,80,0,1
67335,-100,4,2,5,70,0,0
67428,-100,4,2,1,70,0,0
70335,-100,4,2,1,5,0,0

[Colours]
Combo1 : 164,107,2
Combo2 : 255,128,64
Combo3 : 103,53,3
Combo4 : 255,182,108

[HitObjects]
189,42,1335,6,0,P|203:92|198:145,1,100,0|2,2:0|2:0,0:0:0:0:
139,219,2085,1,0,2:0:0:0:
42,243,2460,2,0,P|68:289|120:318,2,100,2|0|2,2:0|0:0|2:0,0:0:0:0:
44,143,3585,2,0,L|48:43,1,100,0|2,2:0|2:0,0:0:0:0:
156,42,4335,6,0,L|160:142,1,100,0|2,0:0|2:0,0:0:0:0:
166,234,5085,1,0,0:0:0:0:
249,178,5460,2,0,P|265:232|255:278,2,100,2|0|2,0:0|0:0|2:0,0:0:0:0:
199,91,6585,6,0,L|407:82,1,200,0|0,2:0|2:0,0:0:0:0:
511,247,8085,2,0,L|311:255,1,200,0|0,2:0|2:0,0:0:0:0:
110,255,9585,6,0,P|77:207|76:165,1,100,0|2,2:0|2:0,0:0:0:0:
138,86,10335,1,0,2:0:0:0:
173,179,10710,1,2,2:0:0:0:
209,272,11085,2,0,P|188:321|145:355,2,100,0|2|0,2:0|2:0|2:0,0:0:0:0:
222,33,12960,1,2,2:0:0:0:
314,73,13335,6,0,P|357:113|371:153,1,100,0|2,2:0|2:0,0:0:0:0:
464,185,14085,2,0,P|455:233|425:273,1,100,0|2,2:0|2:0,0:0:0:0:
343,329,14835,2,0,P|246:350|147:340,2,200,0|0|0,2:0|2:0|2:0,0:0:0:0:
450,265,18585,1,0,2:0:0:0:
369,204,18960,1,2,2:0:0:0:
273,173,19335,6,0,P|269:219|305:284,1,100,2|8,2:2|2:2,0:0:0:0:
370,325,20085,1,0,2:0:0:0:
450,265,20460,1,8,2:2:0:0:
369,204,20835,2,0,L|366:97,1,100,2|8,2:0|2:2,0:0:0:0:
287,43,21585,2,0,P|257:85|249:133,1,100,0|8,2:0|2:2,0:0:0:0:
245,231,22335,6,0,P|235:279|205:319,1,100,2|8,2:2|2:2,0:0:0:0:
104,312,23085,1,0,2:0:0:0:
58,222,23460,1,8,2:2:0:0:
104,132,23835,2,0,P|142:167|158:225,2,100,2|8|0,2:2|2:2|2:0,0:0:0:0:
13,89,24960,1,8,2:2:0:0:
96,32,25335,6,0,L|206:30,1,100,2|8,2:2|2:2,0:0:0:0:
246,116,26085,2,0,L|345:114,1,100,0|8,2:0|2:0,0:0:0:0:
445,113,26835,2,0,P|437:153|396:199,2,100,2|8|0,2:2|2:2|2:0,0:0:0:0:
386,31,27960,1,8,2:2:0:0:
290,9,28335,1,2,2:2:0:0:
288,109,28710,5,8,2:2:0:0:
192,74,29085,2,0,P|168:68|86:75,1,100,0|8,2:0|2:2,0:0:0:0:
19,139,29835,1,2,2:2:0:0:
98,199,30210,1,10,2:2:0:0:
10,249,30585,5,0,2:0:0:0:
93,303,30960,1,8,2:2:0:0:
184,343,31335,6,0,P|235:319|267:267,1,100,2|8,2:0|2:0,0:0:0:0:
273,185,32085,1,0,2:0:0:0:
353,125,32460,1,8,2:2:0:0:
364,224,32835,1,2,2:0:0:0:
375,323,33210,2,0,P|459:254|443:165,1,200,8|8,2:2|2:2,0:0:0:0:
398,85,34335,6,0,P|349:75|299:83,1,100,2|8,2:2|2:0,0:0:0:0:
212,131,35085,2,0,P|191:178|179:230,1,100,0|8,2:0|0:0,0:0:0:0:
162,323,35835,1,2,2:0:0:0:
255,358,36210,1,8,2:0:0:0:
341,307,36585,2,0,P|373:266|378:214,1,100,0|8,2:0|2:0,0:0:0:0:
280,225,37335,5,2,2:2:0:0:
232,137,37710,2,0,P|282:124|345:149,2,100,8|0|8,2:0|2:2|2:0,0:0:0:0:
139,175,38835,2,0,P|88:186|29:165,2,100,2|8|0,0:0|2:2|2:0,0:0:0:0:
256,192,39960,12,2,41835,2:2:0:0:
167,97,43335,6,0,P|242:156|240:252,1,200,6|0,2:2|2:0,0:0:0:0:
192,341,44460,1,8,2:2:0:0:
291,354,44835,2,0,P|340:342|380:313,1,100,2|8,2:2|2:2,0:0:0:0:
403,216,45585,2,0,P|357:196|307:192,1,100,4|8,2:0|2:2,0:0:0:0:
210,214,46335,6,0,P|114:232|22:196,1,200,2|0,2:2|2:2,0:0:0:0:
56,101,47460,1,8,2:2:0:0:
141,48,47835,2,0,P|237:29|329:65,1,200,2|4,2:2|2:0,0:0:0:0:
408,127,48960,1,8,2:0:0:0:
388,222,49335,6,0,P|332:193|308:142,1,100,2|8,2:2|2:2,0:0:0:0:
329,65,50085,1,0,2:0:0:0:
235,99,50460,1,8,2:0:0:0:
313,163,50835,6,0,P|276:211|234:228,1,100,2|8,2:2|2:2,0:0:0:0:
148,188,51585,1,4,2:0:0:0:
148,287,51960,1,8,2:0:0:0:
55,249,52335,2,0,P|46:144|126:78,1,200,2|0,2:0|2:2,0:0:0:0:
204,50,53460,1,8,2:0:0:0:
303,51,53835,6,0,P|299:97|259:141,1,100,2|8,2:0|2:0,0:0:0:0:
175,181,54585,2,0,P|168:230|180:278,1,100,4|8,2:0|2:2,0:0:0:0:
250,349,55335,2,0,P|350:370|447:349,1,200,2|0,2:2|2:0,0:0:0:0:
495,264,56460,1,8,2:2:0:0:
495,164,56835,6,8,P|449:174|409:214,1,100,2|8,2:2|2:2,0:0:0:0:
343,282,57585,1,4,2:0:0:0:
254,236,57960,1,8,2:2:0:0:
264,138,58335,6,0,P|167:131|101:210,1,200,2|0,2:2|2:2,0:0:0:0:
143,294,59460,1,8,2:0:0:0:
241,275,59835,2,0,P|290:265|340:267,2,100,10|8|12,2:2|2:2|2:0,0:0:0:0:
143,294,60960,1,8,2:0:0:0:
48,260,61335,6,0,P|25:216|30:157,1,100,2|8,2:2|2:2,0:0:0:0:
58,71,62085,1,0,2:0:0:0:
156,53,62460,2,0,P|213:57|258:87,2,100,8|2|8,2:2|2:2|2:2,0:0:0:0:
58,71,63585,1,4,2:2:0:0:
37,168,63960,1,8,2:2:0:0:
19,266,64335,6,0,P|111:300|227:283,1,200,2|0,2:2|2:0,0:0:0:0:
230,191,65460,1,8,2:2:0:0:
222,91,65835,2,0,P|270:104|311:134,2,100,10|12|0,2:2|2:2|2:0,0:0:0:0:
140,148,66960,1,8,2:2:0:0:
230,191,67335,5,2,2:2:0:0:
256,192,67522,12,0,70335,3:2:0:0:
